VERSION	0.00.00	1.03.00
FES_MODE	0
BPM_DEF	200.000	200.000	200.000	200.000
MET_DEF	4	4
RESOLUTION	384
CLK_DEF	384
COMPATIBLE_CODE	MA2

BPM	0	0	200.000
MET	0	0	4	4

STR	1	0	5
SCR	1	0	5	96	192	0
STR	2	0	1
SCR	2	0	1	96	192	4
TAP	3	0	5
TAP	3	192	6
TAP	4	0	0
STR	4	0	7
SCL	4	0	7	96	288	2
TAP	5	192	1
TAP	5	288	0
TAP	6	0	0
TAP	6	0	1
TAP	6	96	2
TAP	6	96	7
TAP	6	288	6
TAP	6	288	7
TAP	7	0	6
TAP	7	0	7
TAP	7	96	0
TAP	7	96	5
TAP	7	288	3
TAP	7	288	4
TAP	8	0	2
TAP	8	96	1
TAP	8	192	0
TAP	8	288	7
TAP	9	0	6
TAP	9	96	5
TAP	9	192	4
TAP	9	288	3
TAP	10	0	4
TAP	10	48	4
TAP	10	96	4
TAP	10	192	3
TAP	10	240	3
TAP	10	288	3
TAP	11	0	3
TAP	11	0	4
TAP	11	96	2
TAP	11	96	5
TAP	11	144	2
TAP	11	144	5
XTP	11	288	0
XTP	11	288	7
TAP	12	0	6
TAP	12	96	6
TAP	12	192	6
TAP	12	192	7
TAP	13	0	1
TAP	13	96	1
TAP	13	192	0
TAP	13	192	1
HLD	14	0	0	192
HLD	14	0	7	192
TAP	14	288	1
TAP	15	0	2
TAP	15	96	3
TAP	15	192	4
TAP	15	288	5
TAP	16	0	6
TAP	16	0	7
TAP	16	96	6
TAP	16	96	7
TAP	16	192	5
TAP	16	288	4
TAP	17	0	2
TAP	17	0	3
TAP	17	96	2
TAP	17	96	3
TAP	17	192	1
TAP	17	288	0
XST	18	0	1
SLR	18	0	1	96	384	0
XST	18	0	6
SLL	18	0	6	96	384	7
TTP	20	0	0	B	0	L1
TTP	21	0	1	B	0	L1
TTP	22	0	2	B	0	L1
TTP	23	0	3	B	0	L1
TTP	24	0	4	B	0	L1
TTP	25	0	5	B	0	L1
TTP	26	0	6	B	0	L1
TTP	27	0	0	C	0	L1
TAP	28	0	6
TAP	28	96	6
TAP	28	192	7
TAP	28	288	7
TAP	29	0	0
TAP	29	96	0
TAP	29	192	1
TAP	29	192	7
TAP	30	0	2
TAP	30	96	2
TAP	30	192	3
TAP	30	288	3
TAP	31	0	3
TAP	31	0	4
TAP	31	96	3
TAP	31	96	4
TAP	31	192	2
TAP	31	192	5
HLD	32	0	6	96
TAP	32	96	7
TAP	32	192	6
TAP	32	192	7
HLD	33	0	1	96
TAP	33	96	0
TAP	33	192	0
TAP	33	192	1
HLD	34	0	7	96
XTP	34	96	0
XTP	34	192	0
XTP	34	192	7
XTP	34	240	0
XTP	34	240	7
XST	34	336	0
SCR	34	336	0	96	192	3
XST	34	336	7
SCL	34	336	7	96	192	4
STR	36	0	5
SI_	36	0	5	96	192	1
STR	37	0	0
SI_	37	0	0	96	192	3
STR	38	0	4
SCR	38	0	4	96	192	7
TAP	39	0	0
TAP	39	192	0
TAP	39	192	7
STR	40	0	1
SI_	40	0	1	96	192	5
STR	41	0	6
SI_	41	0	6	96	192	2
STR	42	0	0
SCR	42	0	0	96	192	3
TAP	43	0	4
TAP	43	192	3
TAP	43	192	4
HLD	44	0	5	192
HLD	44	192	4	192
HLD	45	0	3	192
TAP	45	192	2
HLD	46	0	1	192
HLD	46	192	0	192
HLD	47	0	7	192
TAP	47	192	6
HLD	48	0	5	192
TAP	48	192	4
HLD	49	0	2	192
TAP	49	192	3
HLD	50	0	4	96
HLD	50	0	5	96
TAP	50	192	4
TAP	50	192	5
HLD	51	0	2	96
HLD	51	0	3	96
TAP	51	192	2
TAP	51	192	3
TTP	52	0	0	C	0	L1
HLD	54	0	0	144
TAP	54	144	7
XTP	54	288	0
XTP	54	288	7
XST	54	336	0
SI_	54	336	0	96	192	4
XST	54	336	7
SI_	54	336	7	96	192	3
TAP	56	0	2
TAP	56	96	1
TAP	56	192	0
TAP	56	288	7
TAP	57	0	6
TAP	57	96	5
TAP	57	192	4
TAP	57	288	3
TAP	58	0	2
TAP	58	48	2
TAP	58	96	2
TAP	58	192	1
TAP	58	240	1
TAP	58	288	1
BRK	59	0	0
BRK	59	0	7
TAP	59	288	4
TAP	59	288	5
TAP	60	0	6
TAP	60	0	7
TAP	60	96	0
TAP	60	96	1
TAP	60	144	0
TAP	60	144	1
STR	60	240	2
SCL	60	240	2	96	192	7
STR	60	240	3
SCR	60	240	3	96	192	6
TAP	61	288	6
TAP	61	288	7
TAP	62	0	4
TAP	62	0	5
TAP	62	96	2
TAP	62	96	3
TAP	62	144	2
TAP	62	144	3
STR	62	240	0
SCL	62	240	0	96	192	5
STR	62	240	1
SCR	62	240	1	96	192	4
TAP	63	288	4
TAP	63	288	5
TAP	64	0	6
TAP	64	0	7
TAP	64	96	0
TAP	64	96	5
HLD	64	144	0	96
HLD	64	144	5	96
XST	64	336	6
SI_	64	336	6	96	192	3
XST	64	336	7
SI_	64	336	7	96	192	2
TAP	66	0	0
TAP	66	0	1
TAP	66	96	2
TAP	66	96	7
HLD	66	144	2	96
HLD	66	144	7	96
XST	66	336	0
SI_	66	336	0	96	192	5
XST	66	336	1
SI_	66	336	1	96	192	4
TAP	68	0	6
TAP	68	96	6
TAP	68	192	7
TAP	68	288	7
TAP	69	0	0
TAP	69	96	0
TAP	69	192	1
TAP	69	192	7
TAP	70	0	2
TAP	70	96	2
TAP	70	192	3
TAP	70	288	3
TAP	71	0	3
TAP	71	0	4
TAP	71	96	3
TAP	71	96	4
TAP	71	192	2
TAP	71	192	5
TAP	72	0	6
TAP	72	96	6
TAP	72	96	7
TAP	72	192	1
TAP	72	288	0
TAP	72	288	1
TAP	73	0	7
TAP	73	96	0
TAP	73	96	7
TAP	73	192	1
TAP	73	192	6
HLD	74	0	1	192
HLD	74	192	0	192
HLD	75	0	7	192
HLD	75	192	6	192
STR	76	0	7
SCL	76	0	7	96	480	0
STR	78	0	6
SI_	78	0	6	96	144	4
STR	79	0	3
SI_	79	0	3	96	144	1
STR	80	0	7
SXR	80	0	7	96	480	3
STR	82	0	2
SI_	82	0	2	96	144	0
STR	83	0	7
SI_	83	0	7	96	144	5
STR	84	0	3
SXR	84	0	3	96	480	7
TTP	86	0	4	B	0	L1
TTP	86	0	5	B	0	L1
TTP	87	0	6	B	0	L1
TTP	87	0	7	B	0	L1
TTP	88	0	0	B	0	L1
TTP	88	0	1	B	0	L1
TTP	89	0	2	B	0	L1
TTP	89	0	3	B	0	L1
TTP	90	0	0	C	0	L1
HLD	92	0	0	144
TAP	92	144	7
XTP	92	288	0
XTP	92	288	7
XST	92	336	0
SCR	92	336	0	96	192	3
XST	92	336	7
SCL	92	336	7	96	192	4
TAP	94	0	2
TAP	94	96	1
TAP	94	192	0
TAP	94	288	7
TAP	95	0	6
TAP	95	96	5
TAP	95	192	4
TAP	95	288	3
TAP	96	0	2
TAP	96	48	2
TAP	96	96	2
TAP	96	192	1
TAP	96	240	1
TAP	96	288	1
TAP	97	0	0
TAP	97	48	0
TAP	97	96	0
BRK	97	192	0
BRK	97	192	7
STR	98	0	7
SCL	98	0	7	96	480	2
STR	100	0	0
SLR	100	0	0	96	432	4
TAP	101	288	5
TAP	102	0	6
TAP	102	0	7
TAP	102	96	0
TAP	102	96	5
TAP	102	144	0
TAP	102	144	5
TAP	102	240	1
TAP	102	240	4
TAP	102	288	1
TAP	102	288	4
STR	103	0	2
SI_	103	0	2	96	192	7
TAP	103	0	3
TAP	104	0	6
TAP	104	96	4
TAP	104	96	5
TAP	104	144	4
TAP	104	144	5
TAP	104	240	2
TAP	104	240	3
TAP	104	288	2
TAP	104	288	3
TAP	105	0	0
STR	105	0	1
SI_	105	0	1	96	192	4
HLD	106	0	5	96
HLD	106	192	2	96
HLD	106	192	3	96
TAP	107	0	3
TAP	107	0	4
TAP	107	96	2
TAP	107	96	5
TAP	107	192	1
TAP	107	192	6
TAP	108	0	5
TAP	108	96	4
TAP	108	192	2
TAP	108	288	3
TAP	109	0	4
TAP	109	96	3
TAP	109	192	2
TAP	109	192	5
STR	110	0	6
SCL	110	0	6	96	192	3
TAP	110	0	7
TAP	111	0	2
TAP	111	96	2
TAP	111	96	3
TAP	112	0	0
STR	112	0	1
SCR	112	0	1	96	192	4
TAP	113	0	5
TAP	113	96	4
TAP	113	96	5
STR	114	0	6
SSL	114	0	6	96	480	2
TAP	116	0	1
TAP	116	96	0
TAP	116	192	7
TAP	116	288	6
TAP	117	0	5
TAP	117	96	4
TAP	117	192	3
TAP	117	288	2
TAP	118	0	0
TAP	118	0	1
TAP	118	48	0
TAP	118	48	1
TAP	118	144	6
TAP	118	144	7
TAP	118	192	6
TAP	118	192	7
TAP	118	288	4
TAP	118	288	5
TAP	118	336	4
TAP	118	336	5
TAP	119	48	2
TAP	119	48	3
TAP	119	96	2
TAP	119	96	3
TAP	119	192	1
TAP	119	192	4
BRK	119	288	0
BRK	119	288	7
STR	120	0	6
SUL	120	0	6	96	192	2
STR	121	0	1
SUR	121	0	1	96	192	5
STR	122	0	6
SCL	122	0	6	96	192	3
TAP	123	0	2
TAP	123	192	1
STR	124	0	0
SCR	124	0	0	96	192	3
STR	125	0	4
SCR	125	0	4	96	192	7
STR	126	0	0
SUR	126	0	0	96	192	4
TAP	127	0	5
TAP	127	192	6
TTP	128	0	1	B	0	L1
TTP	128	192	0	B	0	L1
TTP	129	0	7	B	0	L1
TTP	129	192	6	B	0	L1
TTP	130	0	5	B	0	L1
TTP	130	192	4	B	0	L1
TTP	131	0	3	B	0	L1
TTP	131	192	2	B	0	L1
TTP	132	0	0	C	1	L1

T_REC_TAP	262
T_REC_BRK	6
T_REC_XTP	11
T_REC_HLD	30
T_REC_XHO	0
T_REC_STR	33
T_REC_BST	0
T_REC_XST	12
T_REC_TTP	27
T_REC_THO	0
T_REC_SLD	45
T_REC_ALL	426
T_NUM_TAP	345
T_NUM_BRK	6
T_NUM_HLD	30
T_NUM_SLD	45
T_NUM_ALL	426
T_JUDGE_TAP	351
T_JUDGE_HLD	90
T_JUDGE_SLD	45
T_JUDGE_ALL	486
TTM_EACHPAIRS	97
TTM_SCR_TAP	172500
TTM_SCR_BRK	15600
TTM_SCR_HLD	30000
TTM_SCR_SLD	67500
TTM_SCR_ALL	285600
TTM_SCR_S	276450
TTM_SCR_SS	285000
TTM_RAT_ACV	10021

