VERSION	0.00.00	1.03.00
FES_MODE	0
BPM_DEF	200.000	200.000	200.000	200.000
MET_DEF	4	4
RESOLUTION	384
CLK_DEF	384
COMPATIBLE_CODE	MA2

BPM	0	0	200.000
MET	0	0	4	4

TAP	1	0	0
TAP	3	0	7
XHO	6	0	0	288
XHO	7	288	7	384
XHO	10	0	0	384
XHO	10	0	7	384
STR	12	0	0
SI_	12	0	0	96	288	3
STR	14	0	7
SI_	14	0	7	96	288	4
STR	16	0	0
SI_	16	0	0	96	288	4
STR	18	0	7
SI_	18	0	7	96	288	3
TTP	20	0	3	B	0	L1
TTP	21	0	4	B	0	L1
TTP	22	0	2	B	0	L1
TTP	23	0	5	B	0	L1
TTP	24	0	1	B	0	L1
TTP	25	0	6	B	0	L1
THO	26	0	0	384	C	0	L1
TAP	28	0	0
TAP	28	192	0
TAP	29	0	1
TAP	29	192	1
TAP	30	0	2
TAP	30	192	2
TAP	31	0	3
TAP	31	0	4
TAP	32	0	4
TAP	32	192	4
TAP	33	0	5
TAP	33	192	5
TAP	34	0	6
TAP	34	192	6
XTP	35	0	0
XTP	35	0	7
HLD	36	0	6	384
HLD	36	0	7	384
HLD	38	0	4	384
HLD	38	0	5	384
HLD	40	0	2	384
HLD	40	0	3	384
HLD	42	0	0	384
HLD	42	0	1	384
TAP	44	0	7
TAP	45	0	6
TAP	45	0	7
TAP	46	0	0
TAP	47	0	0
TAP	47	0	1
TAP	48	0	2
TAP	49	0	2
TAP	49	0	3
TAP	50	0	4
TAP	51	0	4
TAP	51	0	5
STR	52	0	6
SI_	52	0	6	96	288	3
STR	54	0	1
SI_	54	0	1	96	288	4
TAP	56	0	6
TAP	56	192	6
TAP	57	0	7
TAP	57	192	7
TAP	58	0	0
TAP	58	192	0
BRK	59	0	0
BRK	59	0	7
TAP	60	0	0
TAP	60	192	0
TAP	61	0	1
TAP	61	192	1
TAP	62	0	2
TAP	62	192	2
TAP	63	0	3
TAP	63	0	4
TAP	63	192	3
TAP	63	192	4
TAP	64	0	4
TAP	64	192	4
TAP	65	0	5
TAP	65	192	5
TAP	66	0	6
TAP	66	192	6
TAP	67	0	0
TAP	67	0	7
TAP	67	192	0
TAP	67	192	7
TAP	68	0	7
TAP	68	192	7
TAP	69	0	6
TAP	69	96	6
TAP	69	192	6
TAP	70	0	5
TAP	70	192	5
TAP	71	0	4
TAP	71	96	4
TAP	71	192	3
TAP	71	192	4
TAP	72	0	3
TAP	72	192	3
TAP	73	0	2
TAP	73	96	2
TAP	73	192	2
TAP	74	0	1
TAP	74	192	1
TAP	75	0	0
TAP	75	96	0
TAP	75	192	0
TAP	75	192	7
STR	76	0	0
SI_	76	0	0	96	288	3
STR	76	0	7
SI_	76	0	7	96	288	4
TTP	78	0	4	E	0	L1
TTP	79	0	5	E	0	L1
TTP	80	0	6	E	0	L1
TTP	81	0	7	E	0	L1
TTP	82	0	0	E	0	L1
TTP	83	0	1	E	0	L1
TTP	84	0	2	E	0	L1
TTP	85	0	3	E	0	L1
TTP	86	0	4	B	0	L1
TTP	86	0	5	B	0	L1
TTP	87	0	2	B	0	L1
TTP	87	0	3	B	0	L1
TTP	88	0	0	B	0	L1
TTP	88	0	1	B	0	L1
TTP	89	0	6	B	0	L1
TTP	89	0	7	B	0	L1
THO	90	0	0	336	C	0	L1
THO	92	0	0	336	C	1	L1
TAP	94	0	0
TAP	94	96	0
TAP	94	192	0
TAP	95	0	0
TAP	95	0	1
TAP	96	0	7
TAP	96	96	7
TAP	96	192	7
TAP	97	0	6
TAP	97	0	7
XST	98	0	0
SI_	98	0	0	96	672	4
TAP	102	0	7
TAP	102	96	7
TAP	102	192	7
TAP	103	0	6
TAP	103	96	6
TAP	103	192	6
TAP	104	0	5
TAP	104	96	5
TAP	104	192	5
TAP	105	0	4
TAP	105	96	4
TAP	105	192	3
TAP	105	192	4
TAP	106	0	3
TAP	106	96	3
TAP	106	192	3
TAP	107	0	2
TAP	107	96	2
TAP	107	192	2
TAP	108	0	1
TAP	108	96	1
TAP	108	192	1
TAP	109	0	0
TAP	109	96	0
XTP	109	192	0
XTP	109	192	7
STR	110	0	0
SI_	110	0	0	96	288	5
STR	112	0	7
SI_	112	0	7	96	288	2
XHO	114	0	0	384
TAP	116	0	0
TAP	116	96	0
TAP	116	192	1
TAP	116	288	1
TAP	117	0	2
TAP	117	96	2
TAP	117	192	3
TAP	117	192	4
TAP	118	0	4
TAP	118	96	4
TAP	118	192	5
TAP	118	288	5
TAP	119	0	6
TAP	119	96	6
TAP	119	192	0
TAP	119	192	7
BRK	120	0	1
TAP	120	192	1
TAP	121	0	0
TAP	121	192	0
TAP	122	0	7
TAP	122	192	7
TAP	123	0	0
TAP	123	0	6
TAP	124	0	6
TAP	124	192	6
TAP	125	0	7
TAP	125	192	7
TAP	126	0	0
TAP	126	192	0
TAP	127	0	1
TAP	127	0	7
STR	128	0	0
SI_	128	0	0	96	672	4

T_REC_TAP	141
T_REC_BRK	3
T_REC_XTP	4
T_REC_HLD	8
T_REC_XHO	5
T_REC_STR	11
T_REC_BST	0
T_REC_XST	1
T_REC_TTP	22
T_REC_THO	3
T_REC_SLD	12
T_REC_ALL	210
T_NUM_TAP	179
T_NUM_BRK	3
T_NUM_HLD	16
T_NUM_SLD	12
T_NUM_ALL	210
T_JUDGE_TAP	182
T_JUDGE_HLD	124
T_JUDGE_SLD	12
T_JUDGE_ALL	318
TTM_EACHPAIRS	27
TTM_SCR_TAP	89500
TTM_SCR_BRK	7800
TTM_SCR_HLD	16000
TTM_SCR_SLD	18000
TTM_SCR_ALL	131300
TTM_SCR_S	127100
TTM_SCR_SS	131000
TTM_RAT_ACV	10022

