VERSION	0.00.00	1.04.00
FES_MODE	0
BPM_DEF	177.000	177.000	177.000	177.000
MET_DEF	4	4
RESOLUTION	384
CLK_DEF	384
COMPATIBLE_CODE	MA2

BPM	0	0	177.000
MET	0	0	4	4

NMSTR	2	0	4
NMSCL	2	0	4	96	288	0
NMSTR	3	0	3
NMSCL	3	0	3	96	288	7
NMTAP	4	0	2
NMTAP	4	96	1
NMTAP	4	144	1
NMSTR	4	240	0
NMSCR	4	240	0	96	144	6
NMHLD	4	336	7	240
NMTAP	5	192	0
NMTAP	5	288	1
NMTAP	5	288	6
NMSTR	6	0	3
NMSCR	6	0	3	96	288	7
NMSTR	7	0	4
NMSCR	7	0	4	96	288	0
NMTAP	8	0	5
NMTAP	8	96	6
NMTAP	8	144	6
NMSTR	8	240	7
NMSLL	8	240	7	96	96	1
NMSTR	8	336	1
NMSLR	8	336	1	96	144	7
NMTAP	9	192	0
NMTAP	9	288	1
NMHLD	10	0	2	576
NMSTR	10	0	6
NMSCR	10	0	6	96	96	1
NMTTP	10	336	2	E	0	M1
NMTTP	11	48	6	E	0	M1
NMTAP	11	192	7
NMSTR	12	0	1
NMSCL	12	0	1	96	96	6
NMHLD	12	0	5	576
NMTTP	12	336	6	E	0	M1
NMTTP	13	48	2	E	0	M1
NMTAP	13	192	0
NMHLD	14	0	3	192
NMSTR	14	0	6
NMSCR	14	0	6	96	96	1
NMTTP	14	336	0	E	0	M1
NMTTP	14	336	4	E	0	M1
NMTTP	15	48	2	E	0	M1
NMTTP	15	48	6	E	0	M1
NMTTP	15	192	7	E	0	M1
NMTTP	15	288	6	E	0	M1
NMTAP	16	0	3
NMTAP	16	96	2
NMTAP	16	144	2
NMTAP	16	240	1
NMTAP	16	240	3
NMTAP	16	336	0
NMTAP	16	336	2
NMTAP	17	48	1
NMTAP	17	48	7
EXTAP	17	192	2
EXTAP	17	192	5
EXHLD	17	288	3	384
EXTAP	17	288	4
NMTHO	18	0	0	576	C	1	M1
NMTAP	19	0	0
NMTAP	19	96	1
NMTAP	19	144	2
NMSTR	19	192	3
NMSI_	19	192	3	96	48	7
EXTAP	20	0	0
EXTAP	20	0	6
NMTAP	20	48	1
NMTAP	20	48	7
NMTAP	20	96	0
NMTAP	20	120	7
NMTAP	20	144	0
NMTAP	20	168	7
NMHLD	20	192	1	48
NMTAP	20	240	5
NMHLD	20	264	2	48
NMTAP	20	312	6
NMSTR	20	336	3
NMSCL	20	336	3	96	96	7
NMTAP	21	48	4
NMTAP	21	96	4
NMTAP	21	192	5
NMTAP	21	216	4
NMTAP	21	264	2
NMTAP	21	288	3
NMHLD	21	336	2	96
NMHLD	21	336	5	96
NMTAP	22	96	1
NMTAP	22	120	0
NMTAP	22	144	1
NMTAP	22	168	0
NMTAP	22	192	2
NMTAP	22	224	2
NMTAP	22	256	2
NMTAP	22	288	3
NMTAP	22	320	3
NMTAP	22	352	3
EXSTR	23	0	4
NMSI_	23	0	4	96	48	0
EXTAP	23	96	4
EXSTR	23	96	6
NMSI_	23	96	6	96	48	2
EXSTR	23	192	0
NMSI_	23	192	0	96	48	4
EXTAP	23	192	6
EXTAP	23	288	0
EXSTR	23	288	4
NMSF_	23	288	4	96	48	0
BRTAP	24	96	1
BRTAP	24	96	6
NMHLD	24	192	2	48
NMTAP	24	240	5
NMHLD	24	264	1	48
NMTAP	24	312	6
NMSTR	24	336	0
NMSSL	24	336	0	96	96	4
NMTAP	25	192	7
NMTAP	25	216	0
NMSTR	25	264	1
NMSXL	25	264	1	96	72	3
NMSTR	25	264	5
NMSXL	25	264	5	96	72	7
NMTAP	26	72	6
NMTAP	26	96	5
NMTAP	26	120	4
NMTAP	26	144	3
NMTAP	26	168	2
NMTAP	26	192	1
NMTAP	26	216	0
NMTAP	26	240	7
NMTAP	26	264	6
NMTAP	26	288	5
NMTAP	26	312	4
NMTAP	26	336	3
NMTAP	26	360	2
EXSTR	27	0	1
NMSUR	27	0	1	96	48	5
EXTAP	27	0	5
EXTAP	27	192	7
EXTAP	27	256	4
EXTAP	27	256	5
NMHLD	27	320	2	96
EXSTR	27	320	3
NMSI_	27	320	3	96	64	7
BRTAP	28	96	0
NMTAP	28	144	1
NMTAP	28	144	6
NMTAP	28	240	1
NMTAP	28	240	3
NMTAP	28	336	4
NMHLD	28	336	6	72
NMHLD	29	48	5	48
NMHLD	29	48	7	48
NMHLD	29	120	4	48
NMHLD	29	120	6	48
NMHLD	29	192	3	48
NMHLD	29	192	5	48
NMHLD	29	264	2	48
NMHLD	29	264	4	48
NMHLD	29	336	1	48
NMHLD	29	336	3	48
NMTTP	30	96	1	B	0	M1
NMTTP	30	144	6	B	0	M1
NMTAP	30	240	0
NMTAP	30	240	7
NMTAP	30	336	3
NMTAP	30	336	4
EXTAP	31	0	2
EXSTR	31	0	3
NMSI_	31	0	3	96	48	7
EXSTR	31	96	2
NMSI_	31	96	2	96	48	6
EXTAP	31	96	3
EXSTR	31	192	1
NMSI_	31	192	1	96	48	5
EXTAP	31	192	2
EXTAP	31	288	0
EXTAP	31	288	1
NMHLD	32	0	7	192
NMTTP	32	108	7	B	0	M1
NMTTP	32	120	0	C	0	M1
NMTTP	32	132	3	B	0	M1
NMHLD	32	192	0	192
NMTTP	32	300	0	B	0	M1
NMTTP	32	312	0	C	0	M1
NMTTP	32	324	4	B	0	M1
NMHLD	33	0	5	192
NMTTP	33	108	5	B	0	M1
NMTTP	33	120	0	C	0	M1
NMTTP	33	132	1	B	0	M1
NMHLD	33	192	2	192
NMTTP	33	300	2	B	0	M1
NMTTP	33	312	0	C	0	M1
NMTTP	33	324	6	B	0	M1
NMHLD	34	0	4	192
NMTTP	34	108	4	B	0	M1
NMTTP	34	120	0	C	0	M1
NMTTP	34	132	0	B	0	M1
NMHLD	34	192	3	192
NMTTP	34	300	3	B	0	M1
NMTTP	34	312	0	C	0	M1
NMTTP	34	324	7	B	0	M1
NMHLD	35	0	6	192
NMTTP	35	108	6	B	0	M1
NMTTP	35	120	0	C	0	M1
NMTTP	35	132	2	B	0	M1
NMTAP	35	192	1
NMTAP	35	264	0
NMTAP	35	264	2
NMTAP	35	336	3
NMTAP	35	336	7
NMTAP	36	0	4
NMHLD	36	0	6	288
NMTAP	36	48	4
NMTAP	36	96	3
NMTAP	36	144	3
NMTAP	36	192	2
NMTAP	36	240	2
NMTAP	36	288	1
NMTAP	36	336	1
NMTAP	37	0	0
NMHLD	37	0	2	288
NMTAP	37	48	0
NMTAP	37	96	7
NMTAP	37	144	7
NMTAP	37	192	6
NMTAP	37	240	6
NMTAP	37	288	5
NMTAP	37	336	5
NMTAP	38	0	3
NMTAP	38	24	4
NMTAP	38	48	3
NMTAP	38	72	4
NMTAP	38	96	3
NMTAP	38	120	4
NMTAP	38	144	3
NMTAP	38	168	4
EXTAP	38	192	3
NMTAP	38	204	2
NMTAP	38	216	1
NMTAP	38	228	0
NMTAP	38	240	7
NMTAP	38	252	6
NMTAP	38	264	5
NMTAP	38	276	4
EXSTR	38	288	3
NMSI_	38	288	3	96	48	7
EXSTR	38	288	7
NMSI_	38	288	7	96	48	3
EXSTR	39	96	1
NMSLR	39	96	1	96	96	5
EXSTR	39	168	7
NMSSR	39	168	7	96	96	3
NMTAP	40	0	0
NMTAP	40	48	1
NMTAP	40	96	2
NMTAP	40	96	3
NMTAP	40	144	4
NMTAP	40	192	5
NMTAP	40	240	6
NMTAP	40	288	0
NMTAP	40	288	7
NMTAP	40	336	1
NMSTR	41	0	2
NMSCL	41	0	2	96	48	7
NMTAP	41	48	6
NMTAP	41	96	5
NMTAP	41	144	4
NMTAP	41	192	0
NMTAP	41	192	3
NMTAP	41	240	2
NMTAP	41	288	4
NMTAP	41	288	7
NMTAP	41	336	5
NMTAP	42	0	0
NMTAP	42	0	3
NMTAP	42	48	1
NMTAP	42	96	2
NMTAP	42	144	3
NMSTR	42	144	5
NMSI_	42	144	5	96	48	1
NMSTR	42	240	4
NMSI_	42	240	4	96	48	0
NMSTR	42	336	3
NMSI_	42	336	3	96	48	7
NMTAP	43	48	2
NMTAP	43	96	1
NMTAP	43	144	0
NMSTR	43	144	6
NMSCL	43	144	6	96	48	3
NMTAP	43	240	1
NMSTR	43	288	2
NMSI_	43	288	2	96	48	6
NMHLD	43	336	2	144
BRTAP	44	96	7
NMTAP	44	192	4
NMTAP	44	192	5
NMTAP	44	240	3
NMTAP	44	288	2
NMSTR	44	336	1
NMSI_	44	336	1	96	48	5
NMSTR	45	48	0
NMSI_	45	48	0	96	48	4
NMSTR	45	144	7
NMSI_	45	144	7	96	48	3
NMTAP	45	240	5
NMTAP	45	288	6
NMTAP	45	336	7
NMTAP	46	0	0
NMTAP	46	0	1
NMTAP	46	48	2
NMTAP	46	96	3
NMTAP	46	144	4
NMTAP	46	192	5
NMTAP	46	192	6
NMTAP	46	240	7
NMTAP	46	288	0
NMTAP	46	336	1
NMTAP	47	0	2
NMTAP	47	24	3
NMTAP	47	48	2
NMTAP	47	72	3
NMTAP	47	96	2
NMTAP	47	144	5
NMTAP	47	168	4
NMSTR	47	192	5
NMSI_	47	192	5	96	48	1
NMHLD	47	240	5	144
BRTAP	48	0	0
NMTAP	48	48	7
NMTAP	48	96	6
NMSTR	48	144	1
NMSI_	48	144	1	96	48	5
NMSTR	48	240	3
NMSI_	48	240	3	96	48	7
NMSTR	48	336	1
NMSCR	48	336	1	96	96	5
NMTAP	49	48	0
NMTAP	49	96	7
NMHLD	49	144	6	96
NMTAP	49	240	7
NMTAP	49	288	0
NMTAP	49	288	5
NMTAP	49	336	1
NMTAP	49	336	4
NMTAP	50	0	3
NMTAP	50	48	2
NMTAP	50	96	1
NMSTR	50	144	0
NMSI_	50	144	0	96	48	4
NMSTR	50	144	3
NMSI_	50	144	3	96	48	6
NMSTR	50	240	0
NMSCL	50	240	0	96	48	5
NMSTR	50	336	0
NMSCR	50	336	0	96	48	3
NMSTR	51	48	0
NMSI_	51	48	0	96	48	4
NMTAP	51	144	0
NMTAP	51	240	2
NMTAP	51	240	5
NMTAP	51	288	1
NMTAP	51	288	6
NMTAP	51	336	0
NMTAP	51	336	7
NMSTR	52	0	1
NMSI_	52	0	1	96	48	5
NMSTR	52	48	0
NMSI_	52	48	0	96	48	6
EXTAP	52	96	1
EXTAP	52	144	0
NMSTR	52	192	3
NMSI_	52	192	3	96	48	7
NMTAP	52	240	4
EXTAP	52	288	2
EXTAP	52	288	3
NMSTR	53	0	6
NMSI_	53	0	6	96	48	2
NMSTR	53	48	7
NMSI_	53	48	7	96	48	1
EXTAP	53	96	6
EXTAP	53	144	7
NMSTR	53	192	4
NMSI_	53	192	4	96	48	0
NMTAP	53	240	3
EXTAP	53	288	4
EXTAP	53	288	5
NMTAP	54	0	7
NMTAP	54	48	7
NMTAP	54	96	6
NMTAP	54	144	5
NMTAP	54	192	3
NMTAP	54	192	4
NMTAP	54	288	5
NMSTR	54	336	4
NMSCR	54	336	4	96	96	1
NMHLD	54	336	6	192
EXTAP	55	192	0
EXTAP	55	204	7
EXTAP	55	216	6
EXTAP	55	228	5
EXTAP	55	240	4
EXTAP	55	252	3
EXTAP	55	264	2
EXTAP	55	276	1
BRTAP	55	288	0
BRTAP	55	288	7
EXTAP	56	0	1
NMTAP	56	24	5
NMTAP	56	48	4
NMTAP	56	96	7
NMTAP	56	120	0
NMTAP	56	168	3
NMTAP	56	192	2
NMTAP	56	240	6
NMTAP	56	264	7
NMTAP	56	288	0
NMTAP	56	288	5
NMTAP	56	336	1
NMTAP	56	336	4
NMTAP	57	0	2
NMTAP	57	24	3
NMTAP	57	48	1
NMTAP	57	72	4
NMTAP	57	96	0
NMTAP	57	120	5
NMTAP	57	144	7
NMTAP	57	168	6
EXSTR	57	192	0
NMSCL	57	192	0	96	48	5
EXTAP	57	216	1
EXHLD	57	240	2	48
NMTAP	58	0	3
NMTAP	58	24	4
NMTAP	58	48	1
NMTAP	58	96	7
NMTAP	58	120	0
NMTAP	58	168	3
NMTAP	58	192	2
NMTAP	58	240	6
NMTAP	58	264	7
NMTAP	58	288	0
NMTAP	58	288	5
NMTAP	58	336	2
NMTAP	58	336	7
NMTAP	59	0	1
NMTAP	59	24	6
NMTAP	59	48	2
NMTAP	59	72	5
NMSTR	59	96	3
NMSCL	59	96	3	96	96	7
NMTAP	59	120	4
NMTAP	59	144	3
EXSTR	59	192	7
NMSCL	59	192	7	96	96	3
EXSTR	59	288	3
NMSI_	59	288	3	96	48	7
NMSTR	60	0	0
NMSI_	60	0	0	96	48	3
NMSI_	60	0	0	96	48	5
BRTAP	60	96	0
NMTAP	60	192	1
NMTAP	60	216	3
NMTAP	60	240	2
NMTAP	60	288	4
NMTAP	60	288	5
NMTAP	60	336	2
NMTAP	60	336	3
NMTAP	61	0	5
NMTAP	61	24	4
NMTAP	61	48	6
NMTAP	61	72	3
NMTAP	61	96	7
NMTAP	61	120	2
NMTAP	61	144	0
NMTAP	61	168	1
EXSTR	61	192	7
NMSCR	61	192	7	96	48	2
EXTAP	61	216	6
EXHLD	61	240	5	48
NMSTR	62	0	3
NMSLL	62	0	3	96	144	4
NMTAP	62	96	4
EXSTR	62	144	4
NMSCR	62	144	4	96	96	0
EXSTR	62	240	0
NMSCR	62	240	0	96	96	4
EXSTR	62	336	4
NMSI_	62	336	4	96	48	0
BRTAP	63	48	0
NMTAP	63	192	2
NMTAP	63	216	3
NMTAP	63	240	4
NMTAP	63	264	5
EXTAP	63	288	1
EXTAP	63	288	6
NMTAP	64	0	3
NMTAP	64	24	4
NMTAP	64	48	1
NMTAP	64	96	7
NMTAP	64	120	0
NMTAP	64	168	3
NMTAP	64	192	2
NMTAP	64	240	5
NMTAP	64	264	4
NMTAP	64	288	3
NMTAP	64	288	7
NMTAP	64	336	1
NMTAP	64	336	5
NMTAP	65	0	7
NMTAP	65	24	0
NMTAP	65	48	6
NMTAP	65	72	1
NMTAP	65	96	5
NMTAP	65	120	2
NMTAP	65	144	4
NMTAP	65	168	3
EXSTR	65	192	7
NMSCR	65	192	7	96	48	2
EXTAP	65	216	6
EXHLD	65	240	5	48
EXTAP	66	0	1
EXSTR	66	0	7
NMSLL	66	0	7	96	96	1
BRSTR	66	144	4
NMSI_	66	144	4	96	48	0
EXTAP	66	240	4
BRSTR	66	240	7
NMSI_	66	240	7	96	48	3
BRSTR	66	336	1
NMSCR	66	336	1	96	96	0
EXTAP	66	336	7
NMTTP	67	48	0	C	1	M1
EXTAP	67	48	1
NMTAP	67	192	5
NMTAP	67	264	0
NMTAP	67	264	6
NMTAP	67	336	1
NMTAP	67	336	7
EXTAP	68	0	2
EXTAP	68	0	3
NMTAP	68	48	3
NMTAP	68	96	3
NMTAP	68	96	4
NMTAP	68	144	4
NMTAP	68	192	4
NMTAP	68	192	5
NMTAP	68	240	5
NMTAP	68	288	5
NMTAP	68	288	6
NMTAP	68	336	6
EXTAP	69	0	6
EXTAP	69	0	7
NMTAP	69	48	5
NMTAP	69	96	4
NMTAP	69	144	3
NMTAP	69	192	2
NMTAP	69	240	2
NMTAP	69	288	5
NMTAP	69	336	5
EXTAP	70	0	3
NMTAP	70	24	4
NMTAP	70	48	3
NMTAP	70	72	4
NMTAP	70	96	2
NMTAP	70	120	5
NMTAP	70	144	2
NMTAP	70	168	5
NMTAP	70	192	1
NMTAP	70	216	6
NMTAP	70	240	1
NMTAP	70	264	6
NMTAP	70	288	1
NMTAP	70	312	6
NMTAP	70	336	1
NMTAP	70	360	6
EXTAP	71	0	0
NMTAP	71	24	1
NMTAP	71	48	2
NMTAP	71	72	3
NMTAP	71	96	4
NMTAP	71	120	5
NMTAP	71	144	6
NMTAP	71	168	7
EXTAP	71	192	0
EXTAP	71	192	6
NMTAP	71	216	5
NMTAP	71	240	4
NMTAP	71	264	3
NMTAP	71	288	2
NMTAP	71	312	1
NMTAP	71	336	0
NMTAP	71	360	7
NMTTP	72	0	0	C	1	M1
EXHLD	72	0	6	1152
NMSTR	72	192	1
NMSXR	72	192	1	96	192	7
NMHLD	73	192	0	96
NMTTP	74	0	1	E	0	M1
NMTTP	74	96	2	E	0	M1
NMTTP	74	192	3	E	0	M1
NMTTP	74	288	4	E	0	M1
NMTTP	75	0	5	E	0	M1
NMTTP	75	96	6	E	0	M1
NMTTP	75	192	1	E	0	M1
NMTTP	75	192	7	E	0	M1
NMTAP	75	288	4
NMTAP	75	312	3
NMTAP	75	336	4
NMTAP	75	360	3
NMHLD	76	0	2	48
NMHLD	76	0	4	48
NMHLD	76	96	3	48
NMHLD	76	96	6	48
EXHLD	76	168	0	72
EXHLD	76	168	4	72
NMTAP	76	288	1
NMTAP	76	312	7
NMTAP	76	336	1
NMHLD	76	360	7	120
NMTAP	77	48	4
NMTAP	77	96	3
NMTAP	77	144	2
NMTAP	77	192	1
NMTAP	77	240	6
NMTAP	77	264	7
NMTAP	77	288	6
NMTAP	77	336	4
NMTAP	77	336	5
NMHLD	78	0	3	48
NMHLD	78	0	5	48
NMHLD	78	96	1	48
NMHLD	78	96	4	48
NMTAP	78	168	3
NMTAP	78	168	7
NMTAP	78	216	2
NMTAP	78	240	5
NMTAP	78	288	6
NMTAP	78	288	7
NMTAP	78	336	0
NMTAP	78	336	1
NMTAP	79	0	2
NMTAP	79	24	3
NMTAP	79	48	4
NMTAP	79	72	5
NMTAP	79	96	6
NMTAP	79	120	7
NMTAP	79	144	0
NMTAP	79	168	1
EXTAP	79	192	2
EXTAP	79	192	6
NMTAP	79	216	5
NMTAP	79	240	4
NMTAP	79	264	3
NMTAP	79	288	2
NMTAP	79	312	1
NMTAP	79	336	0
NMTAP	79	360	7
NMSTR	80	0	3
NMSI_	80	0	3	96	48	7
NMSTR	80	0	6
NMSI_	80	0	6	96	48	4
BRTAP	80	96	3
BRTAP	80	96	6
NMTAP	80	192	0
NMTAP	80	216	6
NMTAP	80	240	0
NMTAP	80	264	6
NMTAP	80	288	3
NMTAP	80	312	4
NMTAP	80	336	3
NMTAP	80	360	4
NMTAP	81	0	2
NMTAP	81	24	3
NMTAP	81	48	1
NMTAP	81	72	5
NMTAP	81	96	4
NMTAP	81	120	6
NMTAP	81	144	2
NMTAP	81	168	3
NMTAP	81	192	0
NMTAP	81	216	4
NMTAP	81	240	1
NMTAP	81	264	5
NMTAP	81	288	2
NMTAP	81	312	6
NMTAP	81	336	3
NMTAP	81	360	7
EXTAP	82	0	4
NMTAP	82	24	3
NMTAP	82	48	2
NMTAP	82	72	1
NMTAP	82	96	0
NMTAP	82	96	7
NMTAP	82	120	6
NMTAP	82	144	5
NMTAP	82	168	4
NMHLD	82	192	1	72
NMTAP	82	192	3
NMTAP	82	264	7
NMTAP	82	336	5
EXTAP	83	0	2
EXTAP	83	0	3
NMTAP	83	24	4
NMTAP	83	48	5
NMTAP	83	72	6
NMTAP	83	96	0
NMTAP	83	96	7
NMTAP	83	120	1
NMTAP	83	144	2
NMTAP	83	168	3
NMTAP	83	192	4
NMHLD	83	192	6	72
NMTAP	83	264	0
NMTAP	83	336	2
NMTAP	84	0	5
NMTAP	84	24	3
NMTAP	84	48	5
NMTAP	84	72	2
NMTAP	84	96	4
NMTAP	84	120	2
NMTAP	84	144	6
NMTAP	84	168	4
NMTAP	84	192	6
NMTAP	84	216	1
NMTAP	84	240	3
NMTAP	84	264	1
NMTAP	84	288	7
NMTAP	84	336	0
NMTAP	84	336	6
NMTAP	85	0	3
NMTAP	85	24	4
NMTAP	85	48	2
NMTAP	85	72	5
NMTAP	85	96	1
NMTAP	85	120	6
NMTAP	85	144	0
NMTAP	85	168	7
NMTAP	85	192	2
NMTAP	85	216	4
NMTAP	85	240	0
NMTAP	85	264	5
NMTAP	85	288	3
NMTAP	85	312	7
NMTAP	85	336	2
NMTAP	85	360	5
BRTAP	86	0	0
NMTAP	86	24	1
NMTAP	86	48	2
NMTAP	86	72	3
NMTAP	86	96	4
NMTAP	86	120	5
NMTAP	86	144	6
NMTAP	86	168	7
EXTAP	86	192	0
EXTAP	86	192	4
NMTAP	86	216	3
NMTAP	86	240	2
NMTAP	86	264	1
NMSTR	86	288	0
NMSXR	86	288	0	96	288	3
NMTAP	86	312	7
NMTAP	86	336	6
NMSTR	86	360	5
NMSXL	86	360	5	96	216	3
NMHLD	88	0	3	672
NMTTP	88	96	0	C	0	M1
NMTTP	88	192	0	C	0	M1
NMTTP	88	288	0	C	0	M1
NMTTP	89	0	0	C	0	M1
NMTTP	89	96	0	C	0	M1
NMTTP	89	192	0	C	0	M1
NMTTP	89	288	0	C	0	M1
NMTTP	90	0	0	C	0	M1
NMTTP	90	0	2	E	0	M1
NMTTP	90	96	0	C	0	M1
NMTTP	90	96	3	E	0	M1
NMTTP	90	192	0	C	0	M1
NMTTP	90	192	4	E	0	M1
NMTTP	90	288	0	C	0	M1
NMTTP	90	288	5	E	0	M1
NMTTP	91	0	0	C	0	M1
NMTTP	91	0	6	E	0	M1
NMTTP	91	96	0	C	0	M1
NMTTP	91	96	7	E	0	M1
NMTTP	91	192	0	C	0	M1
NMTTP	91	192	0	E	0	M1
NMHLD	91	288	7	768
NMTTP	92	0	0	C	0	M1
NMTTP	92	96	0	C	0	M1
NMTTP	92	192	0	C	0	M1
NMTTP	92	288	0	C	0	M1
NMTTP	93	0	0	C	0	M1
NMTTP	93	96	0	C	0	M1
NMTTP	93	192	0	C	0	M1
NMTTP	93	288	0	C	0	M1
NMTTP	94	0	0	E	0	M1
NMTHO	94	0	0	576	C	1	M1
NMTTP	94	96	7	E	0	M1
NMTTP	94	192	6	E	0	M1
NMTTP	94	288	5	E	0	M1
NMTTP	95	0	4	E	0	M1
NMSTR	95	96	4
NMSI_	95	96	4	96	48	0
EXHLD	96	0	0	288
EXSTR	96	0	7
NMSCL	96	0	7	96	96	1
NMTAP	96	288	7
NMTAP	96	336	0
NMTAP	96	336	6
NMTAP	97	48	3
NMTAP	97	72	4
NMTAP	97	96	3
NMTAP	97	192	5
NMTAP	97	192	7
NMTAP	97	264	2
NMTAP	97	264	6
NMTAP	97	336	0
NMTAP	97	336	4
EXTAP	98	0	1
EXSTR	98	0	7
NMSLL	98	0	7	96	96	1
BRSTR	98	144	4
NMSI_	98	144	4	96	48	0
EXTAP	98	240	4
BRSTR	98	240	7
NMSI_	98	240	7	96	48	3
BRSTR	98	336	1
NMSCR	98	336	1	96	96	0
EXTAP	98	336	7
NMTTP	99	48	0	C	1	M1
EXTAP	99	48	1
NMSTR	99	192	6
NMSI_	99	192	6	96	48	3
NMTAP	99	264	2
NMTAP	99	336	1
EXSTR	100	0	0
NMSI_	100	0	0	96	48	4
EXTAP	100	0	3
NMTAP	100	48	4
NMTAP	100	96	5
NMTAP	100	144	6
EXTAP	100	192	4
EXSTR	100	192	7
NMSI_	100	192	7	96	48	3
NMTAP	100	240	3
NMTAP	100	288	2
NMTAP	100	336	1
EXSTR	101	0	0
NMSLR	101	0	0	96	48	4
EXTAP	101	0	3
NMTAP	101	48	4
NMTAP	101	96	5
NMTAP	101	144	6
EXTAP	101	192	4
EXSTR	101	192	7
NMSLL	101	192	7	96	48	3
NMTAP	101	240	3
NMTAP	101	288	2
NMTAP	101	336	1
EXSTR	102	0	0
NMSI_	102	0	0	96	48	2
NMSTR	102	48	7
NMSI_	102	48	7	96	48	5
NMSTR	102	96	0
NMSI_	102	96	0	96	48	4
NMSTR	102	144	7
NMSI_	102	144	7	96	48	3
NMSTR	102	192	0
NMSCR	102	192	0	96	48	3
NMTAP	102	240	7
NMTAP	102	288	0
EXTAP	102	336	7
EXTAP	102	352	6
EXTAP	102	368	5
EXTAP	103	0	4
NMSTR	103	0	7
NMSI_	103	0	7	96	48	1
NMSTR	103	48	6
NMSI_	103	48	6	96	48	4
NMSTR	103	96	7
NMSI_	103	96	7	96	48	3
NMSTR	103	144	6
NMSI_	103	144	6	96	48	2
NMSTR	103	192	7
NMSCR	103	192	7	96	48	2
NMSTR	103	240	6
NMSCL	103	240	6	96	48	3
NMTAP	103	288	7
NMTAP	103	336	6
EXTAP	104	0	1
NMTAP	104	24	0
NMTAP	104	48	1
NMTAP	104	72	0
NMTAP	104	96	2
NMTAP	104	120	0
NMTAP	104	144	2
NMTAP	104	168	0
NMTAP	104	192	3
NMTAP	104	216	0
NMTAP	104	240	3
NMTAP	104	264	0
NMTAP	104	288	3
NMTAP	104	312	0
NMTAP	104	336	3
NMTAP	104	360	0
EXTAP	105	0	4
NMTAP	105	12	5
NMTAP	105	24	6
NMTAP	105	36	7
NMTAP	105	48	0
NMTAP	105	60	1
NMTAP	105	72	2
NMTAP	105	84	3
EXTAP	105	96	4
NMTAP	105	108	5
NMTAP	105	120	6
NMTAP	105	132	7
NMTAP	105	144	0
NMTAP	105	156	1
NMTAP	105	168	2
NMTAP	105	180	3
EXSTR	105	192	0
NMSI_	105	192	0	96	48	5
EXSTR	105	192	4
NMSI_	105	192	4	96	48	1
EXHLD	106	0	0	1536
BRSTR	106	0	6
NMSXR	106	0	6	96	1056	7

T_REC_TAP	509
T_REC_BRK	12
T_REC_XTP	74
T_REC_BXX	0
T_REC_HLD	49
T_REC_XHO	9
T_REC_BHO	0
T_REC_BXH	0
T_REC_STR	60
T_REC_BST	7
T_REC_XST	31
T_REC_XBS	0
T_REC_TTP	78
T_REC_THO	2
T_REC_SLD	99
T_REC_BSL	0
T_REC_ALL	930
T_NUM_TAP	752
T_NUM_BRK	19
T_NUM_HLD	60
T_NUM_SLD	99
T_NUM_ALL	930
T_JUDGE_TAP	771
T_JUDGE_HLD	255
T_JUDGE_SLD	99
T_JUDGE_ALL	1125
TTM_EACHPAIRS	114
TTM_SCR_TAP	376000
TTM_SCR_BRK	49400
TTM_SCR_HLD	60000
TTM_SCR_SLD	148500
TTM_SCR_ALL	633900
TTM_SCR_S	613050
TTM_SCR_SS	632000
TTM_RAT_ACV	10030

