VERSION	0.00.00	1.03.00
FES_MODE	0
BPM_DEF	177.000	177.000	177.000	177.000
MET_DEF	4	4
RESOLUTION	384
CLK_DEF	384
COMPATIBLE_CODE	MA2

BPM	0	0	177.000
MET	0	0	4	4

STR	2	0	3
SCL	2	0	3	96	288	0
STR	4	0	4
SCR	4	0	4	96	288	7
STR	6	0	1
SCL	6	0	1	96	288	6
STR	8	0	6
SCR	8	0	6	96	288	1
HLD	10	0	2	144
TAP	10	144	3
STR	10	192	3
SI_	10	192	3	96	192	7
HLD	12	0	5	144
TAP	12	144	4
STR	12	192	4
SI_	12	192	4	96	192	0
HLD	14	0	1	144
TAP	14	144	3
STR	14	192	3
SI_	14	192	3	96	192	7
HLD	16	0	6	144
TAP	16	144	4
STR	16	192	4
SI_	16	192	4	96	192	0
HLD	18	0	0	672
TAP	19	0	3
TAP	19	96	3
TAP	19	192	3
BRK	19	288	7
HLD	20	0	4	96
HLD	20	0	6	96
XTP	20	192	3
XTP	20	192	5
XTP	20	264	2
XTP	20	264	4
XHO	20	336	1	96
XTP	20	336	3
TAP	21	48	3
TAP	21	96	3
XTP	21	192	2
XTP	21	192	4
XTP	21	264	3
XTP	21	264	5
XTP	21	336	4
XHO	21	336	6	96
TAP	22	48	4
TAP	22	96	4
TAP	22	144	5
TAP	22	240	3
TAP	22	240	6
TAP	22	336	1
TAP	22	336	4
XTP	23	0	1
XTP	23	0	4
XTP	23	96	0
XTP	23	96	7
XTP	23	192	3
XTP	23	192	6
XST	23	288	0
SCR	23	288	0	96	96	3
XST	23	288	7
SCL	23	288	7	96	96	4
TAP	24	192	2
TAP	24	192	4
TAP	24	264	3
TAP	24	264	5
TAP	24	336	4
HLD	24	336	6	96
TAP	25	48	4
TAP	25	96	4
TAP	25	192	3
TAP	25	192	5
TAP	25	264	2
TAP	25	264	4
HLD	25	336	1	96
TAP	25	336	3
TAP	26	48	3
TAP	26	96	3
TAP	26	144	2
TAP	26	240	1
TAP	26	240	4
TAP	26	336	3
TAP	26	336	6
TAP	27	0	3
TAP	27	0	6
TAP	27	96	0
TAP	27	96	7
XTP	27	192	1
XTP	27	192	4
XTP	27	256	2
XTP	27	256	5
XTP	27	320	3
XHO	27	320	6	160
TAP	28	96	4
TAP	28	144	4
TAP	28	240	3
TAP	28	240	7
HLD	28	336	1	96
TAP	28	336	5
TAP	29	48	3
TAP	29	120	1
TAP	29	120	3
TAP	29	192	0
TAP	29	192	2
TAP	29	264	1
TAP	29	264	7
TAP	29	336	0
STR	29	336	6
SUL	29	336	6	96	240	3
XTP	31	0	2
XTP	31	0	4
XTP	31	96	0
XTP	31	96	6
XTP	31	192	3
XTP	31	192	5
XTP	31	288	1
XTP	31	288	7
HLD	32	0	6	192
TAP	32	96	4
HLD	32	192	1	192
TAP	32	288	3
HLD	33	0	6	192
TAP	33	96	5
HLD	33	192	1	192
TAP	33	288	2
HLD	34	0	5	192
TAP	34	96	7
HLD	34	192	2	192
TAP	34	288	0
HLD	35	0	5	192
TAP	35	96	6
TAP	35	192	3
TAP	35	264	3
TAP	35	264	5
TAP	35	336	2
TAP	35	336	4
TAP	36	0	1
TAP	36	48	1
TAP	36	96	5
TAP	36	144	5
TAP	36	192	3
TAP	36	240	3
TAP	36	288	7
TAP	36	336	7
TAP	37	0	1
TAP	37	48	1
TAP	37	96	5
TAP	37	144	5
TAP	37	192	0
TAP	37	240	0
TAP	37	288	4
TAP	37	336	4
TAP	38	0	2
TAP	38	48	2
STR	38	96	5
SCR	38	96	5	96	192	3
TTP	39	0	0	C	1	M1
BRK	39	288	1
BRK	39	288	6
TAP	40	0	3
TAP	40	0	5
TAP	40	96	2
HLD	40	144	2	96
HLD	40	240	0	96
HLD	40	336	7	96
HLD	41	48	5	96
HLD	41	144	2	96
TAP	41	240	3
TAP	41	288	3
TAP	42	0	2
TAP	42	0	4
TAP	42	96	5
HLD	42	144	5	96
HLD	42	240	7	96
HLD	42	336	0	96
HLD	43	48	2	96
HLD	43	144	5	96
TAP	43	240	4
TAP	43	288	4
TAP	44	0	3
TAP	44	0	5
TAP	44	96	2
TAP	44	96	4
HLD	44	144	2	96
TAP	44	144	4
HLD	44	240	0	96
HLD	44	336	7	96
HLD	45	48	5	96
HLD	45	144	2	96
TAP	45	240	3
TAP	45	288	3
TAP	46	0	2
TAP	46	0	4
TAP	46	96	3
TAP	46	96	5
TAP	46	144	3
HLD	46	144	5	96
HLD	46	240	7	96
HLD	46	336	0	96
HLD	47	48	2	96
TAP	47	144	4
TAP	47	240	1
TAP	47	240	5
TAP	47	288	1
TAP	47	288	5
TAP	48	0	0
TAP	48	0	6
TAP	48	96	1
HLD	48	144	1	96
HLD	48	240	3	96
HLD	48	336	4	96
HLD	49	48	6	96
HLD	49	144	1	96
TAP	49	240	0
TAP	49	288	0
TAP	50	0	1
TAP	50	0	7
TAP	50	96	6
HLD	50	144	6	96
HLD	50	240	4	96
HLD	50	336	3	96
HLD	51	48	1	96
HLD	51	144	6	96
TAP	51	240	7
TAP	51	288	7
STR	52	0	0
SCR	52	0	0	96	96	3
STR	52	192	4
SCR	52	192	4	96	96	7
STR	53	0	0
SCR	53	0	0	96	96	3
STR	53	192	4
SCR	53	192	4	96	96	7
TAP	54	0	1
STR	54	96	0
SCR	54	96	0	96	192	7
BRK	55	288	0
TAP	56	0	4
TAP	56	0	5
TAP	56	96	6
TAP	56	96	7
TAP	56	192	0
TAP	56	192	1
TAP	56	288	2
TAP	56	288	3
TAP	56	336	2
TAP	56	336	3
TAP	57	48	1
TAP	57	48	4
TAP	57	144	4
TAP	57	144	5
TAP	57	240	3
TAP	57	240	6
TAP	57	288	3
STR	57	288	6
SCR	57	288	6	96	96	1
STR	58	96	2
SUL	58	96	2	96	96	5
STR	58	288	4
SCR	58	288	4	96	96	7
HLD	59	192	0	96
BRK	59	288	7
TAP	60	0	2
TAP	60	0	3
TAP	60	96	0
TAP	60	96	1
TAP	60	192	6
TAP	60	192	7
TAP	60	288	4
TAP	60	288	5
TAP	60	336	4
TAP	60	336	5
TAP	61	48	3
TAP	61	48	6
TAP	61	144	2
TAP	61	144	3
TAP	61	240	1
TAP	61	240	4
STR	61	288	1
SCL	61	288	1	96	96	6
TAP	61	288	4
STR	62	96	5
SUR	62	96	5	96	96	2
STR	62	288	3
SCL	62	288	3	96	96	0
HLD	63	192	7	96
BRK	63	288	0
TAP	64	0	1
TAP	64	0	3
TAP	64	96	3
TAP	64	96	4
TAP	64	192	4
TAP	64	192	6
TAP	64	288	0
TAP	64	288	7
STR	64	336	0
SI_	64	336	0	96	96	5
TAP	64	336	7
STR	65	144	7
SI_	65	144	7	96	96	3
TAP	65	336	1
HLD	66	0	1	96
TAP	66	96	3
TAP	66	144	3
XTP	66	240	7
STR	66	336	4
SI_	66	336	4	96	96	0
XTP	67	192	1
XTP	67	192	7
XTP	67	264	2
XTP	67	264	6
XTP	67	336	3
XTP	67	336	5
TAP	68	0	4
TAP	68	48	4
TAP	68	96	2
TAP	68	144	2
TAP	68	192	5
TAP	68	240	5
TAP	68	288	3
TAP	68	336	3
TAP	69	0	4
TAP	69	48	4
TAP	69	96	1
TAP	69	144	1
TAP	69	192	6
TAP	69	240	6
TAP	69	288	2
TAP	69	288	5
TAP	70	0	3
TAP	70	24	4
TAP	70	48	3
TAP	70	72	4
TAP	70	96	3
TAP	70	120	4
TAP	70	144	3
TAP	70	168	4
TAP	70	192	3
TAP	70	216	4
TAP	70	240	3
TAP	70	264	4
TAP	70	288	3
TAP	70	312	4
TAP	70	336	3
TAP	70	360	4
HLD	71	0	3	384
TAP	71	192	5
TAP	71	288	4
STR	72	0	2
SCL	72	0	2	96	288	3
HLD	74	0	5	768
TTP	74	192	5	E	0	M1
TTP	74	288	4	E	0	M1
TTP	75	0	3	E	0	M1
TTP	75	192	3	B	0	M1
TTP	75	192	4	B	0	M1
HLD	76	0	2	672
XTP	76	96	4
XST	76	168	4
SI_	76	168	4	96	96	0
TAP	77	48	7
TAP	77	96	7
TAP	77	192	4
STR	77	288	5
SCL	77	288	5	96	288	7
TAP	79	48	3
TAP	79	96	2
TAP	79	144	2
TAP	79	192	5
TAP	79	240	5
TAP	79	288	4
TAP	79	288	6
TAP	80	0	2
TAP	80	0	4
BRK	80	96	1
BRK	80	96	5
TAP	80	192	2
TAP	80	240	2
TAP	80	288	3
TAP	80	336	1
TAP	81	0	5
TAP	81	48	5
TAP	81	96	4
TAP	81	144	6
TAP	81	192	0
TAP	81	240	0
TAP	81	288	7
TAP	81	336	7
TAP	82	0	2
TAP	82	48	3
TAP	82	96	4
TAP	82	144	5
TAP	82	192	2
TAP	82	240	2
TAP	82	288	3
TAP	82	336	4
TAP	83	0	2
TAP	83	48	3
TAP	83	96	4
TAP	83	144	5
TAP	83	192	2
TAP	83	240	2
TAP	83	288	3
TAP	83	336	4
TAP	84	0	5
TAP	84	48	5
TAP	84	96	4
TAP	84	144	6
TAP	84	192	2
TAP	84	240	2
TAP	84	288	3
TAP	84	336	1
TAP	85	0	4
TAP	85	48	4
TAP	85	96	2
TAP	85	144	2
TAP	85	192	5
TAP	85	240	5
TAP	85	288	1
TAP	85	288	6
TAP	86	0	0
TAP	86	24	7
TAP	86	48	0
TAP	86	72	7
TAP	86	96	0
TAP	86	120	7
TAP	86	144	0
TAP	86	168	7
TAP	86	192	0
TAP	86	216	7
TAP	86	240	0
TAP	86	264	7
TAP	86	288	0
TAP	86	312	7
TAP	86	336	0
TAP	86	360	7
STR	87	0	0
SCR	87	0	0	96	288	7
TTP	88	0	0	C	1	M1
TAP	92	0	4
TAP	92	96	4
TAP	92	192	4
TAP	92	288	4
TAP	93	0	4
TAP	93	96	4
TAP	93	192	4
TAP	93	288	4
TAP	94	0	3
TAP	94	96	3
TAP	94	192	3
TAP	94	288	3
TAP	95	0	3
TAP	95	96	3
TAP	95	192	3
TAP	95	192	4
TAP	95	240	3
TAP	95	240	4
TAP	95	288	2
TAP	95	288	5
THO	96	0	0	336	C	1	M1
TTP	96	0	3	B	0	M1
TTP	96	0	4	B	0	M1
XTP	97	240	0
XHO	97	288	0	96
TAP	98	0	7
TAP	98	96	4
TAP	98	96	5
TAP	98	144	3
TAP	98	144	6
TAP	98	240	1
TAP	98	240	4
TAP	98	336	3
TAP	98	336	5
BRK	99	48	2
BRK	99	48	6
XTP	99	192	0
XTP	99	192	7
XTP	99	264	1
XTP	99	264	6
XTP	99	336	2
XTP	99	336	5
TAP	100	0	2
HLD	100	0	5	192
TAP	100	96	4
HLD	100	192	2	192
TAP	100	288	3
HLD	101	0	6	192
TAP	101	96	7
HLD	101	192	1	192
TAP	101	288	0
TAP	102	0	5
HLD	102	48	5	144
TAP	102	96	4
TAP	102	192	2
HLD	102	240	2	144
TAP	102	288	3
TAP	103	0	6
HLD	103	48	6	144
TAP	103	96	7
TAP	103	192	1
HLD	103	240	1	144
TAP	103	288	0
TAP	104	0	4
TAP	104	48	4
TAP	104	96	2
TAP	104	144	2
TAP	104	192	5
TAP	104	240	5
TAP	104	288	1
TAP	104	336	1
TAP	105	0	7
TAP	105	48	7
TAP	105	96	2
TAP	105	96	6
TAP	105	192	3
TAP	105	216	4
TAP	105	240	3
TAP	105	264	4
STR	105	288	3
SCL	105	288	3	96	1536	4
TTP	106	0	0	C	1	M1

T_REC_TAP	330
T_REC_BRK	10
T_REC_XTP	44
T_REC_HLD	60
T_REC_XHO	4
T_REC_STR	28
T_REC_BST	0
T_REC_XST	3
T_REC_TTP	10
T_REC_THO	1
T_REC_SLD	31
T_REC_ALL	521
T_NUM_TAP	415
T_NUM_BRK	10
T_NUM_HLD	65
T_NUM_SLD	31
T_NUM_ALL	521
T_JUDGE_TAP	425
T_JUDGE_HLD	211
T_JUDGE_SLD	31
T_JUDGE_ALL	667
TTM_EACHPAIRS	95
TTM_SCR_TAP	207500
TTM_SCR_BRK	26000
TTM_SCR_HLD	65000
TTM_SCR_SLD	46500
TTM_SCR_ALL	345000
TTM_SCR_S	333700
TTM_SCR_SS	344000
TTM_RAT_ACV	10029

