VERSION	0.00.00	1.03.00
FES_MODE	0
BPM_DEF	177.000	177.000	177.000	177.000
MET_DEF	4	4
RESOLUTION	384
CLK_DEF	384
COMPATIBLE_CODE	MA2

BPM	0	0	177.000
MET	0	0	4	4

HLD	2	0	6	384
HLD	3	0	7	384
HLD	4	0	0	384
TAP	5	0	1
TAP	5	192	0
TAP	5	192	1
HLD	6	0	2	384
HLD	7	0	3	384
HLD	8	0	4	384
STR	9	0	5
SCR	9	0	5	96	192	0
HLD	10	0	1	192
TAP	10	192	0
HLD	11	0	6	192
TAP	11	192	7
HLD	12	0	1	192
TAP	12	192	0
HLD	13	0	6	96
HLD	13	0	7	96
TAP	13	192	6
TAP	13	192	7
HLD	14	0	5	192
TAP	14	192	4
HLD	15	0	2	192
TAP	15	192	3
HLD	16	0	5	192
TAP	16	192	4
HLD	17	0	2	96
HLD	17	0	3	96
TAP	17	192	2
TAP	17	192	3
XST	18	0	3
SXR	18	0	3	96	480	0
XST	18	0	4
SXL	18	0	4	96	480	7
STR	20	0	6
SV_	20	0	6	96	192	3
STR	21	0	2
SV_	21	0	2	96	192	7
STR	22	0	6
SV_	22	0	6	96	192	4
TAP	23	0	3
TAP	23	96	3
TAP	23	192	4
TAP	23	288	4
XST	24	0	5
SI_	24	0	5	96	192	0
STR	25	0	1
SI_	25	0	1	96	192	4
STR	26	0	5
SCL	26	0	5	96	192	2
XTP	27	0	1
XTP	27	192	0
XTP	27	192	7
XTP	27	288	0
XTP	27	288	7
XST	28	0	1
SUR	28	0	1	96	192	5
XTP	28	0	6
STR	29	0	6
SUL	29	0	6	96	192	2
STR	30	0	0
SCR	30	0	0	96	192	3
TAP	31	0	4
TAP	31	96	2
TAP	31	96	5
TAP	31	192	1
TAP	31	192	6
TAP	31	288	0
TAP	31	288	7
HLD	32	0	1	192
HLD	32	192	0	192
HLD	33	0	7	192
TAP	33	192	6
HLD	34	0	5	192
HLD	34	192	4	192
HLD	35	0	3	192
TAP	35	192	2
TAP	36	0	1
TAP	36	96	2
TAP	36	192	3
TAP	36	288	4
TAP	37	0	5
TAP	37	96	6
TAP	37	192	7
TAP	37	288	0
TAP	38	0	7
TAP	38	48	7
TAP	38	96	7
TAP	38	192	0
TAP	38	240	0
TAP	38	288	0
BST	39	0	0
SI_	39	0	0	96	192	3
BST	39	0	7
SI_	39	0	7	96	192	4
TAP	40	0	5
TAP	40	96	5
TAP	40	192	4
TAP	40	288	4
TAP	41	0	3
TAP	41	96	3
TAP	41	192	2
TAP	41	192	4
TAP	42	0	1
TAP	42	96	1
TAP	42	192	0
TAP	42	288	0
TAP	43	0	7
TAP	43	96	7
TAP	43	192	1
TAP	43	192	6
TAP	44	0	2
TAP	44	96	2
TAP	44	192	3
TAP	44	288	3
TAP	45	0	4
TAP	45	96	4
TAP	45	192	3
TAP	45	192	5
TAP	46	0	6
TAP	46	96	6
TAP	46	192	5
TAP	46	288	5
STR	47	0	3
SCL	47	0	3	96	192	0
STR	47	0	4
SCR	47	0	4	96	192	7
TAP	48	0	1
TAP	48	96	1
TAP	48	192	0
TAP	48	288	0
TAP	49	0	7
TAP	49	96	7
TAP	49	192	0
TAP	49	192	6
TAP	50	0	5
TAP	50	96	5
TAP	50	192	4
TAP	50	288	4
TAP	51	0	3
TAP	51	96	3
TAP	51	192	2
TAP	51	192	4
TAP	52	0	5
TAP	52	96	6
TAP	52	192	7
TAP	52	288	0
TAP	53	0	1
TAP	53	96	2
TAP	53	192	3
TAP	53	288	4
TAP	54	0	3
TAP	54	48	3
TAP	54	96	3
TAP	54	192	4
TAP	54	240	4
TAP	54	288	4
BRK	55	0	2
BRK	55	0	5
TAP	56	0	6
TAP	56	96	6
TAP	56	192	6
TAP	56	192	7
TAP	56	288	6
TAP	56	288	7
TAP	57	0	1
TAP	57	96	1
TAP	57	192	0
TAP	57	192	1
TAP	57	288	0
TAP	57	288	1
TAP	58	0	2
TAP	58	96	2
TAP	58	192	3
TAP	58	288	3
TAP	59	0	4
TAP	59	96	4
TAP	59	192	3
TAP	59	192	5
TAP	60	0	2
TAP	60	96	2
TAP	60	192	2
TAP	60	192	3
TAP	60	288	2
TAP	60	288	3
TAP	61	0	5
TAP	61	96	5
TAP	61	192	4
TAP	61	192	5
TAP	61	288	4
TAP	61	288	5
TAP	62	0	6
TAP	62	96	6
TAP	62	192	7
TAP	62	288	7
XTP	63	0	0
XTP	63	96	0
XTP	63	96	7
XTP	63	192	1
XTP	63	192	6
TAP	64	0	2
TAP	64	96	2
TAP	64	96	3
TAP	64	192	5
TAP	64	288	4
TAP	64	288	5
TAP	65	0	6
TAP	65	96	6
TAP	65	96	7
TAP	65	192	1
TAP	65	288	0
TAP	65	288	1
STR	66	0	0
SI_	66	0	0	96	192	5
STR	66	0	1
SI_	66	0	1	96	192	4
XTP	67	0	4
XTP	67	0	5
TAP	67	96	4
TAP	67	96	5
TAP	67	192	3
TAP	67	192	6
TAP	68	0	2
TAP	68	96	3
TAP	68	192	4
TAP	68	288	5
TAP	69	0	6
TAP	69	96	7
TAP	69	192	0
TAP	69	288	1
TAP	70	0	7
TAP	70	48	7
TAP	70	96	7
TAP	70	192	0
TAP	70	240	0
TAP	70	288	0
STR	71	0	1
SI_	71	0	1	96	192	4
STR	71	0	6
SI_	71	0	6	96	192	3
TTP	72	0	0	C	1	L1
STR	74	0	0
SCR	74	0	0	96	384	5
STR	76	0	6
SI_	76	0	6	96	192	2
STR	77	0	1
SI_	77	0	1	96	192	5
STR	78	0	7
SI_	78	0	7	96	192	4
TAP	79	0	3
TAP	79	96	3
BRK	79	192	3
BRK	79	192	4
TAP	80	0	5
TAP	80	96	5
TAP	80	192	4
TAP	80	192	5
TAP	81	0	2
TAP	81	96	2
TAP	81	192	2
TAP	81	192	3
TAP	82	0	5
TAP	82	96	5
TAP	82	192	4
TAP	82	288	4
TAP	83	0	3
TAP	83	96	3
TAP	83	192	2
TAP	83	192	4
TAP	84	0	1
TAP	84	96	1
TAP	84	192	0
TAP	84	192	1
TAP	85	0	6
TAP	85	96	6
TAP	85	192	6
TAP	85	192	7
TAP	86	0	1
TAP	86	96	1
STR	86	192	0
SSL	86	192	0	96	336	4
TAP	86	192	7
TTP	88	0	5	B	0	L1
TTP	89	0	4	B	0	L1
TTP	90	0	3	B	0	L1
TTP	91	0	2	B	0	L1
TTP	92	0	1	B	0	L1
TTP	93	0	0	B	0	L1
TTP	94	0	7	B	0	L1
TTP	95	0	6	B	0	L1
HLD	96	0	0	192
HLD	96	0	7	192
XTP	96	288	1
XTP	96	288	6
XTP	96	336	1
XTP	96	336	6
HLD	98	0	4	96
HLD	98	0	5	96
HLD	98	192	2	96
HLD	98	192	3	96
HLD	99	0	0	96
HLD	99	0	1	96
XTP	99	192	2
XTP	99	192	7
HLD	100	0	2	96
HLD	100	0	4	96
HLD	100	192	3	96
HLD	100	192	5	96
HLD	101	0	2	96
HLD	101	0	4	96
TAP	101	192	1
TAP	101	192	5
TAP	101	288	1
TAP	101	288	5
TAP	102	0	6
TAP	102	96	7
TAP	102	192	0
TAP	102	288	1
TAP	103	0	2
TAP	103	96	3
TAP	103	192	4
TAP	103	288	5
TAP	104	0	6
TAP	104	48	6
TAP	104	96	6
TAP	104	192	7
TAP	104	240	7
TAP	104	288	7
TAP	105	0	0
TAP	105	48	0
TAP	105	96	0
TAP	105	192	1
TAP	105	240	1
TAP	105	288	1
THO	106	0	0	1536	C	0	L1
TTP	106	0	2	B	0	L1
TTP	106	0	5	B	0	L1

T_REC_TAP	217
T_REC_BRK	4
T_REC_XTP	19
T_REC_HLD	36
T_REC_XHO	0
T_REC_STR	19
T_REC_BST	2
T_REC_XST	4
T_REC_TTP	11
T_REC_THO	1
T_REC_SLD	25
T_REC_ALL	338
T_NUM_TAP	270
T_NUM_BRK	6
T_NUM_HLD	37
T_NUM_SLD	25
T_NUM_ALL	338
T_JUDGE_TAP	276
T_JUDGE_HLD	168
T_JUDGE_SLD	25
T_JUDGE_ALL	469
TTM_EACHPAIRS	59
TTM_SCR_TAP	135000
TTM_SCR_BRK	15600
TTM_SCR_HLD	37000
TTM_SCR_SLD	37500
TTM_SCR_ALL	225100
TTM_SCR_S	217800
TTM_SCR_SS	224500
TTM_RAT_ACV	10026

