VERSION	0.00.00	1.03.00
FES_MODE	0
BPM_DEF	177.000	177.000	177.000	177.000
MET_DEF	4	4
RESOLUTION	384
CLK_DEF	384
COMPATIBLE_CODE	MA2

BPM	0	0	177.000
MET	0	0	4	4

TAP	2	0	0
TAP	4	0	0
TAP	6	0	7
TAP	8	0	7
TAP	10	0	0
TAP	11	0	0
TAP	12	0	1
TAP	13	0	1
TAP	14	0	2
TAP	15	0	2
TAP	16	0	3
TAP	17	0	3
TAP	17	0	4
XHO	18	0	3	384
XHO	18	0	4	384
HLD	20	0	4	384
XHO	22	0	5	384
HLD	24	0	6	384
XHO	26	0	0	384
XHO	26	0	7	384
XHO	28	0	6	384
XHO	28	0	7	384
XHO	30	0	0	384
XHO	30	0	1	384
TAP	32	0	7
TAP	32	192	7
TAP	33	0	6
TAP	33	0	7
TAP	34	0	0
TAP	34	192	0
TAP	35	0	0
TAP	35	0	1
TAP	36	0	7
TAP	36	192	7
TAP	37	0	6
TAP	38	0	5
TAP	38	192	5
BRK	39	0	3
BRK	39	0	4
TAP	40	0	3
TAP	40	192	3
TAP	41	0	3
TAP	42	0	2
TAP	42	192	2
TAP	43	0	2
TAP	44	0	1
TAP	44	192	1
TAP	45	0	1
TAP	46	0	0
TAP	46	192	0
TAP	47	0	0
TAP	47	0	7
TAP	48	0	0
TAP	48	192	0
TAP	49	0	0
TAP	50	0	1
TAP	50	192	1
TAP	51	0	1
TAP	52	0	2
TAP	52	192	2
TAP	53	0	2
TAP	54	0	3
TAP	54	192	3
TAP	55	0	3
TAP	55	0	4
TAP	56	0	4
TAP	56	192	4
TAP	57	0	5
TAP	57	192	5
TAP	58	0	6
TAP	58	192	6
TAP	59	0	0
TAP	59	0	7
TAP	60	0	7
TAP	60	192	7
TAP	61	0	6
TAP	61	192	6
TAP	62	0	5
TAP	62	192	5
TAP	63	0	3
TAP	63	0	4
TAP	64	0	3
TAP	64	192	3
TAP	65	0	2
TAP	65	192	2
TAP	66	0	1
TAP	66	192	1
TAP	67	0	0
TAP	67	192	0
TAP	68	0	7
TAP	68	192	7
TAP	69	0	6
TAP	69	0	7
TAP	70	0	0
TAP	70	192	0
XTP	71	0	0
XTP	71	0	7
STR	72	0	7
SI_	72	0	7	96	288	4
STR	74	0	0
SI_	74	0	0	96	288	3
STR	76	0	7
SI_	76	0	7	96	288	3
STR	78	0	0
SI_	78	0	0	96	288	4
TAP	80	0	7
TAP	80	192	7
TAP	81	0	6
TAP	81	96	6
TAP	81	192	6
TAP	82	0	5
TAP	82	192	5
TAP	83	0	4
TAP	83	96	4
TAP	83	192	3
TAP	83	192	4
TAP	84	0	3
TAP	84	192	3
TAP	85	0	2
TAP	85	96	2
TAP	85	192	2
TAP	86	0	1
TAP	86	192	1
BRK	87	0	0
BRK	87	0	7
TTP	88	0	0	B	0	L1
TTP	89	0	7	B	0	L1
TTP	90	0	1	B	0	L1
TTP	91	0	6	B	0	L1
TTP	92	0	2	B	0	L1
TTP	93	0	5	B	0	L1
THO	94	0	0	384	C	0	L1
HLD	96	0	0	384
HLD	96	0	7	384
XTP	97	192	0
XTP	97	192	7
TAP	98	0	0
TAP	98	96	0
TAP	98	192	0
TAP	99	0	1
TAP	99	96	1
TAP	99	192	1
TAP	100	0	2
TAP	100	96	2
TAP	100	192	2
TAP	101	0	3
TAP	101	96	3
TAP	101	192	3
TAP	102	0	4
TAP	102	96	4
TAP	102	192	3
TAP	102	192	4
TAP	103	0	5
TAP	103	96	5
TAP	103	192	4
TAP	103	192	5
TAP	104	0	6
TAP	104	96	6
TAP	104	192	6
TAP	104	192	7
TAP	105	0	0
TAP	105	96	0
TAP	105	192	0
TAP	105	192	7
STR	106	0	0
SI_	106	0	0	96	672	3
STR	106	0	7
SI_	106	0	7	96	672	4

T_REC_TAP	128
T_REC_BRK	4
T_REC_XTP	4
T_REC_HLD	4
T_REC_XHO	9
T_REC_STR	6
T_REC_BST	0
T_REC_XST	0
T_REC_TTP	6
T_REC_THO	1
T_REC_SLD	6
T_REC_ALL	168
T_NUM_TAP	144
T_NUM_BRK	4
T_NUM_HLD	14
T_NUM_SLD	6
T_NUM_ALL	168
T_JUDGE_TAP	148
T_JUDGE_HLD	112
T_JUDGE_SLD	6
T_JUDGE_ALL	266
TTM_EACHPAIRS	23
TTM_SCR_TAP	72000
TTM_SCR_BRK	10400
TTM_SCR_HLD	14000
TTM_SCR_SLD	9000
TTM_SCR_ALL	105400
TTM_SCR_S	101850
TTM_SCR_SS	105000
TTM_RAT_ACV	10038

