VERSION	0.00.00	1.04.00
FES_MODE	0
BPM_DEF	171.000	171.000	171.000	171.000
MET_DEF	4	4
RESOLUTION	384
CLK_DEF	384
COMPATIBLE_CODE	MA2

BPM	0	0	171.000
MET	0	0	4	4

NMHLD	1	0	2	768
NMTAP	1	336	3
NMTAP	2	48	3
NMTAP	2	144	4
NMTAP	2	240	4
NMHLD	3	0	5	768
NMTAP	3	336	4
NMTAP	4	48	4
NMTAP	4	144	3
NMTAP	4	240	3
NMTAP	4	336	1
NMHLD	5	0	1	768
NMTAP	5	96	3
NMTAP	5	192	3
NMTAP	5	288	4
NMTAP	5	336	4
NMTAP	6	48	3
NMTAP	6	144	3
NMTAP	6	240	4
NMHLD	7	0	6	432
NMTAP	7	96	4
NMTAP	7	192	4
NMTAP	7	288	3
NMTAP	7	336	3
NMTAP	8	48	4
NMTAP	8	144	4
NMTAP	8	144	5
NMTAP	8	240	3
NMTAP	8	240	4
NMSTR	8	288	3
NMSCL	8	288	3	96	1248	4
NMTAP	8	288	4
NMTTP	9	0	5	E	0	M1
NMTTP	9	96	6	E	0	M1
NMTTP	9	192	7	E	0	M1
NMTTP	9	288	0	E	0	M1
NMTTP	10	0	1	E	0	M1
NMTTP	10	96	2	E	0	M1
NMTTP	10	192	3	E	0	M1
NMTTP	10	288	4	E	0	M1
NMTTP	11	0	5	B	0	M1
NMTTP	11	96	6	B	0	M1
NMTTP	11	192	7	B	0	M1
NMTTP	11	288	0	B	0	M1
NMTTP	12	0	1	B	0	M1
NMTTP	12	96	2	B	0	M1
NMTTP	12	192	3	B	0	M1
EXSTR	12	288	4
NMSCR	12	288	4	96	1248	3
NMTTP	13	0	3	E	0	M1
NMTTP	13	96	2	E	0	M1
NMTTP	13	192	1	E	0	M1
NMTTP	13	288	0	E	0	M1
NMTTP	14	0	7	E	0	M1
NMTTP	14	96	6	E	0	M1
NMTTP	14	192	5	E	0	M1
NMTTP	14	288	4	E	0	M1
NMTTP	15	0	2	B	0	M1
NMTTP	15	96	1	B	0	M1
NMTTP	15	192	0	B	0	M1
NMTTP	15	288	7	B	0	M1
NMTTP	16	0	6	B	0	M1
NMTTP	16	96	5	B	0	M1
NMTTP	16	192	4	B	0	M1
NMTAP	16	288	1
NMTAP	16	288	6
NMHLD	17	0	0	576
NMTAP	17	0	7
NMTAP	17	96	6
NMTAP	17	192	5
NMTAP	17	288	4
NMTAP	18	0	3
NMTAP	18	96	2
NMTAP	18	192	1
NMTAP	18	288	0
NMTAP	18	288	7
NMTAP	19	0	7
NMTAP	19	48	7
NMTAP	19	96	0
NMTAP	19	96	6
NMTAP	19	144	0
NMTAP	19	144	6
NMTAP	19	192	1
NMTAP	19	192	5
NMTAP	19	240	1
NMTAP	19	240	5
NMTAP	19	288	2
NMTAP	19	288	4
NMTAP	19	336	2
NMTAP	19	336	4
NMTAP	20	0	3
NMTAP	20	24	4
NMTAP	20	48	3
NMTAP	20	72	4
NMTAP	20	96	3
NMTAP	20	120	4
NMTAP	20	144	3
NMTAP	20	168	4
NMSTR	20	192	3
NMSI_	20	192	3	96	48	7
NMTAP	20	288	2
BRTAP	20	288	3
EXTAP	21	0	0
EXTAP	21	0	6
NMTAP	21	96	3
NMTAP	21	96	5
NMTAP	21	144	7
NMTAP	21	192	4
NMTAP	21	192	6
NMTAP	21	240	7
NMSTR	21	288	3
NMSI_	21	288	3	96	48	1
NMTAP	21	288	4
NMTAP	21	336	6
NMTAP	22	0	3
NMSTR	22	0	4
NMSI_	22	0	4	96	48	7
NMSTR	22	96	3
NMSUR	22	96	3	96	96	4
NMTAP	22	96	4
NMTAP	22	192	3
NMTAP	22	192	4
NMTTP	22	288	0	C	0	M1
NMTAP	23	0	3
NMTAP	23	0	5
NMTAP	23	96	1
NMTAP	23	96	7
NMTAP	23	144	1
NMSTR	23	144	7
NMSI_	23	144	7	96	48	3
NMSTR	23	240	1
NMSI_	23	240	1	96	48	5
NMTAP	23	240	7
NMTAP	23	336	1
NMTAP	23	336	7
NMTAP	24	48	6
NMTAP	24	96	7
NMSTR	24	144	0
NMSI_	24	144	0	96	48	4
NMSTR	24	144	6
NMSI_	24	144	6	96	48	3
NMTAP	24	240	0
NMTAP	24	240	6
NMTAP	24	336	1
NMTAP	24	336	5
NMTAP	25	0	1
NMTAP	25	0	5
NMTAP	25	96	2
NMTAP	25	96	4
NMTAP	25	144	0
NMTAP	25	192	1
NMTAP	25	192	3
NMTAP	25	240	0
NMTAP	25	288	3
NMSTR	25	288	4
NMSI_	25	288	4	96	48	6
NMTAP	25	336	1
NMSTR	26	0	3
NMSI_	26	0	3	96	48	0
NMTAP	26	0	4
NMTAP	26	96	3
NMSTR	26	96	4
NMSUL	26	96	4	96	96	3
NMTAP	26	192	3
NMTAP	26	192	4
NMTTP	26	288	0	C	0	M1
NMTAP	27	0	2
NMTAP	27	0	4
NMTAP	27	96	0
NMTAP	27	96	6
NMSTR	27	144	0
NMSI_	27	144	0	96	48	4
NMTAP	27	144	6
NMTAP	27	240	0
NMSTR	27	240	6
NMSI_	27	240	6	96	48	2
NMTAP	27	336	0
NMTAP	27	336	6
NMTAP	28	48	1
NMTAP	28	96	3
NMHLD	28	144	0	96
NMHLD	28	144	4	96
NMTTP	28	288	0	C	1	M1
NMTAP	29	0	1
NMTAP	29	0	7
NMTAP	29	96	3
NMTAP	29	96	5
NMTAP	29	144	7
NMTAP	29	192	2
NMTAP	29	192	4
NMTAP	29	240	0
NMSTR	29	288	3
NMSI_	29	288	3	96	48	1
NMTAP	29	288	5
NMTAP	29	336	7
NMTAP	30	0	3
NMSTR	30	0	4
NMSI_	30	0	4	96	48	7
NMSTR	30	96	3
NMSCL	30	96	3	96	96	4
NMTAP	30	96	4
NMTAP	30	192	3
NMTAP	30	192	4
NMTTP	30	288	0	C	0	M1
NMTAP	31	0	3
NMTAP	31	0	5
NMTAP	31	96	1
NMTAP	31	96	7
NMSTR	31	144	1
NMSCR	31	144	1	96	48	3
NMSTR	31	144	7
NMSI_	31	144	7	96	48	3
NMSTR	31	240	1
NMSI_	31	240	1	96	48	5
NMSTR	31	240	7
NMSCL	31	240	7	96	48	5
NMTAP	31	336	1
NMTAP	31	336	7
NMTAP	32	48	6
NMTAP	32	96	7
NMSTR	32	144	0
NMSI_	32	144	0	96	48	4
NMSTR	32	144	6
NMSI_	32	144	6	96	48	3
NMTAP	32	240	0
NMTAP	32	240	6
NMTAP	32	336	1
NMTAP	32	336	5
NMTAP	33	0	1
NMTAP	33	0	5
NMTAP	33	96	2
NMTAP	33	96	4
NMTAP	33	144	0
NMTAP	33	192	3
NMTAP	33	192	5
NMTAP	33	240	7
NMTAP	33	288	2
NMSTR	33	288	4
NMSI_	33	288	4	96	48	6
NMTAP	33	336	0
NMSTR	34	0	3
NMSI_	34	0	3	96	48	0
NMTAP	34	0	4
NMTAP	34	96	3
NMSTR	34	96	4
NMSCR	34	96	4	96	96	3
NMTAP	34	192	3
NMTAP	34	192	4
NMTTP	34	288	0	C	0	M1
NMHLD	35	0	4	96
NMHLD	35	0	6	96
NMHLD	35	144	1	96
NMHLD	35	144	3	96
NMHLD	35	288	5	96
NMHLD	35	288	7	96
NMHLD	36	48	0	96
NMHLD	36	48	2	96
NMTAP	36	192	3
NMTAP	36	192	4
NMTAP	36	240	0
NMTAP	36	240	7
BRTAP	36	288	1
BRTAP	36	288	6
NMHLD	37	0	1	48
NMTAP	37	0	5
NMTAP	37	48	3
NMTAP	37	96	1
NMHLD	37	96	5	48
NMTAP	37	144	3
NMHLD	37	192	1	48
NMTAP	37	192	5
NMTAP	37	240	3
NMTAP	37	288	1
NMHLD	37	288	5	48
NMTAP	37	336	3
NMHLD	38	0	0	48
NMTAP	38	0	6
NMTAP	38	48	3
NMTAP	38	96	0
NMHLD	38	96	6	48
NMTAP	38	144	3
NMHLD	38	192	0	48
NMTAP	38	192	6
NMTAP	38	240	3
NMTAP	38	288	2
NMTAP	38	288	4
NMTAP	38	336	5
NMSTR	39	0	6
NMSI_	39	0	6	96	48	4
NMTAP	39	48	6
NMSTR	39	96	7
NMSI_	39	96	7	96	48	3
NMTAP	39	144	7
NMSTR	39	192	0
NMSI_	39	192	0	96	48	4
NMTAP	39	240	0
NMSTR	39	288	1
NMSI_	39	288	1	96	48	3
NMTAP	39	336	1
NMSTR	40	0	7
NMSI_	40	0	7	96	48	3
NMTAP	40	48	7
NMSTR	40	96	0
NMSI_	40	96	0	96	48	4
NMTAP	40	144	0
NMTAP	40	192	7
NMTAP	40	240	7
BRTAP	40	288	0
BRTAP	40	288	6
NMTAP	41	0	2
NMHLD	41	0	6	48
NMTAP	41	48	4
NMHLD	41	96	2	48
NMTAP	41	96	6
NMTAP	41	144	4
NMTAP	41	192	2
NMHLD	41	192	6	48
NMTAP	41	240	4
NMHLD	41	288	2	48
NMTAP	41	288	6
NMTAP	41	336	4
NMTAP	42	0	1
NMHLD	42	0	7	48
NMTAP	42	48	4
NMHLD	42	96	1	48
NMTAP	42	96	7
NMTAP	42	144	4
NMTAP	42	192	1
NMHLD	42	192	7	48
NMTAP	42	240	4
NMTAP	42	288	3
NMTAP	42	288	5
NMTAP	42	336	2
NMSTR	43	0	1
NMSCR	43	0	1	96	48	3
NMTAP	43	48	1
NMSTR	43	96	0
NMSUR	43	96	0	96	48	4
NMTAP	43	144	0
NMSTR	43	192	7
NMSUL	43	192	7	96	48	3
NMTAP	43	240	7
NMSTR	43	288	6
NMSCL	43	288	6	96	48	4
NMTAP	43	336	6
NMTAP	44	0	1
NMTAP	44	24	0
NMTAP	44	48	7
NMTAP	44	72	6
NMTAP	44	96	5
NMTAP	44	120	4
NMTAP	44	144	3
NMTAP	44	168	2
NMTAP	44	192	1
NMTAP	44	192	6
BRSTR	44	288	0
BRSI_	44	288	0	96	96	6
BRSTR	44	288	7
BRSI_	44	288	7	96	96	1
CNSI_	45	96	1	0	96	5
CNSI_	45	96	6	0	96	2
CNSI_	45	192	2	0	96	4
CNSI_	45	192	5	0	96	3
NMTAP	46	0	5
NMTAP	46	48	4
NMTAP	46	96	3
NMHLD	46	144	2	144
NMTAP	46	288	4
NMTAP	46	336	3
NMTAP	47	0	2
NMHLD	47	48	1	144
NMTAP	47	192	3
NMTAP	47	240	2
NMTAP	47	288	1
NMHLD	47	336	0	144
NMTAP	48	96	4
NMTAP	48	144	3
NMTAP	48	192	2
NMHLD	48	240	1	144
NMSTR	49	0	4
NMSLR	49	0	4	96	144	2
NMTAP	49	96	2
NMSTR	49	144	2
NMSI_	49	144	2	96	48	0
NMTAP	50	0	1
NMTAP	50	48	2
NMTAP	50	96	3
NMHLD	50	144	4	144
NMTAP	50	288	2
NMTAP	50	336	3
NMTAP	51	0	4
NMHLD	51	48	5	144
NMTAP	51	192	3
NMTAP	51	240	4
NMTAP	51	288	5
NMHLD	51	336	6	144
NMTAP	52	96	4
NMTAP	52	144	5
NMTAP	52	192	6
NMHLD	52	240	7	144
NMSTR	53	0	2
NMSCR	53	0	2	96	192	0
EXHLD	53	96	2	192
NMTAP	54	0	0
NMHLD	54	0	1	288
NMTTP	54	96	3	E	0	M1
NMTTP	54	144	3	D	0	M1
NMHLD	54	288	3	288
NMTTP	55	0	4	E	0	M1
NMTTP	55	48	4	D	0	M1
NMHLD	55	192	4	288
NMTTP	55	288	6	E	0	M1
NMTTP	55	336	6	D	0	M1
NMHLD	56	96	6	288
NMTTP	56	192	0	E	0	M1
NMTTP	56	240	0	D	0	M1
NMSTR	57	0	0
NMSI_	57	0	0	96	84	3
NMSTR	57	96	4
NMSI_	57	96	4	96	84	7
NMTAP	57	144	4
CNSCR	57	180	3	0	12	4
NMHLD	58	0	6	288
NMTAP	58	0	7
NMTTP	58	96	5	E	0	M1
NMTTP	58	144	5	D	0	M1
NMHLD	58	288	4	288
NMTTP	59	0	3	E	0	M1
NMTTP	59	48	3	D	0	M1
NMHLD	59	192	2	288
NMTTP	59	288	1	E	0	M1
NMTTP	59	336	1	D	0	M1
NMHLD	60	96	0	288
NMTTP	60	192	0	E	0	M1
NMTTP	60	240	0	D	0	M1
NMSTR	61	0	7
NMSXL	61	0	7	96	192	4
EXHLD	61	96	7	192
NMTHO	62	0	0	96	C	0	M1
NMTHO	62	288	0	96	C	0	M1
NMTTP	62	288	1	B	0	M1
NMTTP	62	288	6	B	0	M1
NMTHO	63	192	0	96	C	0	M1
NMTTP	63	192	1	B	0	M1
NMTTP	63	192	2	B	0	M1
NMTTP	63	192	5	B	0	M1
NMTTP	63	192	6	B	0	M1
NMTHO	64	96	0	96	C	0	M1
NMTTP	64	96	1	B	0	M1
NMTTP	64	96	2	B	0	M1
NMTTP	64	96	2	E	0	M1
NMTTP	64	96	5	B	0	M1
NMTTP	64	96	6	B	0	M1
NMTTP	64	96	6	E	0	M1
NMTTP	64	288	0	A	0	M1
NMTTP	64	312	7	A	0	M1
NMTTP	64	336	6	A	0	M1
NMTTP	64	360	5	A	0	M1
NMTTP	65	0	4	A	0	M1
NMTTP	65	24	3	A	0	M1
NMTTP	65	48	2	A	0	M1
NMTTP	65	72	1	A	0	M1
BXSTR	65	96	0
NMSSL	65	96	0	96	192	4
BXTAP	65	96	7
NMTAP	65	192	7
NMTAP	65	288	7
NMTAP	66	0	7
NMSTR	66	96	7
NMSSR	66	96	7	96	192	3
NMTAP	66	192	0
NMTAP	66	288	0
NMTAP	67	0	0
NMHLD	67	96	1	96
NMTTP	67	96	4	A	0	M1
NMTTP	67	96	5	E	0	M1
NMTTP	67	96	5	D	1	M1
NMTTP	67	240	3	E	0	M1
NMTTP	67	240	3	A	0	M1
NMTTP	67	240	3	D	1	M1
NMHLD	67	240	6	96
NMTTP	68	0	0	A	0	M1
NMTTP	68	0	1	E	0	M1
NMTTP	68	0	1	D	1	M1
NMHLD	68	0	5	96
NMHLD	68	144	2	96
NMTTP	68	144	7	E	0	M1
NMTTP	68	144	7	A	0	M1
NMTTP	68	144	7	D	1	M1
NMTAP	68	288	3
NMTAP	68	288	4
NMSTR	69	0	0
NMSXL	69	0	0	96	144	3
NMSTR	69	0	7
NMSXR	69	0	7	96	144	4
NMTTP	69	96	0	C	1	M1
EXTAP	69	336	3
EXTAP	69	336	4
EXTAP	70	0	3
EXTAP	70	0	4
NMTAP	70	96	2
NMTAP	70	96	5
NMTAP	70	192	3
NMTAP	70	192	7
NMTAP	70	240	5
NMTAP	70	288	0
NMTAP	70	288	4
NMTAP	70	336	2
NMSTR	71	0	3
NMSLL	71	0	3	96	96	7
NMTAP	71	0	7
NMTAP	71	48	5
NMTAP	71	96	4
NMSTR	71	192	3
NMSCR	71	192	3	96	96	2
NMSUR	71	192	3	96	96	3
CNSLR	71	192	7	0	96	3
NMTAP	72	96	4
NMTAP	72	96	5
NMTAP	72	192	7
NMHLD	72	240	0	48
EXTAP	72	240	1
EXTAP	72	256	2
EXTAP	72	272	3
NMHLD	72	336	0	48
EXTAP	72	336	7
EXTAP	72	352	6
EXTAP	72	368	5
NMHLD	73	48	0	48
EXTAP	73	48	1
EXTAP	73	64	2
EXTAP	73	80	3
EXTAP	73	96	4
NMTAP	73	192	7
EXTAP	73	240	6
NMHLD	73	240	7	48
EXTAP	73	256	5
EXTAP	73	272	4
EXTAP	73	336	0
NMHLD	73	336	7	48
EXTAP	73	352	1
EXTAP	73	368	2
EXTAP	74	48	6
NMHLD	74	48	7	48
EXTAP	74	64	5
EXTAP	74	80	4
BXTAP	74	96	3
NMTAP	74	192	0
NMTAP	74	192	4
NMTAP	74	240	2
NMTAP	74	288	3
NMTAP	74	288	7
NMTAP	74	336	5
NMTAP	75	0	0
NMSTR	75	0	4
NMSI_	75	0	4	96	48	6
NMTAP	75	48	2
NMTAP	75	96	3
CNSI_	75	144	6	0	48	0
CNSI_	75	192	0	0	48	6
NMSTR	75	192	4
NMSCL	75	192	4	96	96	5
NMSUL	75	192	4	96	96	4
CNSI_	75	240	6	0	48	4
NMTAP	76	96	2
NMTAP	76	96	3
NMTAP	76	192	0
EXTAP	76	240	6
NMHLD	76	240	7	48
EXTAP	76	256	5
EXTAP	76	272	4
EXTAP	76	336	0
NMHLD	76	336	7	48
EXTAP	76	352	1
EXTAP	76	368	2
EXTAP	77	48	6
NMHLD	77	48	7	48
EXTAP	77	64	5
EXTAP	77	80	4
EXTAP	77	96	3
NMTAP	77	192	0
NMSTR	77	240	1
NMSI_	77	240	1	96	48	4
NMSTR	77	240	7
NMSI_	77	240	7	96	48	4
NMTAP	77	336	1
NMTAP	77	336	7
NMTTP	78	0	0	C	1	M1
CNSI_	78	0	4	0	48	0
CNSI_	78	0	4	0	48	0
NMTAP	78	96	7
NMTAP	78	192	6
NMTAP	78	192	7
NMTAP	78	240	5
NMTAP	78	288	0
NMTAP	78	288	1
NMTAP	78	336	2
NMTAP	79	0	6
NMSTR	79	0	7
NMSI_	79	0	7	96	48	1
NMTAP	79	48	5
NMTAP	79	96	6
NMTAP	79	96	7
CNSI_	79	144	1	0	48	3
CNSI_	79	192	3	0	48	1
NMSTR	79	192	7
NMSCL	79	192	7	96	96	0
NMSUL	79	192	7	96	96	7
CNSI_	79	240	1	0	48	7
NMTAP	80	96	6
NMTAP	80	96	7
NMTAP	80	192	3
NMTAP	80	192	5
NMTAP	80	240	3
NMTAP	80	240	4
EXTAP	80	256	2
EXTAP	80	272	1
EXTAP	80	288	0
NMSTR	80	336	3
NMSI_	80	336	3	96	48	7
EXTAP	80	352	4
EXTAP	80	368	5
EXTAP	81	0	6
NMTAP	81	48	3
NMTAP	81	192	4
NMTAP	81	240	3
NMTAP	81	240	4
EXTAP	81	256	5
EXTAP	81	272	6
EXTAP	81	288	7
NMSTR	81	336	4
NMSI_	81	336	4	96	48	7
EXTAP	81	352	3
EXTAP	81	368	2
EXTAP	82	0	1
NMTAP	82	48	4
NMTAP	82	96	0
NMTAP	82	192	0
NMTAP	82	192	1
NMTAP	82	240	2
NMTAP	82	288	6
NMTAP	82	288	7
NMTAP	82	336	5
NMSTR	83	0	0
NMSI_	83	0	0	96	48	6
NMTAP	83	0	1
NMTAP	83	48	2
NMTAP	83	96	0
NMTAP	83	96	1
CNSI_	83	144	6	0	48	4
NMSTR	83	192	0
NMSCR	83	192	0	96	96	7
NMSUR	83	192	0	96	96	0
CNSI_	83	192	4	0	48	6
CNSI_	83	240	6	0	48	0
NMHLD	84	96	0	96
NMHLD	84	96	2	96
NMHLD	84	240	5	96
NMHLD	84	240	7	96
NMHLD	85	0	1	96
NMHLD	85	0	3	96
NMHLD	85	144	4	96
NMHLD	85	144	6	96
NMTAP	85	288	0
NMTAP	85	288	7
NMTAP	85	336	3
NMTAP	85	336	4
BRTAP	86	0	2
BRTAP	86	0	5
NMTAP	86	96	4
NMHLD	86	96	6	48
NMTAP	86	144	0
NMTAP	86	192	3
NMHLD	86	192	5	48
NMTAP	86	240	0
NMTAP	86	288	4
NMHLD	86	288	6	48
NMTAP	86	336	0
NMTAP	87	0	3
NMHLD	87	0	5	48
NMTAP	87	48	0
NMHLD	87	96	1	48
NMTAP	87	96	3
NMTAP	87	144	7
NMHLD	87	192	2	48
NMTAP	87	192	4
NMTAP	87	240	7
NMTAP	87	288	1
NMTAP	87	288	3
NMTAP	87	336	6
NMTAP	87	336	7
NMTAP	88	0	4
NMTAP	88	0	5
NMTAP	88	48	2
NMTAP	88	48	3
NMSTR	88	96	1
NMSI_	88	96	1	96	48	5
NMTAP	88	96	7
NMTAP	88	144	2
NMTAP	88	192	1
NMSTR	88	192	7
NMSI_	88	192	7	96	48	3
NMTAP	88	240	6
NMSTR	88	288	1
NMSI_	88	288	1	96	48	4
NMTAP	88	288	7
NMTAP	88	336	2
NMTAP	89	0	1
NMSTR	89	0	7
NMSI_	89	0	7	96	48	4
NMTAP	89	48	6
NMSTR	89	96	1
NMSI_	89	96	1	96	48	5
NMTAP	89	96	7
NMTAP	89	144	2
NMTAP	89	192	1
NMSTR	89	192	7
NMSI_	89	192	7	96	48	3
NMTAP	89	240	6
NMTAP	89	288	1
NMTAP	89	288	7
NMTAP	89	336	2
CNSI_	89	336	3	0	48	7
BRTAP	90	0	0
NMHLD	90	96	1	48
NMTAP	90	96	3
NMTAP	90	144	7
NMHLD	90	192	2	48
NMTAP	90	192	4
NMTAP	90	240	7
NMHLD	90	288	1	48
NMTAP	90	288	3
NMTAP	90	336	7
NMHLD	91	0	2	48
NMTAP	91	0	4
NMTAP	91	48	7
NMTAP	91	96	4
NMHLD	91	96	6	48
NMTAP	91	144	0
NMTAP	91	192	3
NMHLD	91	192	5	48
NMTAP	91	240	0
NMTAP	91	288	4
NMTAP	91	288	6
NMTAP	91	336	0
NMTAP	91	336	1
NMTAP	92	0	2
NMTAP	92	0	3
NMTAP	92	48	4
NMTAP	92	48	5
NMTAP	92	96	6
NMSTR	92	96	7
NMSI_	92	96	7	96	48	3
NMTAP	92	144	0
NMTAP	92	192	1
NMTAP	92	192	7
NMSTR	92	240	0
NMSI_	92	240	0	96	48	3
CNSI_	92	240	3	0	48	7
NMTAP	92	336	0
NMTAP	92	336	6
CNSI_	93	0	3	0	48	5
CNSI_	93	48	5	0	48	1
NMSTR	93	48	7
NMSI_	93	48	7	96	48	5
NMTAP	93	144	3
NMTAP	93	144	7
NMTAP	93	192	3
CNSI_	93	192	5	0	48	0
CNSI_	93	240	0	0	48	4
NMSTR	93	240	3
NMSF_	93	240	3	96	48	7
EXTAP	94	48	7
EXTAP	94	60	0
EXTAP	94	60	6
EXTAP	94	72	1
EXTAP	94	72	5
EXTAP	94	84	2
EXTAP	94	84	4
BXSTR	94	96	3
NMSI_	94	96	3	96	288	1
BRSSL	94	96	3	96	864	7
CNSI_	95	96	1	0	288	5
CNSI_	96	0	5	0	288	7

T_REC_TAP	377
T_REC_BRK	8
T_REC_XTP	54
T_REC_BXX	2
T_REC_HLD	78
T_REC_XHO	2
T_REC_BHO	0
T_REC_BXH	0
T_REC_STR	67
T_REC_BST	2
T_REC_XST	1
T_REC_XBS	2
T_REC_TTP	85
T_REC_THO	4
T_REC_SLD	74
T_REC_BSL	3
T_REC_ALL	759
T_NUM_TAP	584
T_NUM_BRK	17
T_NUM_HLD	84
T_NUM_SLD	74
T_NUM_ALL	759
T_JUDGE_TAP	598
T_JUDGE_HLD	236
T_JUDGE_SLD	77
T_JUDGE_ALL	911
TTM_EACHPAIRS	169
TTM_SCR_TAP	292000
TTM_SCR_BRK	44200
TTM_SCR_HLD	84000
TTM_SCR_SLD	111000
TTM_SCR_ALL	531200
TTM_SCR_S	513650
TTM_SCR_SS	529500
TTM_RAT_ACV	10032

