VERSION	0.00.00	1.03.00
FES_MODE	0
BPM_DEF	171.000	171.000	171.000	171.000
MET_DEF	4	4
RESOLUTION	384
CLK_DEF	384
COMPATIBLE_CODE	MA2

BPM	0	0	171.000
MET	0	0	4	4
MET	69	288	3	4
MET	70	96	4	4

HLD	1	0	5	288
TAP	1	288	3
HLD	1	336	2	288
TAP	2	48	4
HLD	2	144	4	96
HLD	3	0	2	288
TAP	3	288	4
HLD	3	336	5	288
TAP	4	48	3
HLD	4	144	3	96
TAP	4	336	4
TAP	5	0	3
HLD	5	0	5	288
TAP	5	96	4
TAP	5	192	4
TAP	5	288	3
HLD	5	336	2	288
TAP	6	48	4
HLD	6	144	4	96
HLD	7	0	1	288
TAP	7	96	3
TAP	7	192	3
TAP	7	288	5
HLD	7	336	5	192
TAP	8	48	0
TAP	8	144	0
TAP	8	240	0
TAP	8	240	7
TAP	8	288	1
TAP	8	288	6
STR	9	0	3
SI_	9	0	3	96	480	0
TAP	9	0	4
TAP	9	96	4
TAP	9	192	4
TAP	9	288	4
TAP	10	0	4
TAP	10	96	4
TAP	10	192	4
TAP	10	288	4
STR	11	0	3
SI_	11	0	3	96	480	0
TAP	11	0	5
TAP	11	96	5
TAP	11	192	5
TAP	11	288	5
TAP	12	0	5
TAP	12	96	5
TAP	12	192	5
TAP	12	288	5
STR	13	0	3
SI_	13	0	3	96	480	0
TAP	13	0	6
TAP	13	96	6
TAP	13	192	6
TAP	13	288	6
TAP	14	0	6
TAP	14	96	6
TAP	14	192	6
TAP	14	288	6
TAP	15	0	3
STR	15	0	7
SCL	15	0	7	96	480	4
TAP	15	96	3
TAP	15	192	2
TAP	15	288	2
TAP	16	0	1
TAP	16	96	1
TAP	16	192	0
TAP	16	288	0
TAP	17	0	0
HLD	17	0	7	192
TAP	17	96	6
HLD	17	192	5	192
TAP	17	288	4
HLD	18	0	3	192
TAP	18	96	2
HLD	18	192	1	96
TAP	18	288	0
TAP	19	0	1
TAP	19	0	7
TAP	19	96	3
TAP	19	96	4
TAP	19	144	3
TAP	19	144	4
TAP	19	192	2
TAP	19	192	5
TAP	19	240	2
TAP	19	240	5
TAP	19	288	1
TAP	19	288	6
TAP	19	336	1
TAP	19	336	6
TAP	20	0	0
TAP	20	24	7
TAP	20	48	0
TAP	20	72	7
STR	20	96	0
SI_	20	96	0	96	48	4
TAP	20	120	7
TAP	20	144	0
TAP	20	168	7
TAP	20	192	0
BRK	20	288	1
BRK	20	288	7
STR	21	0	6
SI_	21	0	6	96	48	2
STR	21	96	0
SI_	21	96	0	96	48	3
TAP	21	144	0
STR	21	192	5
SI_	21	192	5	96	48	1
TAP	21	240	5
STR	21	288	7
SCR	21	288	7	96	72	2
TAP	21	336	7
STR	22	0	3
SCL	22	0	3	96	96	6
XTP	22	96	7
STR	22	192	4
SI_	22	192	4	96	48	7
TAP	22	240	4
XTP	22	288	3
TAP	23	0	2
STR	23	0	6
SI_	23	0	6	96	48	2
TAP	23	96	0
STR	23	144	0
SCR	23	144	0	96	48	3
STR	23	240	5
SUR	23	240	5	96	96	6
TAP	23	336	0
TAP	24	96	1
STR	24	144	1
SI_	24	144	1	96	48	5
TAP	24	240	7
XTP	24	336	2
XTP	24	336	6
STR	25	0	3
SI_	25	0	3	96	48	0
STR	25	96	7
SI_	25	96	7	96	48	4
TAP	25	144	7
STR	25	192	2
SI_	25	192	2	96	48	6
TAP	25	240	2
STR	25	288	0
SCL	25	288	0	96	72	5
TAP	25	336	0
STR	26	0	4
SCR	26	0	4	96	96	1
XTP	26	96	0
STR	26	192	3
SI_	26	192	3	96	48	0
TAP	26	240	3
XTP	26	288	4
STR	27	0	1
SI_	27	0	1	96	48	5
TAP	27	0	5
TAP	27	96	7
STR	27	144	7
SCL	27	144	7	96	48	4
STR	27	240	2
SUL	27	240	2	96	96	1
TAP	27	336	7
TAP	28	96	6
HLD	28	144	6	96
TAP	28	240	0
TAP	28	288	1
TAP	28	288	7
STR	29	0	5
SI_	29	0	5	96	48	1
STR	29	96	3
SI_	29	96	3	96	48	0
TAP	29	144	3
STR	29	192	6
SI_	29	192	6	96	48	2
TAP	29	240	6
STR	29	288	4
SCL	29	288	4	96	72	1
TAP	29	336	4
STR	30	0	0
SCR	30	0	0	96	96	5
XTP	30	96	4
STR	30	192	7
SI_	30	192	7	96	48	3
TAP	30	240	7
XTP	30	288	0
TAP	31	0	1
STR	31	0	5
SI_	31	0	5	96	48	1
TAP	31	96	7
STR	31	144	7
SCR	31	144	7	96	48	2
STR	31	240	3
SUR	31	240	3	96	96	4
TAP	31	336	0
TAP	32	96	1
STR	32	144	1
SI_	32	144	1	96	48	5
TAP	32	240	7
XTP	32	336	2
XTP	32	336	6
STR	33	0	0
SI_	33	0	0	96	48	3
STR	33	96	4
SI_	33	96	4	96	48	7
TAP	33	144	4
STR	33	192	1
SI_	33	192	1	96	48	5
TAP	33	240	1
STR	33	288	3
SCR	33	288	3	96	72	6
TAP	33	336	3
STR	34	0	7
SCL	34	0	7	96	96	2
XTP	34	96	3
STR	34	192	0
SI_	34	192	0	96	48	4
TAP	34	240	0
XTP	34	288	7
TAP	35	0	1
TAP	35	48	3
TAP	35	96	2
TTP	35	144	4	B	0	M1
TTP	35	144	4	E	0	M1
BRK	35	144	6
TAP	35	288	1
TAP	35	336	3
TAP	36	0	2
TTP	36	48	4	B	0	M1
TTP	36	48	4	E	0	M1
BRK	36	48	6
STR	36	192	0
SI_	36	192	0	96	48	3
STR	36	192	7
SI_	36	192	7	96	48	4
TAP	36	240	1
TAP	36	240	6
BRK	36	288	0
BRK	36	288	7
HLD	37	0	0	96
TAP	37	48	3
HLD	37	96	5	96
TAP	37	144	4
HLD	37	192	2	96
TAP	37	240	3
HLD	37	288	7	96
TAP	37	336	4
HLD	38	0	2	96
TAP	38	48	0
HLD	38	96	3	96
TAP	38	144	0
HLD	38	192	4	96
TAP	38	240	7
HLD	38	288	5	96
TAP	38	336	7
STR	39	0	2
SI_	39	0	2	96	48	4
TAP	39	48	2
STR	39	96	6
SI_	39	96	6	96	48	0
TAP	39	144	6
STR	39	192	3
SI_	39	192	3	96	48	5
TAP	39	240	3
STR	39	288	7
SI_	39	288	7	96	48	1
TAP	39	336	7
STR	40	0	3
SI_	40	0	3	96	48	1
TAP	40	48	3
STR	40	96	4
SI_	40	96	4	96	48	7
TAP	40	144	4
TAP	40	192	0
TAP	40	240	0
XTP	40	288	1
XTP	40	288	6
HLD	41	0	7	96
TAP	41	48	4
HLD	41	96	2	96
TAP	41	144	3
HLD	41	192	5	96
TAP	41	240	4
HLD	41	288	0	96
TAP	41	336	3
HLD	42	0	5	96
TAP	42	48	7
HLD	42	96	4	96
TAP	42	144	7
HLD	42	192	3	96
TAP	42	240	0
HLD	42	288	2	96
TAP	42	336	0
STR	43	0	5
SI_	43	0	5	96	48	3
TAP	43	48	5
STR	43	96	1
SI_	43	96	1	96	48	7
TAP	43	144	1
STR	43	192	4
SI_	43	192	4	96	48	2
TAP	43	240	4
STR	43	288	0
SI_	43	288	0	96	48	6
TAP	43	336	0
STR	44	0	4
SI_	44	0	4	96	48	6
TAP	44	48	4
STR	44	96	3
SI_	44	96	3	96	48	0
TAP	44	144	3
TAP	44	192	7
TAP	44	240	7
STR	44	288	1
SUR	44	288	1	96	240	2
STR	44	288	6
SUL	44	288	6	96	240	5
TTP	46	0	2	E	0	M1
TTP	46	48	4	E	0	M1
TTP	46	96	3	E	0	M1
TTP	46	144	5	E	0	M1
TTP	46	288	6	E	0	M1
TTP	46	336	4	E	0	M1
TTP	47	0	5	E	0	M1
TTP	47	48	3	E	0	M1
TTP	47	192	2	E	0	M1
TTP	47	240	4	E	0	M1
TTP	47	288	3	E	0	M1
TTP	47	336	5	E	0	M1
TTP	48	96	2	E	0	M1
TTP	48	144	4	E	0	M1
TTP	48	192	3	E	0	M1
TTP	48	240	5	E	0	M1
STR	49	0	7
SCR	49	0	7	96	96	1
TAP	49	96	2
STR	49	144	2
SI_	49	144	2	96	96	7
TTP	50	0	6	E	0	M1
TTP	50	48	4	E	0	M1
TTP	50	96	5	E	0	M1
TTP	50	144	3	E	0	M1
TTP	50	288	2	E	0	M1
TTP	50	336	4	E	0	M1
TTP	51	0	3	E	0	M1
TTP	51	48	5	E	0	M1
TTP	51	192	6	E	0	M1
TTP	51	240	4	E	0	M1
TTP	51	288	5	E	0	M1
TTP	51	336	3	E	0	M1
TTP	52	96	6	E	0	M1
TTP	52	144	4	E	0	M1
TTP	52	192	5	E	0	M1
TTP	52	240	3	E	0	M1
STR	53	0	0
SCL	53	0	0	96	96	6
TAP	53	96	5
STR	53	144	5
SI_	53	144	5	96	72	2
SI_	53	144	5	96	72	3
TAP	54	0	1
HLD	54	48	1	240
TTP	54	96	3	B	0	M1
TTP	54	144	0	C	0	M1
TAP	54	288	7
HLD	54	336	7	240
TTP	55	0	1	B	0	M1
TTP	55	48	0	C	0	M1
TAP	55	192	5
HLD	55	240	5	240
TTP	55	288	7	B	0	M1
TTP	55	336	0	C	0	M1
TAP	56	96	3
HLD	56	144	3	96
TTP	56	192	5	B	0	M1
TTP	56	240	0	C	0	M1
STR	57	0	1
SCL	57	0	1	96	96	7
TAP	57	96	6
STR	57	144	6
SI_	57	144	6	96	96	1
STR	58	0	3
SCL	58	0	3	96	96	1
TAP	58	48	3
TTP	58	96	1	B	0	M1
TTP	58	144	0	C	0	M1
STR	58	288	5
SCL	58	288	5	96	96	3
TAP	58	336	5
TTP	59	0	3	B	0	M1
TTP	59	48	0	C	0	M1
STR	59	192	7
SCL	59	192	7	96	96	5
TAP	59	240	7
TTP	59	288	5	B	0	M1
TTP	59	336	0	C	0	M1
STR	60	96	1
SCL	60	96	1	96	96	7
TAP	60	144	1
TTP	60	192	7	B	0	M1
TTP	60	240	0	C	0	M1
STR	61	0	3
SI_	61	0	3	96	48	7
TAP	61	96	0
STR	61	144	0
SI_	61	144	0	96	48	3
SI_	61	144	0	96	48	5
TAP	61	240	0
TAP	61	336	2
TAP	61	336	6
HLD	62	0	1	864
HLD	62	0	5	288
HLD	63	192	3	480
TAP	64	288	0
TAP	64	312	7
TAP	64	336	6
TAP	64	360	5
TAP	65	0	4
TAP	65	24	3
TAP	65	48	2
TAP	65	72	1
BST	65	96	0
SI_	65	96	0	96	48	3
TAP	65	192	7
STR	65	288	6
SI_	65	288	6	96	48	1
TAP	66	0	5
STR	66	96	4
SI_	66	96	4	96	48	7
TAP	66	192	3
STR	66	288	2
SI_	66	288	2	96	48	5
TAP	67	0	1
TAP	67	96	2
TAP	67	96	4
TAP	67	144	3
TAP	67	192	4
TAP	67	240	3
TAP	67	240	5
TAP	67	288	4
TAP	67	336	3
TAP	68	0	1
TAP	68	0	4
TAP	68	48	3
TAP	68	96	4
TAP	68	144	3
TAP	68	144	6
TAP	68	192	4
TAP	68	240	3
TAP	68	288	2
TAP	68	288	5
TAP	68	336	1
TAP	68	336	6
STR	69	0	0
SXR	69	0	0	96	144	3
TAP	69	0	7
TTP	69	96	0	C	1	M1
TAP	69	336	2
TAP	70	0	1
TAP	70	48	0
TAP	70	96	6
STR	70	96	7
SI_	70	96	7	96	48	2
STR	70	192	7
SI_	70	192	7	96	48	4
TAP	70	240	5
STR	70	288	7
SI_	70	288	7	96	48	2
TAP	70	336	3
STR	71	0	7
SI_	71	0	7	96	48	3
TAP	71	48	6
STR	71	96	7
SI_	71	96	7	96	48	2
SI_	71	96	7	96	48	4
STR	71	192	7
SCR	71	192	7	96	96	6
TAP	71	288	7
BRK	72	0	0
TAP	72	96	2
TAP	72	144	7
HLD	72	192	3	48
XTP	72	240	7
XTP	72	256	6
XTP	72	272	5
HLD	72	288	3	48
XTP	72	336	7
XTP	72	352	0
XTP	72	368	1
HLD	73	0	3	48
XTP	73	48	6
XTP	73	64	5
XTP	73	80	4
XTP	73	96	3
TAP	73	96	7
TAP	73	144	7
HLD	73	192	4	48
XTP	73	240	0
XTP	73	256	1
XTP	73	272	2
HLD	73	288	4	48
XTP	73	336	0
XTP	73	352	7
XTP	73	368	6
HLD	74	0	4	48
XTP	74	48	1
XTP	74	64	2
XTP	74	80	3
STR	74	96	0
SI_	74	96	0	96	48	5
XTP	74	96	4
STR	74	192	0
SI_	74	192	0	96	48	3
TAP	74	240	2
STR	74	288	0
SI_	74	288	0	96	48	5
TAP	74	336	4
STR	75	0	0
SI_	75	0	0	96	48	4
TAP	75	48	1
STR	75	96	0
SI_	75	96	0	96	48	3
SI_	75	96	0	96	48	5
STR	75	192	0
SCL	75	192	0	96	96	1
TAP	75	288	0
BRK	76	0	7
TAP	76	96	5
TAP	76	144	0
HLD	76	192	4	48
XTP	76	240	0
XTP	76	256	1
XTP	76	272	2
HLD	76	288	4	48
XTP	76	336	0
XTP	76	352	7
XTP	76	368	6
HLD	77	0	4	48
XTP	77	48	1
XTP	77	64	2
XTP	77	80	3
TAP	77	96	0
XTP	77	96	4
TAP	77	144	0
HLD	77	192	3	48
XTP	77	240	7
XTP	77	256	6
XTP	77	272	5
HLD	77	288	3	48
XTP	77	336	7
XTP	77	352	0
XTP	77	368	1
HLD	78	0	3	48
XTP	78	48	6
XTP	78	64	5
XTP	78	80	4
XTP	78	96	3
STR	78	96	7
SCR	78	96	7	96	48	2
STR	78	192	7
SCL	78	192	7	96	48	4
TAP	78	240	5
STR	78	288	7
SCR	78	288	7	96	48	2
TAP	78	336	3
STR	79	0	7
SI_	79	0	7	96	48	3
TAP	79	48	6
STR	79	96	7
SI_	79	96	7	96	48	2
SI_	79	96	7	96	48	4
STR	79	192	7
SCR	79	192	7	96	96	6
TAP	79	288	7
BRK	80	0	0
TAP	80	96	2
TAP	80	144	7
HLD	80	192	3	48
XTP	80	240	7
XTP	80	256	6
XTP	80	272	5
HLD	80	288	3	48
XTP	80	336	7
XTP	80	352	0
XTP	80	368	1
HLD	81	0	3	48
XTP	81	48	6
XTP	81	64	5
XTP	81	80	4
XTP	81	96	3
TAP	81	96	7
TAP	81	144	7
HLD	81	192	4	48
XTP	81	240	0
XTP	81	256	1
XTP	81	272	2
HLD	81	288	4	48
XTP	81	336	0
XTP	81	352	7
XTP	81	368	6
HLD	82	0	4	48
XTP	82	48	1
XTP	82	64	2
XTP	82	80	3
STR	82	96	0
SCL	82	96	0	96	48	5
XTP	82	96	4
STR	82	192	0
SCR	82	192	0	96	48	3
TAP	82	240	2
STR	82	288	0
SCL	82	288	0	96	48	5
TAP	82	336	4
STR	83	0	0
SI_	83	0	0	96	48	4
TAP	83	48	1
STR	83	96	0
SI_	83	96	0	96	48	3
SI_	83	96	0	96	48	5
STR	83	192	0
SF_	83	192	0	96	48	4
TAP	83	288	0
BRK	84	0	2
BRK	84	0	6
TAP	84	96	6
TAP	84	144	4
TAP	84	192	5
BRK	84	240	1
TTP	84	240	4	B	0	M1
TTP	84	240	4	E	0	M1
TAP	85	0	6
TAP	85	48	4
TAP	85	96	5
BRK	85	144	1
TTP	85	144	4	B	0	M1
TTP	85	144	4	E	0	M1
STR	85	288	0
SI_	85	288	0	96	48	3
STR	85	288	7
SI_	85	288	7	96	48	4
TAP	85	336	1
TAP	85	336	6
BRK	86	0	0
BRK	86	0	7
TAP	86	96	2
TAP	86	96	5
TAP	86	144	6
TAP	86	168	7
HLD	86	192	4	48
TAP	86	240	3
TAP	86	264	5
HLD	86	288	2	48
TAP	86	336	0
TAP	86	360	1
HLD	87	0	6	48
TAP	87	48	0
TAP	87	72	7
HLD	87	96	1	48
TAP	87	144	3
TAP	87	168	2
HLD	87	192	5	48
TAP	87	240	3
TAP	87	264	4
TAP	87	288	0
TAP	87	336	6
TAP	87	336	7
TAP	88	0	4
TAP	88	0	5
TAP	88	48	2
TAP	88	48	3
TAP	88	96	1
TAP	88	96	4
TAP	88	144	1
TAP	88	168	0
XHO	88	192	3	48
XTP	88	240	4
TAP	88	264	2
HLD	88	288	5	48
XTP	88	336	7
TAP	88	360	6
HLD	89	0	1	48
XTP	89	48	7
TAP	89	72	0
HLD	89	96	6	48
TAP	89	144	4
TAP	89	168	5
XHO	89	192	2	48
XTP	89	240	4
TAP	89	264	3
HLD	89	288	7	48
XTP	89	336	0
BRK	90	0	1
BRK	90	0	5
TAP	90	96	3
TAP	90	96	6
TAP	90	144	1
TAP	90	168	0
HLD	90	192	3	48
TAP	90	240	4
TAP	90	264	2
HLD	90	288	5	48
TAP	90	336	7
TAP	90	360	6
HLD	91	0	1	48
TAP	91	48	7
TAP	91	72	0
HLD	91	96	6	48
TAP	91	144	4
TAP	91	168	5
HLD	91	192	2	48
TAP	91	240	4
TAP	91	264	3
TAP	91	288	7
TAP	91	336	0
TAP	91	336	1
TAP	92	0	2
TAP	92	0	3
TAP	92	48	4
TAP	92	48	5
STR	92	96	6
SI_	92	96	6	96	48	2
STR	92	144	0
SCR	92	144	0	96	48	3
XTP	92	192	6
XST	92	240	0
SCL	92	240	0	96	48	5
XST	92	336	0
SI_	92	336	0	96	48	4
TAP	92	336	2
XTP	93	48	0
TAP	93	48	4
STR	93	144	7
SI_	93	144	7	96	48	3
XTP	93	192	2
XTP	93	240	7
XTP	93	336	1
TAP	93	360	5
TAP	94	0	2
TAP	94	24	6
XTP	94	48	3
TAP	94	72	7
BST	94	96	0
SXR	94	96	0	96	672	5
BST	94	96	4
SXR	94	96	4	96	672	1

T_REC_TAP	297
T_REC_BRK	17
T_REC_XTP	85
T_REC_HLD	71
T_REC_XHO	2
T_REC_STR	101
T_REC_BST	3
T_REC_XST	2
T_REC_TTP	57
T_REC_THO	0
T_REC_SLD	112
T_REC_ALL	747
T_NUM_TAP	542
T_NUM_BRK	20
T_NUM_HLD	73
T_NUM_SLD	112
T_NUM_ALL	747
T_JUDGE_TAP	562
T_JUDGE_HLD	185
T_JUDGE_SLD	112
T_JUDGE_ALL	859
TTM_EACHPAIRS	60
TTM_SCR_TAP	271000
TTM_SCR_BRK	52000
TTM_SCR_HLD	73000
TTM_SCR_SLD	168000
TTM_SCR_ALL	564000
TTM_SCR_S	545150
TTM_SCR_SS	562000
TTM_RAT_ACV	10035

