VERSION	0.00.00	1.03.00
FES_MODE	0
BPM_DEF	171.000	171.000	171.000	171.000
MET_DEF	4	4
RESOLUTION	384
CLK_DEF	384
COMPATIBLE_CODE	MA2

BPM	0	0	171.000
MET	0	0	4	4

TTP	1	0	5	E	0	M1
TTP	1	96	4	E	0	M1
TTP	1	192	3	E	0	M1
TTP	3	0	5	E	0	M1
TTP	3	96	4	E	0	M1
TTP	3	192	3	E	0	M1
TTP	5	0	7	E	0	M1
TTP	5	96	0	E	0	M1
TTP	5	192	1	E	0	M1
TTP	7	0	7	E	0	M1
TTP	7	96	0	E	0	M1
TTP	7	192	1	E	0	M1
TTP	9	0	0	C	0	M1
TTP	9	0	5	E	0	M1
TTP	9	96	6	E	0	M1
TTP	9	192	7	E	0	M1
TTP	9	288	0	C	0	M1
TTP	9	288	0	E	0	M1
TTP	10	0	1	E	0	M1
TTP	10	96	2	E	0	M1
TTP	10	192	0	C	0	M1
TTP	10	192	3	E	0	M1
TTP	10	288	4	E	0	M1
TTP	11	0	5	E	0	M1
TTP	11	96	0	C	0	M1
TTP	11	96	6	E	0	M1
TTP	11	192	7	E	0	M1
TTP	11	288	0	E	0	M1
THO	12	0	0	96	C	0	M1
TTP	12	0	1	E	0	M1
TTP	12	96	2	E	0	M1
TTP	12	192	3	E	0	M1
TTP	12	288	4	E	0	M1
TTP	13	0	0	C	0	M1
TTP	13	0	5	E	0	M1
TTP	13	96	6	E	0	M1
TTP	13	192	7	E	0	M1
TTP	13	288	0	C	0	M1
TTP	13	288	0	E	0	M1
TTP	14	0	1	E	0	M1
TTP	14	96	2	E	0	M1
TTP	14	192	0	C	0	M1
TTP	14	192	3	E	0	M1
TTP	14	288	4	E	0	M1
TTP	15	0	5	E	0	M1
TTP	15	96	0	C	0	M1
TTP	15	96	6	E	0	M1
TTP	15	192	7	E	0	M1
TTP	15	288	0	E	0	M1
THO	16	0	0	96	C	0	M1
TTP	16	0	1	E	0	M1
TTP	16	96	2	E	0	M1
TTP	16	192	3	E	0	M1
TTP	16	288	4	E	0	M1
XTP	17	0	3
XHO	17	0	5	192
TAP	17	96	4
TAP	17	144	4
TAP	17	192	3
XHO	17	288	2	192
XTP	17	288	4
TAP	18	0	3
TAP	18	48	3
TAP	18	96	4
XTP	18	192	3
XHO	18	192	5	192
TAP	18	288	4
TAP	18	336	4
TAP	19	0	3
XHO	19	96	2	192
XTP	19	96	4
TAP	19	192	3
TAP	19	240	3
TAP	19	288	4
XTP	20	0	2
XTP	20	0	5
STR	20	96	3
SI_	20	96	3	96	96	0
STR	20	96	4
SI_	20	96	4	96	96	7
TAP	21	0	3
HLD	21	0	5	288
TAP	21	96	7
TAP	21	192	4
TAP	21	240	4
TAP	21	288	3
HLD	22	0	2	288
TAP	22	0	4
TAP	22	96	0
TAP	22	192	3
TAP	22	240	3
TAP	22	288	4
TAP	23	0	3
HLD	23	0	5	672
TAP	23	96	4
XTP	23	192	6
XTP	23	288	7
TAP	24	0	7
TAP	24	96	6
XTP	24	192	4
XTP	24	288	3
HLD	25	0	2	288
TAP	25	0	4
TAP	25	96	0
TAP	25	192	3
TAP	25	240	3
TAP	25	288	4
TAP	26	0	3
HLD	26	0	5	288
TAP	26	96	7
TAP	26	192	4
TAP	26	240	4
TAP	26	288	3
HLD	27	0	2	672
TAP	27	0	4
TAP	27	96	3
XTP	27	192	1
XTP	27	288	0
TAP	28	0	0
TAP	28	96	1
XTP	28	192	3
XTP	28	288	4
TAP	29	0	3
HLD	29	0	5	288
TAP	29	96	7
TAP	29	192	4
TAP	29	240	4
TAP	29	288	3
TAP	29	336	3
HLD	30	0	2	288
TAP	30	0	4
TAP	30	96	0
TAP	30	192	3
TAP	30	240	3
TAP	30	288	4
TAP	30	336	4
TAP	31	0	3
HLD	31	0	5	576
TAP	31	96	4
XTP	31	192	7
XTP	31	288	7
TAP	32	0	6
TAP	32	96	4
XTP	32	192	3
XTP	32	288	3
HLD	33	0	2	288
TAP	33	0	4
TAP	33	96	0
TAP	33	192	3
TAP	33	240	3
TAP	33	288	4
TAP	33	336	4
TAP	34	0	3
HLD	34	0	5	288
TAP	34	96	7
TAP	34	192	4
TAP	34	240	4
TAP	34	288	3
TAP	34	336	3
HLD	35	0	2	144
HLD	35	144	0	144
HLD	35	288	7	144
HLD	36	48	5	144
TAP	36	192	2
TAP	36	288	3
TAP	36	288	4
HLD	37	0	1	768
TAP	37	0	6
TAP	37	96	6
TAP	37	192	3
TAP	37	288	3
TAP	38	0	4
TAP	38	48	4
TAP	38	96	3
TAP	38	192	5
TAP	38	288	2
HLD	39	0	6	384
TAP	39	96	0
TAP	39	192	7
TAP	39	288	5
HLD	40	0	1	384
TAP	40	96	7
TAP	40	192	0
TAP	40	288	2
HLD	41	0	6	768
TAP	41	96	2
TAP	41	192	4
TAP	41	288	4
TAP	41	336	4
TAP	42	0	3
TAP	42	96	4
TAP	42	192	2
TAP	42	288	5
HLD	43	0	1	384
TAP	43	96	7
TAP	43	192	0
TAP	43	288	2
HLD	44	0	6	288
TAP	44	96	0
TAP	44	192	7
STR	44	288	5
SUL	44	288	5	96	288	3
XST	46	0	0
SI_	46	0	0	96	96	3
XST	46	48	4
SI_	46	48	4	96	96	7
XST	46	288	3
SI_	46	288	3	96	96	0
XST	46	336	7
SI_	46	336	7	96	96	4
XST	47	192	0
SI_	47	192	0	96	96	3
XST	47	240	4
SI_	47	240	4	96	96	7
XST	48	96	3
SI_	48	96	3	96	96	0
XST	48	144	7
SI_	48	144	7	96	96	4
XST	49	0	0
SI_	49	0	0	96	96	3
XST	49	48	4
SI_	49	48	4	96	96	7
XHO	49	240	2	144
XST	50	0	5
SI_	50	0	5	96	96	0
XST	50	48	1
SI_	50	48	1	96	96	4
XST	50	288	0
SI_	50	288	0	96	96	5
XST	50	336	4
SI_	50	336	4	96	96	1
XST	51	192	5
SI_	51	192	5	96	96	0
XST	51	240	1
SI_	51	240	1	96	96	4
XST	52	96	0
SI_	52	96	0	96	96	5
XST	52	144	4
SI_	52	144	4	96	96	1
XST	53	0	5
SI_	53	0	5	96	96	0
XST	53	48	1
SI_	53	48	1	96	96	4
XHO	53	240	7	144
XST	54	0	2
SI_	54	0	2	96	96	5
XST	54	48	6
SI_	54	48	6	96	96	1
XST	54	288	5
SI_	54	288	5	96	96	2
XST	54	336	1
SI_	54	336	1	96	96	6
XST	55	192	2
SI_	55	192	2	96	96	5
XST	55	240	6
SI_	55	240	6	96	96	1
XST	56	96	5
SI_	56	96	5	96	96	2
XST	56	144	1
SI_	56	144	1	96	96	6
XST	57	0	2
SI_	57	0	2	96	96	5
XST	57	48	6
SI_	57	48	6	96	96	1
XHO	57	240	4	144
XST	58	0	7
SCL	58	0	7	96	96	4
XST	58	48	3
SCL	58	48	3	96	96	0
XST	58	288	4
SCR	58	288	4	96	96	7
XST	58	336	0
SCR	58	336	0	96	96	3
XST	59	192	7
SCL	59	192	7	96	96	4
XST	59	240	3
SCL	59	240	3	96	96	0
XST	60	96	4
SCR	60	96	4	96	96	7
XST	60	144	0
SCR	60	144	0	96	96	3
XST	61	0	7
SCL	61	0	7	96	96	4
XST	61	48	3
SCL	61	48	3	96	96	0
XHO	61	240	5	1008
THO	62	0	0	96	C	0	M1
THO	62	288	0	96	C	0	M1
THO	63	192	0	96	C	0	M1
THO	64	96	0	96	C	1	M1
TAP	65	96	7
TAP	65	192	7
TAP	65	288	7
TAP	66	0	0
TAP	66	96	0
TAP	66	192	0
TAP	66	288	5
TAP	67	0	5
XTP	67	96	3
XTP	67	96	5
TAP	67	192	2
XTP	67	240	2
TAP	67	288	3
XTP	68	0	2
XTP	68	0	5
TAP	68	96	4
XTP	68	144	4
TAP	68	192	3
XTP	68	288	3
XTP	68	288	4
STR	69	0	3
SCL	69	0	3	96	96	0
STR	69	0	4
SCR	69	0	4	96	96	7
BRK	70	0	1
BRK	70	0	6
TAP	70	96	2
TAP	70	96	3
TAP	70	192	0
TAP	70	192	1
TAP	70	288	6
TAP	70	288	7
TAP	70	336	5
TAP	71	0	4
TAP	71	0	5
TAP	71	96	4
TAP	71	96	5
TAP	71	192	6
TAP	71	192	7
TAP	71	288	0
TAP	71	288	1
TAP	71	336	2
TAP	72	0	2
TAP	72	0	3
XST	72	96	2
SCL	72	96	2	96	192	5
TAP	72	96	3
TAP	72	192	3
TAP	72	288	3
TAP	73	0	3
TAP	73	96	3
XST	73	96	5
SCR	73	96	5	96	192	2
TAP	73	192	3
TAP	73	288	3
TAP	74	0	3
TAP	74	96	4
TAP	74	96	5
TAP	74	192	6
TAP	74	192	7
TAP	74	288	0
TAP	74	288	1
TAP	74	336	2
TAP	75	0	2
TAP	75	0	3
TAP	75	96	2
TAP	75	96	3
TAP	75	192	0
TAP	75	192	1
TAP	75	288	6
TAP	75	288	7
TAP	75	336	5
TAP	76	0	4
TAP	76	0	5
TAP	76	96	4
XST	76	96	5
SCR	76	96	5	96	192	2
TAP	76	192	4
TAP	76	288	4
TAP	77	0	4
XST	77	96	2
SCL	77	96	2	96	192	5
TAP	77	96	4
TAP	77	192	4
TAP	77	288	4
TAP	78	0	4
TAP	78	96	2
TAP	78	96	3
TAP	78	192	0
TAP	78	192	1
TAP	78	288	4
TAP	78	288	5
TAP	78	336	6
TAP	79	0	6
TAP	79	0	7
TAP	79	96	6
TAP	79	96	7
TAP	79	192	3
TAP	79	192	4
TAP	79	288	0
TAP	79	288	1
TAP	79	336	2
TAP	80	0	2
TAP	80	0	3
XST	80	96	2
SCL	80	96	2	96	192	5
TAP	80	96	3
TAP	80	192	3
TAP	80	288	3
TAP	81	0	3
TAP	81	96	3
XST	81	96	5
SCR	81	96	5	96	192	2
TAP	81	192	3
TAP	81	288	3
TAP	82	0	3
TAP	82	96	4
TAP	82	96	5
TAP	82	192	6
TAP	82	192	7
TAP	82	288	2
TAP	82	288	3
TAP	82	336	1
TAP	83	0	0
TAP	83	0	1
TAP	83	96	0
TAP	83	96	1
TAP	83	192	3
TAP	83	192	4
TAP	83	288	6
TAP	83	288	7
TAP	83	336	5
TAP	84	0	4
TAP	84	0	5
HLD	84	96	3	96
HLD	84	96	6	96
HLD	84	240	1	96
HLD	84	240	5	96
HLD	85	0	2	96
HLD	85	0	6	96
HLD	85	144	1	96
HLD	85	144	4	96
TAP	85	288	2
TAP	85	288	3
BRK	86	0	1
BRK	86	0	4
TAP	86	96	5
TAP	86	144	4
TAP	86	192	3
TAP	86	288	0
TAP	86	288	7
TAP	87	0	2
TAP	87	0	4
TAP	87	96	3
TAP	87	144	4
TAP	87	192	5
TAP	87	288	6
TAP	87	288	7
TAP	88	0	0
TAP	88	0	6
TAP	88	96	0
XST	88	96	6
SCL	88	96	6	96	192	1
TAP	88	192	0
TAP	88	288	0
TAP	89	0	0
TAP	89	96	0
XST	89	96	1
SCR	89	96	1	96	192	6
TAP	89	192	0
TAP	89	288	0
TAP	90	0	0
TAP	90	96	2
TAP	90	144	3
TAP	90	192	4
TAP	90	288	0
TAP	90	288	7
TAP	91	0	3
TAP	91	0	5
TAP	91	96	4
TAP	91	144	3
TAP	91	192	2
TAP	91	288	0
TAP	91	288	1
TAP	92	0	0
TAP	92	0	7
TAP	92	96	4
TAP	92	96	6
TAP	92	192	5
TAP	92	240	5
TAP	92	288	2
TAP	92	336	2
TAP	93	0	3
TAP	93	48	3
TAP	93	96	1
TAP	93	144	1
TAP	93	192	5
TAP	93	240	5
TAP	93	288	0
TAP	93	312	7
TAP	93	336	0
TAP	93	360	7
BST	94	0	0
SCR	94	0	0	96	576	7
TTP	94	96	0	C	1	M1

T_REC_TAP	261
T_REC_BRK	4
T_REC_XTP	26
T_REC_HLD	29
T_REC_XHO	8
T_REC_STR	5
T_REC_BST	1
T_REC_XST	48
T_REC_TTP	53
T_REC_THO	6
T_REC_SLD	54
T_REC_ALL	495
T_NUM_TAP	393
T_NUM_BRK	5
T_NUM_HLD	43
T_NUM_SLD	54
T_NUM_ALL	495
T_JUDGE_TAP	398
T_JUDGE_HLD	236
T_JUDGE_SLD	54
T_JUDGE_ALL	688
TTM_EACHPAIRS	79
TTM_SCR_TAP	196500
TTM_SCR_BRK	13000
TTM_SCR_HLD	43000
TTM_SCR_SLD	81000
TTM_SCR_ALL	333500
TTM_SCR_S	323050
TTM_SCR_SS	333000
TTM_RAT_ACV	10015

