VERSION	0.00.00	1.03.00
FES_MODE	0
BPM_DEF	171.000	171.000	171.000	171.000
MET_DEF	4	4
RESOLUTION	384
CLK_DEF	384
COMPATIBLE_CODE	MA2

BPM	0	0	171.000
MET	0	0	4	4

HLD	1	0	2	384
HLD	2	0	3	384
HLD	3	0	4	384
TAP	4	0	5
HLD	5	0	6	384
HLD	6	0	7	384
HLD	7	0	0	384
STR	8	0	1
SCR	8	0	1	96	192	4
HLD	9	0	5	192
TAP	9	192	4
HLD	10	0	2	192
TAP	10	192	3
HLD	11	0	5	192
TAP	11	192	4
HLD	12	0	2	96
HLD	12	0	3	96
TAP	12	192	2
TAP	12	192	3
HLD	13	0	1	192
TAP	13	192	0
HLD	14	0	6	192
TAP	14	192	7
TAP	15	0	0
STR	15	0	1
SI_	15	0	1	96	192	5
STR	16	0	6
SI_	16	0	6	96	192	2
TAP	17	0	1
TAP	17	96	1
TAP	17	288	0
TAP	18	0	0
TAP	18	192	7
TAP	18	288	7
XTP	19	0	7
TAP	19	96	6
TAP	19	192	5
TAP	19	288	4
TAP	20	0	3
TAP	20	0	4
TAP	20	48	3
TAP	20	48	4
TAP	20	96	3
TAP	20	96	4
XTP	20	192	2
XTP	20	192	5
TAP	21	0	6
TAP	21	96	6
TAP	21	192	6
TAP	21	192	7
TAP	21	288	6
TAP	21	288	7
TAP	22	0	5
TAP	22	96	4
TAP	22	192	3
TAP	22	288	2
STR	23	0	1
SI_	23	0	1	96	192	4
STR	24	0	5
SI_	24	0	5	96	192	0
TAP	25	0	1
TAP	25	96	1
TAP	25	192	0
TAP	25	192	1
TAP	25	288	0
TAP	25	288	1
TAP	26	0	2
TAP	26	96	3
TAP	26	192	4
TAP	26	288	5
STR	27	0	6
SI_	27	0	6	96	192	3
STR	28	0	2
SI_	28	0	2	96	192	7
BRK	29	0	6
TAP	29	96	6
TAP	29	96	7
TAP	29	192	1
TAP	29	288	0
TAP	29	288	1
TAP	30	0	2
TAP	30	96	2
TAP	30	96	3
TAP	30	192	1
TAP	30	192	4
STR	31	0	0
SI_	31	0	0	96	192	5
STR	31	0	1
SI_	31	0	1	96	192	4
STR	32	0	6
SI_	32	0	6	96	192	3
STR	32	0	7
SI_	32	0	7	96	192	2
TAP	33	0	1
TAP	33	96	0
TAP	33	96	1
TAP	33	192	6
TAP	33	288	6
TAP	33	288	7
TAP	34	0	5
TAP	34	96	4
TAP	34	96	5
TAP	34	192	3
TAP	34	192	6
XTP	35	0	2
XTP	35	0	3
TAP	35	96	1
TAP	35	192	0
XTP	35	288	0
XTP	35	288	7
TAP	36	0	6
TAP	36	96	5
BRK	36	192	3
BRK	36	192	4
TTP	37	0	2	E	0	L1
TTP	37	96	2	B	0	L1
TTP	37	192	3	B	0	L1
TTP	38	0	6	E	0	L1
TTP	38	96	5	B	0	L1
TTP	38	192	4	B	0	L1
STR	39	0	1
SCR	39	0	1	96	192	4
STR	40	0	5
SCR	40	0	5	96	192	0
TTP	41	0	1	B	0	L1
TTP	41	96	2	B	0	L1
TTP	41	192	3	E	0	L1
TTP	42	0	6	B	0	L1
TTP	42	96	5	B	0	L1
TTP	42	192	5	E	0	L1
STR	43	0	3
SCL	43	0	3	96	192	0
STR	44	0	7
SCL	44	0	7	96	480	0
XHO	46	0	1	288
XHO	46	288	0	288
XHO	47	192	7	288
XTP	48	96	6
STR	49	0	0
SCR	49	0	0	96	192	3
STR	49	0	7
SCL	49	0	7	96	192	4
HLD	50	0	5	288
HLD	50	288	4	288
HLD	51	192	3	288
TAP	52	96	2
STR	53	0	3
SCL	53	0	3	96	192	0
STR	53	0	4
SCR	53	0	4	96	192	7
TAP	54	0	6
TAP	54	96	6
TAP	54	288	5
TAP	55	0	5
TAP	55	192	4
TAP	55	288	4
TAP	56	96	3
TAP	56	192	3
TAP	57	0	2
TAP	57	0	4
HLD	57	96	2	96
HLD	57	96	4	96
TAP	58	0	1
TAP	58	96	1
TAP	58	288	2
TAP	59	0	2
TAP	59	192	3
TAP	59	288	3
TAP	60	96	4
TAP	60	192	4
TAP	61	0	3
TAP	61	0	4
HLD	61	96	2	96
HLD	61	96	5	96
TAP	62	0	2
TAP	62	288	3
TAP	63	192	4
STR	64	96	5
SCL	64	96	5	96	192	2
XTP	65	96	1
TAP	65	192	1
TAP	65	288	1
TAP	66	0	0
TAP	66	96	0
TAP	66	192	0
TAP	66	288	7
TAP	67	0	7
XTP	67	96	7
TAP	67	192	6
TAP	67	288	6
XTP	68	0	6
TAP	68	96	5
TAP	68	192	3
TAP	68	192	4
XTP	68	288	2
XTP	68	288	5
TAP	69	0	1
TAP	69	0	6
BRK	69	96	0
BRK	69	96	7
TAP	70	96	6
TAP	70	144	6
TAP	70	192	6
TAP	70	288	5
TAP	70	336	5
TAP	71	0	5
TAP	71	96	4
TAP	71	96	5
TAP	71	192	6
TAP	71	192	7
TAP	71	288	0
TAP	71	288	1
TAP	72	0	2
TAP	72	0	3
HLD	72	96	5	96
TAP	72	192	4
TAP	72	288	3
TAP	72	288	6
HLD	73	96	2	96
TAP	73	192	3
TAP	73	288	1
TAP	73	288	4
TAP	74	96	1
TAP	74	144	1
TAP	74	192	1
TAP	74	288	2
TAP	74	336	2
TAP	75	0	2
TAP	75	96	2
TAP	75	96	3
TAP	75	192	0
TAP	75	192	1
TAP	75	288	6
TAP	75	288	7
TAP	76	0	4
TAP	76	0	5
TAP	76	96	2
TAP	76	192	2
TAP	76	192	3
TAP	76	288	1
TAP	76	288	4
TAP	77	96	5
TAP	77	192	4
TAP	77	192	5
TAP	77	288	3
TAP	77	288	6
TAP	78	96	6
TAP	78	144	6
TAP	78	192	6
TAP	78	288	7
TAP	78	336	7
TAP	79	0	7
TAP	79	96	0
TAP	79	96	7
TAP	79	192	1
TAP	79	192	6
TAP	79	288	2
TAP	79	288	5
TAP	80	0	4
TAP	80	96	2
TAP	80	96	3
TAP	80	192	2
TAP	80	192	3
TAP	80	288	1
TAP	80	288	4
TAP	81	96	4
TAP	81	96	5
TAP	81	192	4
TAP	81	192	5
TAP	81	288	3
TAP	81	288	6
TAP	82	96	2
TAP	82	144	2
TAP	82	192	2
TAP	82	288	3
TAP	82	336	3
TAP	83	0	3
TAP	83	96	3
TAP	83	96	4
TAP	83	192	2
TAP	83	192	5
TAP	83	288	1
TAP	83	288	6
TAP	84	0	0
XTP	84	96	6
XTP	84	96	7
TAP	84	192	5
TAP	84	288	4
XTP	85	0	3
XTP	85	0	4
TAP	85	96	2
TAP	85	192	1
BRK	85	288	0
BRK	85	288	7
TTP	86	96	6	B	0	L1
TTP	86	192	5	B	0	L1
TTP	86	288	4	B	0	L1
TTP	87	0	3	B	0	L1
TTP	87	96	2	B	0	L1
TTP	87	192	1	B	0	L1
TTP	87	288	1	E	0	L1
TAP	88	96	6
TAP	88	96	7
TAP	88	192	6
TAP	88	192	7
TAP	88	288	0
TAP	88	288	5
TAP	89	96	0
TAP	89	96	1
TAP	89	192	0
TAP	89	192	1
TAP	89	288	2
TAP	89	288	7
TTP	90	96	5	B	0	L1
TTP	90	192	6	B	0	L1
TTP	90	288	7	B	0	L1
TTP	91	0	0	B	0	L1
TTP	91	96	1	B	0	L1
TTP	91	192	2	B	0	L1
TTP	91	288	3	B	0	L1
TTP	91	288	4	B	0	L1
XST	92	96	7
SCL	92	96	7	96	192	4
XST	93	96	3
SCL	93	96	3	96	192	0
XST	94	96	7
SXR	94	96	7	96	576	2

T_REC_TAP	205
T_REC_BRK	7
T_REC_XTP	17
T_REC_HLD	22
T_REC_XHO	3
T_REC_STR	20
T_REC_BST	0
T_REC_XST	3
T_REC_TTP	27
T_REC_THO	0
T_REC_SLD	23
T_REC_ALL	327
T_NUM_TAP	272
T_NUM_BRK	7
T_NUM_HLD	25
T_NUM_SLD	23
T_NUM_ALL	327
T_JUDGE_TAP	279
T_JUDGE_HLD	120
T_JUDGE_SLD	23
T_JUDGE_ALL	422
TTM_EACHPAIRS	69
TTM_SCR_TAP	136000
TTM_SCR_BRK	18200
TTM_SCR_HLD	25000
TTM_SCR_SLD	34500
TTM_SCR_ALL	213700
TTM_SCR_S	206650
TTM_SCR_SS	213000
TTM_RAT_ACV	10032

