VERSION	0.00.00	1.03.00
FES_MODE	0
BPM_DEF	171.000	171.000	171.000	171.000
MET_DEF	4	4
RESOLUTION	384
CLK_DEF	384
COMPATIBLE_CODE	MA2

BPM	0	0	171.000
MET	0	0	4	4

TAP	5	0	0
TAP	7	0	0
TAP	9	0	7
TAP	11	0	7
HLD	13	0	0	384
HLD	15	0	7	384
TAP	17	0	0
TAP	18	0	0
TAP	19	0	7
XTP	20	0	0
XTP	20	0	7
TAP	21	0	0
TAP	21	192	0
TAP	22	0	0
TAP	23	0	1
TAP	23	192	1
TAP	24	0	1
TAP	25	0	2
TAP	25	192	2
TAP	26	0	2
TAP	27	0	3
TAP	27	192	3
TAP	28	0	3
TAP	28	0	4
TAP	29	0	4
TAP	29	192	4
TAP	30	0	4
TAP	31	0	5
TAP	31	192	5
TAP	32	0	5
TAP	33	0	6
TAP	33	192	6
TAP	34	0	6
HLD	35	0	0	384
HLD	35	0	7	384
TAP	37	0	7
TAP	37	192	7
TAP	38	0	6
TAP	38	192	6
TAP	39	0	5
TAP	39	192	5
TAP	40	0	3
TAP	40	0	4
TAP	41	0	3
TAP	41	192	3
TAP	42	0	2
TAP	42	192	2
TAP	43	0	1
TAP	43	192	1
TAP	44	0	0
TAP	44	0	7
BRK	45	0	7
STR	46	0	0
SI_	46	0	0	96	288	3
STR	48	0	7
SI_	48	0	7	96	288	4
STR	50	0	3
SI_	50	0	3	96	288	0
TAP	52	0	7
TAP	52	192	7
TAP	53	0	0
TAP	53	0	7
STR	54	0	7
SI_	54	0	7	96	288	4
STR	56	0	0
SI_	56	0	0	96	288	3
STR	58	0	4
SI_	58	0	4	96	288	7
TAP	60	0	0
TAP	60	192	0
TAP	61	0	0
TAP	61	0	7
STR	62	0	0
SI_	62	0	0	96	480	3
STR	62	0	7
SI_	62	0	7	96	480	4
TTP	65	96	3	B	0	L1
TTP	65	96	4	B	0	L1
TTP	66	96	2	B	0	L1
TTP	66	96	5	B	0	L1
TTP	67	96	1	B	0	L1
TTP	67	96	6	B	0	L1
THO	68	96	0	384	C	1	L1
XTP	70	96	0
TAP	70	288	0
TAP	71	96	1
TAP	71	192	1
TAP	71	288	1
TAP	72	96	2
TAP	72	288	2
TAP	73	96	3
TAP	73	192	3
TAP	73	288	3
TAP	73	288	4
TAP	74	96	4
TAP	74	288	4
TAP	75	96	5
TAP	75	192	5
TAP	75	288	5
TAP	76	96	6
TAP	76	288	6
TAP	77	96	7
TAP	77	192	7
TAP	77	288	0
TAP	77	288	7
TAP	78	96	7
TAP	78	288	7
TAP	79	96	6
TAP	79	192	6
TAP	79	288	6
TAP	80	96	5
TAP	80	288	5
TAP	81	96	4
TAP	81	192	4
TAP	81	288	3
TAP	81	288	4
TAP	82	96	3
TAP	82	288	3
TAP	83	96	2
TAP	83	192	2
TAP	83	288	2
HLD	84	96	0	384
HLD	84	96	1	384
TAP	86	96	0
TAP	86	192	0
TAP	86	288	0
TAP	87	96	1
TAP	87	192	1
TAP	87	288	1
TAP	88	96	2
TAP	88	192	2
TAP	88	288	2
TAP	89	96	3
TAP	89	96	4
TAP	89	192	3
TAP	89	192	4
TAP	89	288	3
TAP	89	288	4
TAP	90	96	4
TAP	90	192	4
TAP	90	288	4
TAP	91	96	5
TAP	91	192	5
TAP	91	288	5
TAP	92	96	6
TAP	92	192	6
TAP	92	288	6
TAP	93	96	0
TAP	93	96	7
TAP	93	192	0
TAP	93	192	7
TAP	93	288	0
TAP	93	288	7
BRK	94	96	1
BRK	94	96	6

T_REC_TAP	120
T_REC_BRK	3
T_REC_XTP	3
T_REC_HLD	6
T_REC_XHO	0
T_REC_STR	8
T_REC_BST	0
T_REC_XST	0
T_REC_TTP	6
T_REC_THO	1
T_REC_SLD	8
T_REC_ALL	155
T_NUM_TAP	137
T_NUM_BRK	3
T_NUM_HLD	7
T_NUM_SLD	8
T_NUM_ALL	155
T_JUDGE_TAP	140
T_JUDGE_HLD	56
T_JUDGE_SLD	8
T_JUDGE_ALL	204
TTM_EACHPAIRS	19
TTM_SCR_TAP	68500
TTM_SCR_BRK	7800
TTM_SCR_HLD	7000
TTM_SCR_SLD	12000
TTM_SCR_ALL	95300
TTM_SCR_S	92150
TTM_SCR_SS	95000
TTM_RAT_ACV	10031

