VERSION	0.00.00	1.03.00
FES_MODE	0
BPM_DEF	200.000	200.000	200.000	200.000
MET_DEF	4	4
RESOLUTION	384
CLK_DEF	384
COMPATIBLE_CODE	MA2

BPM	0	0	200.000
MET	0	0	4	4

TAP	1	0	7
HLD	1	48	7	96
TAP	1	144	0
TTP	1	192	1	E	0	M1
TTP	1	216	2	E	0	M1
TTP	1	240	3	E	0	M1
TTP	1	264	4	E	0	M1
TTP	1	288	5	E	0	M1
TAP	2	0	6
TAP	2	48	5
HLD	2	48	7	96
TAP	2	144	5
TAP	2	192	4
HLD	2	240	3	96
TAP	2	240	5
TAP	2	336	5
TAP	3	0	2
TAP	3	48	1
TAP	3	48	3
STR	3	96	0
SI_	3	96	0	96	48	3
TAP	3	96	4
TAP	3	144	4
TAP	3	192	5
TAP	3	240	5
TAP	3	288	6
TAP	3	336	6
STR	4	0	7
SI_	4	0	7	96	48	4
TAP	4	48	7
STR	4	96	3
SI_	4	96	3	96	48	0
TAP	4	144	3
TAP	4	192	5
STR	4	240	5
SCL	4	240	5	96	48	2
HLD	4	336	1	96
HLD	5	48	3	96
HLD	5	144	4	96
TAP	5	240	7
TAP	5	288	7
TAP	6	0	1
HLD	6	48	0	96
TAP	6	48	2
TAP	6	144	2
TAP	6	192	3
TAP	6	240	2
HLD	6	240	4	96
TAP	6	336	2
TAP	7	0	5
TAP	7	48	4
TAP	7	48	6
TAP	7	96	3
STR	7	96	7
SI_	7	96	7	96	48	4
TAP	7	144	3
TAP	7	192	2
TAP	7	240	2
TAP	7	288	1
TAP	7	336	1
STR	8	0	0
SI_	8	0	0	96	48	3
TAP	8	48	0
STR	8	96	4
SI_	8	96	4	96	48	7
TAP	8	144	4
TAP	8	192	2
STR	8	240	2
SCR	8	240	2	96	48	5
HLD	8	336	6	96
TAP	9	48	3
TAP	9	144	1
TAP	9	144	5
STR	9	192	0
SI_	9	192	0	96	48	2
STR	9	192	6
SI_	9	192	6	96	48	4
TAP	9	288	0
TAP	9	288	6
TAP	10	0	3
HLD	10	0	5	672
TAP	10	96	3
TAP	10	192	4
TAP	10	288	4
TAP	11	0	2
TAP	11	96	2
TAP	11	192	3
STR	11	288	1
SV_	11	288	1	96	48	6
TAP	12	0	4
TAP	12	96	4
STR	12	96	7
SV_	12	96	7	96	48	0
TAP	12	192	4
STR	12	288	1
SI_	12	288	1	96	48	5
TAP	12	288	4
TAP	13	0	4
TAP	13	96	4
TAP	13	192	3
TAP	13	288	3
HLD	14	0	2	672
TAP	14	0	4
TAP	14	96	4
TAP	14	192	3
TAP	14	288	3
TAP	15	0	5
TAP	15	96	5
TAP	15	192	4
STR	15	288	6
SV_	15	288	6	96	48	0
TAP	16	0	3
STR	16	96	1
SV_	16	96	1	96	48	7
TAP	16	96	3
TAP	16	192	3
TAP	16	288	3
STR	16	288	6
SI_	16	288	6	96	48	2
TAP	17	0	3
TAP	17	96	3
STR	17	192	4
SI_	17	192	4	96	48	7
TAP	17	240	3
TAP	17	264	3
XTP	17	288	4
HLD	18	0	2	96
TAP	18	0	5
TAP	18	96	4
TAP	18	144	4
HLD	18	192	1	96
TAP	18	192	3
TAP	18	288	4
TAP	18	336	4
HLD	19	0	3	96
TAP	19	0	5
TAP	19	96	4
TAP	19	144	4
HLD	19	192	2	96
TAP	19	192	5
STR	19	288	6
SV_	19	288	6	96	48	1
TAP	20	0	3
STR	20	96	0
SV_	20	96	0	96	48	7
TAP	20	96	3
TAP	20	192	3
TAP	20	288	3
STR	20	288	6
SI_	20	288	6	96	48	2
TAP	21	0	3
TAP	21	96	3
TAP	21	192	3
TAP	21	192	4
TAP	21	288	2
TAP	21	288	5
TAP	22	0	2
HLD	22	0	5	96
TAP	22	96	3
TAP	22	144	3
TAP	22	192	4
HLD	22	192	6	96
TAP	22	288	3
TAP	22	336	3
TAP	23	0	2
HLD	23	0	4	96
TAP	23	96	3
TAP	23	144	3
TAP	23	192	3
HLD	23	192	5	96
STR	23	288	1
SV_	23	288	1	96	48	7
TAP	24	0	4
TAP	24	96	4
STR	24	96	6
SV_	24	96	6	96	48	0
TAP	24	192	4
STR	24	288	1
SI_	24	288	1	96	48	5
TAP	24	288	4
TAP	25	0	4
TAP	25	96	4
STR	25	96	6
SI_	25	96	6	96	48	2
TAP	25	192	4
STR	25	288	4
SCR	25	288	4	96	384	3
BRK	26	0	0
TAP	27	144	3
TAP	27	144	4
STR	27	192	3
SI_	27	192	3	96	48	0
STR	27	192	4
SI_	27	192	4	96	48	7
STR	28	0	1
SUR	28	0	1	96	48	6
TTP	28	96	3	B	0	M1
TTP	28	96	4	E	0	M1
STR	28	192	7
SUR	28	192	7	96	48	4
TTP	28	288	1	B	0	M1
TTP	28	288	2	E	0	M1
STR	29	0	5
SCL	29	0	5	96	48	2
TTP	29	96	3	B	0	M1
TTP	29	96	4	B	0	M1
TAP	29	192	0
XTP	29	240	1
XTP	29	240	7
XTP	29	288	1
XTP	29	288	7
STR	30	0	6
SUL	30	0	6	96	48	1
TTP	30	96	4	B	0	M1
TTP	30	96	4	E	0	M1
STR	30	192	0
SUL	30	192	0	96	48	3
TTP	30	288	6	B	0	M1
TTP	30	288	6	E	0	M1
STR	31	0	2
SCR	31	0	2	96	48	5
TTP	31	96	3	B	0	M1
TTP	31	96	4	B	0	M1
TAP	31	192	7
XTP	31	240	0
XTP	31	240	6
XTP	31	288	0
XTP	31	288	6
STR	32	0	4
SUR	32	0	4	96	48	1
TTP	32	96	6	B	0	M1
TTP	32	96	7	E	0	M1
STR	32	192	2
SUR	32	192	2	96	48	7
TTP	32	288	4	B	0	M1
TTP	32	288	5	E	0	M1
STR	33	0	0
SUR	33	0	0	96	48	5
TTP	33	96	2	B	0	M1
TTP	33	96	3	E	0	M1
TAP	33	192	6
XTP	33	240	5
XTP	33	240	7
XTP	33	288	0
XTP	33	288	4
XTP	34	0	6
TAP	34	24	5
HLD	34	48	4	48
XTP	34	96	1
TAP	34	120	2
HLD	34	144	3	48
XTP	34	192	7
TAP	34	216	6
HLD	34	240	5	48
XTP	34	288	3
TAP	34	312	2
HLD	34	336	1	48
STR	35	0	0
SCL	35	0	0	96	48	4
SCR	35	0	0	96	48	4
TAP	35	192	3
TAP	35	192	5
XTP	35	240	2
XTP	35	240	6
XTP	35	288	2
XTP	35	288	6
HLD	36	0	1	96
TAP	36	0	7
STR	36	96	3
SXL	36	96	3	96	192	2
TAP	36	192	0
TAP	36	240	0
TAP	36	336	7
TAP	37	48	6
TAP	37	96	6
TAP	37	192	7
XTP	37	240	0
XTP	37	240	6
XTP	37	288	1
XTP	37	288	5
TAP	38	0	0
HLD	38	0	6	96
STR	38	96	4
SXR	38	96	4	96	192	5
TAP	38	192	7
TAP	38	240	7
TAP	38	336	0
TAP	39	0	0
TAP	39	96	0
TAP	39	144	1
TAP	39	144	7
TAP	39	192	2
TAP	39	192	6
TTP	39	240	5	B	0	M1
TTP	39	240	5	E	0	M1
TTP	39	240	6	E	0	M1
TTP	39	288	3	B	0	M1
TTP	39	288	3	E	0	M1
STR	40	0	2
SCR	40	0	2	96	48	5
TAP	40	96	7
TAP	40	144	7
STR	40	192	6
SCR	40	192	6	96	48	1
TAP	40	288	3
TAP	40	336	3
STR	41	0	2
SCR	41	0	2	96	48	5
TAP	41	96	7
TAP	41	144	7
TAP	41	192	4
TAP	41	192	6
XTP	41	240	3
XTP	41	288	2
XTP	41	288	4
STR	42	0	5
SCL	42	0	5	96	48	2
TAP	42	96	0
TAP	42	144	0
STR	42	192	1
SCL	42	192	1	96	48	6
TAP	42	288	4
TAP	42	336	4
STR	43	0	5
SCL	43	0	5	96	48	2
TAP	43	96	0
TAP	43	144	0
TAP	43	192	1
TAP	43	192	3
XTP	43	240	4
XST	43	288	3
SCL	43	288	3	96	2304	4
XTP	43	288	5
TAP	44	0	6
TTP	44	192	5	E	0	M1
TTP	44	240	5	B	0	M1
TTP	45	0	3	E	0	M1
TTP	45	48	2	B	0	M1
TTP	45	192	0	C	0	M1
TTP	46	0	1	B	0	M1
TTP	46	48	1	E	0	M1
TTP	46	192	6	B	0	M1
TTP	46	240	7	E	0	M1
TTP	47	0	3	E	0	M1
TTP	47	48	2	B	0	M1
TTP	47	192	0	C	0	M1
TTP	48	0	7	E	0	M1
TTP	48	48	7	B	0	M1
TTP	48	192	1	E	0	M1
TTP	48	240	0	B	0	M1
TTP	49	0	3	E	0	M1
TTP	49	48	3	B	0	M1
TTP	49	192	0	C	0	M1
TAP	50	0	0
STR	50	48	0
SI_	50	48	0	96	96	3
TAP	50	192	7
STR	50	240	7
SI_	50	240	7	96	96	4
TAP	51	0	3
BRK	51	96	1
BRK	51	96	6
BRK	51	192	3
BRK	51	192	4
BRK	51	288	0
BRK	51	288	7
STR	52	0	1
SI_	52	0	1	96	48	5
TAP	52	0	5
STR	52	96	1
SI_	52	96	1	96	48	3
TAP	52	96	6
TAP	52	144	6
HLD	52	192	7	96
TAP	52	288	4
TAP	52	336	3
TAP	52	336	5
HLD	53	0	2	96
TAP	53	0	6
TAP	53	96	0
STR	53	144	0
SCL	53	144	0	96	48	5
STR	53	240	0
SCR	53	240	0	96	48	3
TAP	53	336	7
HLD	54	0	7	96
STR	54	96	5
SI_	54	96	5	96	48	1
TAP	54	144	5
HLD	54	192	6	96
STR	54	288	3
SI_	54	288	3	96	48	7
TAP	54	336	3
HLD	55	0	5	96
STR	55	96	2
SI_	55	96	2	96	48	5
STR	55	192	6
SI_	55	192	6	96	48	1
STR	55	288	2
SXL	55	288	2	96	96	1
TAP	56	0	6
TAP	56	96	7
TAP	56	144	7
HLD	56	192	0	96
STR	56	288	2
SCR	56	288	2	96	48	5
TAP	56	336	2
TAP	57	0	7
TAP	57	96	1
TAP	57	144	1
TTP	57	192	5	B	0	M1
TTP	57	192	5	E	0	M1
TTP	57	240	3	B	0	M1
TTP	57	240	3	E	0	M1
TTP	57	288	7	B	0	M1
TTP	57	288	7	E	0	M1
STR	58	0	1
SCL	58	0	1	96	48	6
TAP	58	96	4
STR	58	144	4
SCL	58	144	4	96	48	1
TAP	58	240	7
STR	58	288	7
SCL	58	288	7	96	48	4
TAP	59	0	0
TAP	59	96	0
TAP	59	192	1
TAP	59	192	3
TAP	59	288	3
TAP	59	288	4
TAP	60	0	4
STR	60	0	6
SI_	60	0	6	96	48	2
TAP	60	96	1
STR	60	96	6
SI_	60	96	6	96	48	4
TAP	60	144	1
HLD	60	192	0	96
TAP	60	288	3
TAP	60	336	2
TAP	60	336	4
TAP	61	0	1
HLD	61	0	5	96
TAP	61	96	4
TAP	61	144	6
XTP	61	192	3
XTP	61	192	6
XTP	61	240	2
XTP	61	240	5
XTP	61	288	1
XTP	61	288	4
TAP	61	336	0
HLD	62	0	0	96
STR	62	96	2
SI_	62	96	2	96	48	6
TAP	62	144	2
HLD	62	192	1	96
STR	62	288	4
SI_	62	288	4	96	48	0
XTP	62	336	4
XTP	63	0	0
TAP	63	24	1
TAP	63	48	2
TAP	63	72	3
TAP	63	96	6
TAP	63	120	5
TAP	63	144	4
TAP	63	168	3
TAP	63	192	0
TAP	63	216	1
TAP	63	240	2
TAP	63	264	3
STR	63	288	4
SI_	63	288	4	96	48	0
TAP	64	0	4
STR	64	0	7
SI_	64	0	7	96	48	3
STR	64	96	2
SI_	64	96	2	96	48	5
TAP	64	96	7
TAP	64	192	2
STR	64	192	6
SCR	64	192	6	96	48	1
STR	64	288	3
SI_	64	288	3	96	48	7
TAP	64	288	6
TAP	65	0	3
TAP	65	0	5
BRK	65	96	6
TTP	65	192	2	B	0	M1
TTP	65	192	3	E	0	M1
TTP	65	240	4	B	0	M1
TTP	65	240	5	E	0	M1
TTP	65	288	0	B	0	M1
TTP	65	288	1	E	0	M1
STR	66	0	6
SCR	66	0	6	96	48	1
TAP	66	96	3
STR	66	144	3
SCR	66	144	3	96	48	6
TAP	66	240	0
TAP	66	288	0
TAP	66	336	1
STR	67	0	1
SCL	67	0	1	96	48	6
TAP	67	96	3
TAP	67	144	3
TAP	67	240	4
TAP	67	288	3
STR	67	288	5
SI_	67	288	5	96	48	1
STR	68	0	2
SI_	68	0	2	96	48	5
TAP	68	0	5
TAP	68	96	2
STR	68	96	6
SXL	68	96	6	96	144	4
TAP	68	192	3
TAP	68	240	3
STR	68	288	2
SI_	68	288	2	96	48	6
TAP	69	0	2
STR	69	0	5
SI_	69	0	5	96	48	2
STR	69	96	1
SXR	69	96	1	96	144	3
TAP	69	96	5
TAP	69	192	4
TAP	69	240	4
TAP	69	288	5
TAP	70	0	4
TAP	70	0	6
TAP	70	96	0
TAP	70	96	7
TAP	70	192	1
TAP	70	192	3
TAP	70	288	3
TAP	70	288	4
TAP	71	0	4
TAP	71	0	6
TAP	71	72	7
TAP	71	96	0
TAP	71	192	1
STR	71	192	3
SCR	71	192	3	96	96	7
STR	71	288	7
SCR	71	288	7	96	96	3
STR	72	0	3
SCR	72	0	3	96	96	7
STR	72	96	7
SCR	72	96	7	96	96	3
STR	72	192	3
SCR	72	192	3	96	96	7
STR	72	288	7
SCR	72	288	7	96	192	7
TTP	73	0	0	C	0	M1
STR	73	96	7
SCR	73	96	7	96	192	7
TTP	73	192	0	C	0	M1
STR	73	288	7
SCR	73	288	7	96	96	3
SUL	73	288	7	96	96	3
TTP	74	144	0	C	1	M1
TTP	74	144	3	B	0	M1
TTP	74	144	4	B	0	M1
TAP	74	336	0
TAP	74	336	7
TAP	75	48	3
TAP	75	48	4
TAP	75	144	2
TAP	75	144	5
TAP	75	240	1
TAP	75	240	6
TAP	75	288	1
TAP	75	288	6
STR	76	0	5
SI_	76	0	5	96	48	2
STR	76	96	1
SXR	76	96	1	96	144	3
TAP	76	96	5
TAP	76	192	4
TAP	76	240	4
STR	76	288	5
SI_	76	288	5	96	48	1
STR	77	0	2
SI_	77	0	2	96	48	5
TAP	77	0	5
TAP	77	96	2
STR	77	96	6
SXL	77	96	6	96	144	4
TAP	77	192	3
TAP	77	240	3
TAP	77	288	2
TAP	78	0	1
TAP	78	0	3
TAP	78	96	0
TAP	78	96	7
STR	78	144	0
SI_	78	144	0	96	48	4
STR	78	144	7
SI_	78	144	7	96	48	3
TAP	78	240	0
TAP	78	240	7
XTP	78	336	1
XTP	78	336	5
XTP	79	0	1
XTP	79	0	5
TAP	79	48	2
XTP	79	96	3
XTP	79	96	6
TAP	79	144	5
TAP	79	192	2
STR	79	192	4
SI_	79	192	4	96	48	7
SUL	79	192	4	96	48	0
TAP	79	240	3
XTP	80	0	1
XTP	80	0	6
HLD	80	96	5	96
HLD	80	192	7	96
HLD	80	288	0	96
HLD	81	0	2	96
STR	81	96	5
SI_	81	96	5	96	48	1
STR	81	192	3
SI_	81	192	3	96	48	7
STR	81	288	4
SI_	81	288	4	96	48	0
BRK	82	0	2
TAP	82	96	3
TAP	82	144	3
STR	82	240	1
SI_	82	240	1	96	48	5
TAP	82	240	5
TAP	82	336	4
TAP	83	48	2
TAP	83	48	6
TAP	83	144	3
TAP	83	144	4
STR	83	192	0
SI_	83	192	0	96	48	3
STR	83	192	7
SI_	83	192	7	96	48	4
TAP	83	288	0
TAP	83	288	7
TAP	84	0	2
STR	84	0	6
SUL	84	0	6	96	48	2
TAP	84	96	1
STR	84	192	1
SUR	84	192	1	96	48	5
TAP	84	192	5
TAP	84	288	6
TAP	85	0	2
STR	85	0	6
SUL	85	0	6	96	48	2
TAP	85	96	1
HLD	85	192	0	96
STR	85	288	3
SCR	85	288	3	96	96	7
TAP	86	0	2
STR	86	96	4
SCL	86	96	4	96	96	0
TAP	86	192	5
STR	86	288	3
SCR	86	288	3	96	96	7
TAP	87	0	2
TAP	87	96	0
TAP	87	192	3
TAP	87	240	3
TAP	87	288	2
TAP	87	288	4
TAP	88	0	1
STR	88	0	5
SI_	88	0	5	96	48	1
TAP	88	96	3
STR	88	192	2
SI_	88	192	2	96	48	6
TAP	88	192	6
TAP	88	288	4
TAP	89	0	1
STR	89	0	5
SI_	89	0	5	96	48	1
TAP	89	96	3
TAP	89	192	2
TAP	89	192	6
TAP	89	288	3
TAP	89	288	5
HLD	90	0	2	96
HLD	90	96	0	96
HLD	90	192	7	96
HLD	90	288	5	96
STR	91	0	2
SI_	91	0	2	96	48	6
STR	91	96	4
SI_	91	96	4	96	48	0
TAP	91	192	3
TAP	91	240	3
TAP	91	288	2
TAP	91	288	7
STR	92	0	1
SUR	92	0	1	96	48	5
TAP	92	0	5
TAP	92	96	7
TAP	92	144	7
TAP	92	192	2
STR	92	192	6
SUL	92	192	6	96	48	2
TAP	92	288	0
TAP	92	336	0
STR	93	0	1
SUR	93	0	1	96	48	5
TAP	93	0	5
TAP	93	96	7
TAP	93	144	7
XTP	93	192	6
XTP	93	240	6
XST	93	288	4
SCL	93	288	4	96	96	0
XTP	93	288	5
TAP	94	0	5
STR	94	96	3
SCR	94	96	3	96	96	7
TAP	94	192	2
STR	94	288	4
SCL	94	288	4	96	96	0
TAP	95	0	5
HLD	95	96	6	96
TAP	95	192	4
TAP	95	240	4
TAP	95	288	3
TAP	95	288	5
STR	96	0	2
SI_	96	0	2	96	48	6
TAP	96	0	6
TAP	96	96	3
TAP	96	144	4
TAP	96	192	1
STR	96	192	5
SI_	96	192	5	96	48	1
TAP	96	288	4
TAP	96	336	3
STR	97	0	2
SI_	97	0	2	96	48	6
TAP	97	0	6
TAP	97	96	3
TAP	97	144	4
XTP	97	192	7
XTP	97	240	0
XTP	97	240	6
XTP	97	288	1
XTP	97	288	5
HLD	98	0	2	96
HLD	98	96	0	96
HLD	98	192	7	96
HLD	98	288	5	96
TAP	99	0	3
STR	99	96	2
SI_	99	96	2	96	48	5
STR	99	96	6
SI_	99	96	6	96	48	1
TAP	99	288	0
TAP	99	288	4
TAP	100	0	3
STR	100	0	7
SI_	100	0	7	96	96	4
TTP	100	96	0	C	0	M1
TTP	100	96	6	B	0	M1
TTP	100	96	6	E	0	M1
STR	100	192	0
SI_	100	192	0	96	96	3
TTP	100	288	0	C	0	M1
TTP	100	288	1	B	0	M1
TTP	100	288	2	E	0	M1
STR	101	0	7
SI_	101	0	7	96	96	4
TTP	101	96	0	C	0	M1
TTP	101	96	6	B	0	M1
TTP	101	96	6	E	0	M1
XTP	101	192	0
XTP	101	240	1
XTP	101	288	2
XHO	101	288	7	96
STR	102	0	0
SI_	102	0	0	96	96	3
TTP	102	96	0	C	0	M1
TTP	102	96	1	B	0	M1
TTP	102	96	2	E	0	M1
STR	102	192	7
SI_	102	192	7	96	96	4
TTP	102	288	0	C	0	M1
TTP	102	288	6	B	0	M1
TTP	102	288	6	E	0	M1
STR	103	0	0
SI_	103	0	0	96	96	3
TTP	103	96	0	C	0	M1
TTP	103	96	1	B	0	M1
TTP	103	96	2	E	0	M1
TAP	103	192	7
HLD	103	288	7	96
STR	104	0	0
SI_	104	0	0	96	96	3
TTP	104	96	0	C	0	M1
TTP	104	96	1	B	0	M1
TTP	104	96	2	E	0	M1
STR	104	192	7
SI_	104	192	7	96	96	4
TTP	104	288	0	C	0	M1
TTP	104	288	6	B	0	M1
TTP	104	288	6	E	0	M1
STR	105	0	0
SI_	105	0	0	96	96	3
TTP	105	96	0	C	0	M1
TTP	105	96	1	B	0	M1
TTP	105	96	2	E	0	M1
XTP	105	192	7
XTP	105	240	6
XHO	105	288	0	96
XTP	105	288	5
STR	106	0	7
SI_	106	0	7	96	96	4
TTP	106	96	0	C	0	M1
TTP	106	96	6	B	0	M1
TTP	106	96	6	E	0	M1
TAP	106	192	0
TAP	106	240	1
STR	106	288	2
SCL	106	288	2	96	384	5
TAP	106	288	7
THO	107	0	0	384	C	0	M1

T_REC_TAP	343
T_REC_BRK	9
T_REC_XTP	60
T_REC_HLD	50
T_REC_XHO	2
T_REC_STR	132
T_REC_BST	0
T_REC_XST	2
T_REC_TTP	94
T_REC_THO	1
T_REC_SLD	137
T_REC_ALL	830
T_NUM_TAP	631
T_NUM_BRK	9
T_NUM_HLD	53
T_NUM_SLD	137
T_NUM_ALL	830
T_JUDGE_TAP	640
T_JUDGE_HLD	132
T_JUDGE_SLD	137
T_JUDGE_ALL	909
TTM_EACHPAIRS	133
TTM_SCR_TAP	315500
TTM_SCR_BRK	23400
TTM_SCR_HLD	53000
TTM_SCR_SLD	205500
TTM_SCR_ALL	597400
TTM_SCR_S	578650
TTM_SCR_SS	596500
TTM_RAT_ACV	10015

