VERSION	0.00.00	1.03.00
FES_MODE	0
BPM_DEF	200.000	200.000	200.000	200.000
MET_DEF	4	4
RESOLUTION	384
CLK_DEF	384
COMPATIBLE_CODE	MA2

BPM	0	0	200.000
MET	0	0	4	4

TAP	2	0	2
TAP	2	48	2
TAP	2	144	2
TAP	2	144	3
TAP	2	240	5
TAP	2	336	4
TAP	2	336	5
STR	3	48	6
SSL	3	48	6	96	192	2
TAP	4	48	1
TAP	4	96	1
TAP	4	144	0
TAP	4	240	2
TAP	4	240	7
TAP	4	336	6
TAP	5	48	0
TAP	5	48	5
STR	5	144	1
SCR	5	144	1	96	96	4
TAP	6	0	5
TAP	6	48	5
TAP	6	144	4
TAP	6	144	5
TAP	6	240	2
TAP	6	336	2
TAP	6	336	3
STR	7	48	1
SSR	7	48	1	96	192	5
TAP	8	48	6
TAP	8	96	6
TAP	8	144	7
TAP	8	240	0
TAP	8	240	5
TAP	8	336	1
TAP	8	336	4
TAP	9	48	2
TAP	9	48	3
TAP	9	144	4
TAP	9	192	4
TAP	9	240	3
TAP	9	288	3
BRK	10	0	1
BRK	10	0	5
TAP	10	96	4
TAP	10	144	3
HLD	10	192	6	96
TAP	10	288	4
TAP	10	336	5
HLD	11	0	2	96
TAP	11	96	4
TAP	11	144	3
HLD	11	192	6	96
HLD	11	288	5	96
HLD	12	0	4	96
TAP	12	96	2
TAP	12	144	3
HLD	12	192	1	96
TAP	12	288	3
TAP	12	336	2
STR	13	0	4
SI_	13	0	4	96	72	7
HLD	13	192	1	96
HLD	13	288	2	96
HLD	14	0	3	96
TAP	14	96	5
TAP	14	144	4
HLD	14	192	6	96
TAP	14	288	4
TAP	14	336	5
HLD	15	0	2	96
TAP	15	96	4
TAP	15	144	3
HLD	15	192	6	96
HLD	15	288	5	96
HLD	16	0	4	96
TAP	16	96	2
TAP	16	144	3
HLD	16	192	1	96
TAP	16	288	3
TAP	16	336	2
STR	17	0	4
SI_	17	0	4	96	48	6
TAP	17	96	3
STR	17	192	0
SI_	17	192	0	96	48	2
BRK	17	288	7
HLD	18	0	5	96
TAP	18	96	3
TAP	18	144	4
HLD	18	192	1	96
TAP	18	288	3
TAP	18	336	2
HLD	19	0	5	96
TAP	19	96	3
TAP	19	144	4
HLD	19	192	1	96
HLD	19	288	2	96
HLD	20	0	3	96
TAP	20	96	5
TAP	20	144	4
HLD	20	192	6	96
TAP	20	288	4
TAP	20	336	5
STR	21	0	3
SI_	21	0	3	96	72	0
HLD	21	192	6	96
TAP	21	288	4
TAP	21	336	4
HLD	22	0	5	96
TAP	22	96	3
TAP	22	144	3
HLD	22	192	4	96
TAP	22	288	2
TAP	22	336	2
HLD	23	0	3	96
TAP	23	96	1
TAP	23	144	1
STR	23	192	4
SI_	23	192	4	96	72	7
HLD	24	0	1	96
TAP	24	96	3
TAP	24	144	3
HLD	24	192	2	96
TAP	24	288	4
TAP	24	336	4
STR	25	0	3
SI_	25	0	3	96	48	1
SI_	25	0	3	96	48	5
STR	25	192	7
SI_	25	192	7	96	48	1
SI_	25	192	7	96	48	5
TTP	26	0	0	C	1	M1
TAP	27	144	4
TAP	27	192	4
TAP	27	288	2
TAP	27	288	6
STR	28	0	0
SI_	28	0	0	96	72	4
TAP	28	96	7
HLD	28	192	6	48
HLD	28	288	5	48
HLD	29	0	4	48
HLD	29	96	3	48
HLD	29	192	2	48
TAP	29	288	1
TAP	29	288	3
TAP	30	0	4
STR	30	0	6
SCR	30	0	6	96	96	1
TAP	30	96	3
TAP	30	192	2
TAP	30	288	0
TAP	30	288	1
TAP	31	0	6
TAP	31	0	7
TAP	31	96	4
TAP	31	96	5
TAP	31	192	2
TAP	31	240	2
TAP	31	288	3
HLD	32	0	1	48
HLD	32	96	2	48
HLD	32	192	3	48
HLD	32	288	4	48
HLD	33	0	5	48
HLD	33	96	6	48
XTP	33	192	7
XTP	33	240	0
XTP	33	288	1
XTP	33	288	6
TTP	34	0	1	B	0	M1
TTP	34	0	2	B	0	M1
TTP	34	0	3	E	0	M1
TTP	34	96	5	B	0	M1
TTP	34	96	6	B	0	M1
TTP	34	96	7	E	0	M1
TTP	34	192	0	B	0	M1
TTP	34	192	1	E	0	M1
TTP	34	192	7	B	0	M1
TTP	34	288	3	B	0	M1
TTP	34	288	4	B	0	M1
TTP	34	288	5	E	0	M1
TTP	35	0	0	C	0	M1
TAP	35	96	0
TAP	35	96	7
XTP	35	192	1
XTP	35	192	6
XTP	35	240	1
XTP	35	240	6
XTP	35	288	1
XTP	35	288	6
HLD	36	0	3	96
TAP	36	96	4
HLD	36	192	6	96
TAP	36	288	7
HLD	37	0	1	96
TAP	37	96	0
TAP	37	192	2
TAP	37	240	3
TAP	37	288	4
TAP	37	336	2
TAP	37	336	5
HLD	38	48	0	96
HLD	38	48	7	96
HLD	38	192	1	96
HLD	38	192	6	96
HLD	38	336	2	96
HLD	38	336	5	96
TAP	39	96	3
TAP	39	96	4
XTP	39	192	1
XTP	39	192	6
XTP	39	240	1
XTP	39	240	6
BRK	39	288	1
BRK	39	288	6
HLD	40	0	3	96
TAP	40	0	4
TAP	40	96	4
HLD	40	192	2	96
TAP	40	192	4
TAP	40	288	4
HLD	41	0	1	96
TAP	41	0	4
TAP	41	96	4
STR	41	192	0
SI_	41	192	0	96	48	2
STR	41	192	4
SI_	41	192	4	96	48	6
TAP	42	0	3
HLD	42	0	7	96
TAP	42	96	3
TAP	42	192	3
HLD	42	192	6	96
TAP	42	288	3
TAP	43	0	3
HLD	43	0	5	96
TAP	43	96	3
STR	43	192	3
SCL	43	192	3	96	96	0
STR	43	192	4
SCR	43	192	4	96	96	7
TTP	44	192	0	E	0	M1
TTP	44	240	7	E	0	M1
TTP	45	0	5	E	0	M1
TTP	45	48	4	E	0	M1
TTP	45	192	2	E	0	M1
TTP	45	240	1	E	0	M1
TTP	46	0	7	E	0	M1
TTP	46	48	6	E	0	M1
TTP	46	192	4	E	0	M1
TTP	46	240	3	E	0	M1
TTP	47	0	1	E	0	M1
TTP	47	48	0	E	0	M1
TTP	47	192	3	B	0	M1
TTP	47	192	4	B	0	M1
TTP	47	192	5	E	0	M1
TTP	47	288	0	B	0	M1
TTP	47	288	1	E	0	M1
TTP	47	288	7	B	0	M1
TTP	48	0	4	E	0	M1
TTP	48	48	5	E	0	M1
TTP	48	192	7	E	0	M1
TTP	48	240	0	E	0	M1
TTP	49	0	2	E	0	M1
TTP	49	48	3	E	0	M1
TTP	49	192	5	E	0	M1
TTP	49	240	6	E	0	M1
TTP	50	0	0	E	0	M1
TTP	50	48	1	E	0	M1
TTP	50	192	3	E	0	M1
TTP	50	240	4	E	0	M1
TTP	51	0	0	B	0	M1
TTP	51	0	1	E	0	M1
TTP	51	0	7	E	0	M1
TTP	51	0	7	B	0	M1
XTP	51	96	3
XTP	51	96	4
XTP	51	192	2
XTP	51	192	5
XTP	51	288	1
XTP	51	288	6
BST	52	0	0
SCR	52	0	0	96	48	3
BST	52	0	7
SCL	52	0	7	96	48	4
XHO	52	192	1	144
XHO	52	192	6	144
XTP	53	0	1
XTP	53	0	6
TAP	53	96	3
TAP	53	96	4
TAP	53	144	3
TAP	53	144	4
TAP	53	240	6
TAP	53	240	7
TAP	53	336	0
TAP	53	336	1
STR	54	0	0
SI_	54	0	0	96	48	4
STR	54	0	1
SI_	54	0	1	96	48	3
STR	54	192	6
SI_	54	192	6	96	48	4
STR	54	192	7
SI_	54	192	7	96	48	3
BRK	55	0	0
TAP	55	96	0
TAP	55	192	0
STR	55	192	4
SI_	55	192	4	96	48	7
TAP	55	288	0
TAP	56	0	0
TAP	56	0	1
STR	56	96	2
SI_	56	96	2	96	48	7
TAP	56	144	2
STR	56	288	6
SI_	56	288	6	96	48	3
TAP	56	336	6
XST	57	96	0
SCR	57	96	0	96	96	3
XST	57	96	4
SCR	57	96	4	96	96	7
XTP	57	144	0
XTP	57	144	4
XTP	58	0	3
XTP	58	0	6
XTP	58	96	1
XTP	58	96	4
XTP	58	144	1
XTP	58	144	4
XTP	58	240	0
XTP	58	240	7
BRK	58	288	0
BRK	58	288	7
TTP	59	96	0	B	0	M1
TTP	59	96	1	E	0	M1
TTP	59	96	7	B	0	M1
TTP	59	96	7	E	0	M1
TTP	59	192	0	C	0	M1
TTP	59	192	2	E	0	M1
TTP	59	192	6	E	0	M1
TTP	59	288	3	B	0	M1
TTP	59	288	3	E	0	M1
TTP	59	288	4	B	0	M1
TTP	59	288	5	E	0	M1
BRK	60	0	0
BRK	60	0	7
TAP	60	96	1
TAP	60	144	0
HLD	60	192	2	96
HLD	60	192	7	96
HLD	61	0	0	96
HLD	61	0	5	96
TAP	61	144	0
TAP	61	144	5
TAP	61	240	1
TAP	61	240	4
TAP	61	336	2
STR	61	336	3
SI_	61	336	3	96	48	7
TAP	62	0	2
TAP	62	0	3
STR	62	144	0
SI_	62	144	0	96	48	4
TAP	62	192	0
STR	62	336	3
SUL	62	336	3	96	192	4
STR	62	336	5
SCR	62	336	5	96	192	2
TAP	63	0	3
TAP	63	0	5
HLD	63	288	3	96
HLD	64	0	1	96
HLD	64	96	7	96
HLD	64	192	5	96
STR	64	288	4
SCR	64	288	4	96	192	3
TAP	65	288	6
HLD	65	336	6	240
TAP	66	0	4
TAP	66	96	3
TAP	66	192	2
TAP	66	288	1
HLD	66	336	1	240
TAP	67	0	3
TAP	67	96	4
TAP	67	192	5
TAP	67	288	3
TAP	67	288	4
XTP	68	0	5
XTP	68	0	6
XTP	68	96	4
XTP	68	96	7
HLD	68	192	5	48
HLD	68	192	6	48
HLD	68	288	3	48
HLD	68	288	4	48
XTP	69	0	1
XTP	69	0	2
XTP	69	96	0
XTP	69	96	3
HLD	69	192	1	48
HLD	69	192	2	48
HLD	69	288	3	48
HLD	69	288	4	48
STR	70	0	5
SI_	70	0	5	96	48	3
TAP	70	96	1
STR	70	192	1
SI_	70	192	1	96	48	5
TAP	70	288	7
STR	71	0	7
SI_	71	0	7	96	48	1
TAP	71	96	3
STR	71	192	3
SI_	71	192	3	96	48	7
TAP	71	288	6
HLD	72	0	6	96
HLD	72	96	5	96
HLD	72	192	4	96
HLD	72	288	3	96
HLD	73	0	2	96
HLD	73	96	1	96
HLD	73	192	0	96
HLD	73	288	7	96
STR	74	0	6
SXL	74	0	6	96	384	1
TAP	75	192	3
TAP	75	240	4
TAP	75	288	3
TAP	75	288	4
XTP	76	0	1
XTP	76	0	2
XTP	76	96	0
XTP	76	96	3
HLD	76	192	1	48
HLD	76	192	2	48
HLD	76	288	3	48
HLD	76	288	4	48
XTP	77	0	5
XTP	77	0	6
XTP	77	96	4
XTP	77	96	7
HLD	77	192	5	48
HLD	77	192	6	48
HLD	77	288	3	48
HLD	77	288	4	48
XTP	78	0	1
XTP	78	0	2
XTP	78	96	0
XTP	78	96	3
HLD	78	192	1	48
HLD	78	192	2	48
HLD	78	288	3	48
HLD	78	288	4	48
STR	79	0	5
SCL	79	0	5	96	96	2
TAP	79	96	1
TAP	79	192	0
TAP	79	240	0
XTP	79	288	7
HLD	80	0	2	96
HLD	80	96	3	96
HLD	80	192	4	96
HLD	80	288	5	96
HLD	81	0	6	96
HLD	81	96	7	96
HLD	81	192	0	96
STR	81	288	1
SXR	81	288	1	96	384	6
TAP	83	144	3
TAP	83	192	3
TAP	83	240	4
TAP	83	288	4
BRK	84	0	2
BRK	84	0	6
TAP	84	96	3
TAP	84	144	4
HLD	84	192	1	96
TAP	84	288	3
TAP	84	336	2
HLD	85	0	5	96
TAP	85	96	3
TAP	85	144	4
HLD	85	192	0	96
HLD	85	288	1	96
HLD	86	0	2	96
TAP	86	96	4
TAP	86	144	3
HLD	86	192	6	96
TAP	86	288	4
TAP	86	336	5
STR	87	0	3
SCL	87	0	3	96	72	0
HLD	87	192	7	96
HLD	87	288	6	96
HLD	88	0	5	96
TAP	88	96	3
TAP	88	144	4
HLD	88	192	1	96
TAP	88	288	3
TAP	88	336	2
HLD	89	0	5	96
TAP	89	96	3
TAP	89	144	4
HLD	89	192	0	96
HLD	89	288	1	96
HLD	90	0	2	96
TAP	90	96	4
TAP	90	144	3
HLD	90	192	5	96
STR	90	288	4
SXL	90	288	4	96	192	2
BRK	91	192	0
HLD	92	0	2	96
TAP	92	96	4
TAP	92	144	3
HLD	92	192	6	96
TAP	92	288	4
TAP	92	336	5
HLD	93	0	2	96
TAP	93	96	4
TAP	93	144	3
HLD	93	192	7	96
HLD	93	288	6	96
HLD	94	0	5	96
TAP	94	96	3
TAP	94	144	4
HLD	94	192	1	96
TAP	94	288	3
TAP	94	336	2
STR	95	0	4
SCR	95	0	4	96	72	7
HLD	95	192	0	96
TAP	95	288	3
TAP	95	336	3
HLD	96	0	1	96
TAP	96	96	4
TAP	96	144	4
HLD	96	192	2	96
TAP	96	288	5
TAP	96	336	5
HLD	97	0	3	96
TAP	97	96	6
TAP	97	144	6
STR	97	192	4
SI_	97	192	4	96	72	0
HLD	98	0	6	96
TAP	98	96	4
TAP	98	144	4
HLD	98	192	5	96
TAP	98	288	3
TAP	98	336	3
STR	99	0	4
SI_	99	0	4	96	48	1
SI_	99	0	4	96	48	7
STR	99	192	0
SCL	99	192	0	96	48	5
SCR	99	192	0	96	48	3
BRK	100	0	0
HLD	100	0	4	96
HLD	100	96	3	96
HLD	100	192	2	96
HLD	100	288	1	96
HLD	101	0	0	96
HLD	101	96	7	96
TAP	101	192	6
TAP	101	240	7
XTP	101	288	0
XTP	101	288	5
HLD	102	0	1	192
TAP	102	96	3
HLD	102	192	5	192
TAP	102	288	3
HLD	103	0	2	192
TAP	103	96	3
HLD	103	192	4	192
TAP	103	288	3
HLD	104	0	3	96
HLD	104	96	4	96
HLD	104	192	5	96
HLD	104	288	6	96
HLD	105	0	7	96
HLD	105	96	0	96
TAP	105	192	1
TAP	105	240	0
XTP	105	288	2
XTP	105	288	7
HLD	106	0	6	96
TAP	106	96	5
HLD	106	192	1	96
STR	106	288	2
SCR	106	288	2	96	384	5
THO	107	0	0	384	C	0	M1

T_REC_TAP	222
T_REC_BRK	14
T_REC_XTP	57
T_REC_HLD	145
T_REC_XHO	2
T_REC_STR	42
T_REC_BST	2
T_REC_XST	2
T_REC_TTP	59
T_REC_THO	1
T_REC_SLD	50
T_REC_ALL	596
T_NUM_TAP	382
T_NUM_BRK	16
T_NUM_HLD	148
T_NUM_SLD	50
T_NUM_ALL	596
T_JUDGE_TAP	398
T_JUDGE_HLD	287
T_JUDGE_SLD	50
T_JUDGE_ALL	735
TTM_EACHPAIRS	93
TTM_SCR_TAP	191000
TTM_SCR_BRK	41600
TTM_SCR_HLD	148000
TTM_SCR_SLD	75000
TTM_SCR_ALL	455600
TTM_SCR_S	440400
TTM_SCR_SS	454000
TTM_RAT_ACV	10035

