VERSION	0.00.00	1.03.00
FES_MODE	0
BPM_DEF	200.000	200.000	200.000	200.000
MET_DEF	4	4
RESOLUTION	384
CLK_DEF	384
COMPATIBLE_CODE	MA2

BPM	0	0	200.000
MET	0	0	4	4

TAP	2	0	2
TAP	2	96	2
TAP	2	192	3
TAP	3	0	5
TAP	3	96	5
TAP	3	192	4
TAP	4	0	2
TAP	4	96	2
TAP	4	192	3
TAP	5	0	4
TAP	5	96	4
TAP	5	192	3
TAP	5	192	5
TAP	6	0	6
TAP	6	96	6
TAP	6	192	7
TAP	7	0	1
TAP	7	96	1
TAP	7	192	0
TAP	8	0	6
TAP	8	96	6
TAP	8	192	7
TAP	9	0	0
TAP	9	0	7
TAP	9	96	0
TAP	9	96	7
XTP	9	192	1
XTP	9	192	6
HLD	10	0	2	192
TAP	10	192	3
HLD	11	0	5	192
TAP	11	192	4
HLD	12	0	2	192
TAP	12	192	3
HLD	13	0	4	96
HLD	13	0	5	96
TAP	13	192	4
TAP	13	192	5
HLD	14	0	6	192
TAP	14	192	7
HLD	15	0	1	192
TAP	15	192	0
HLD	16	0	6	192
TAP	16	192	7
HLD	17	0	0	96
HLD	17	0	7	96
TAP	17	192	1
TAP	17	192	6
TAP	18	0	5
TAP	18	96	5
TAP	18	192	4
TAP	18	192	5
TAP	19	0	2
TAP	19	96	2
TAP	19	192	2
TAP	19	192	3
TAP	20	0	5
TAP	20	96	5
TAP	20	192	4
TAP	20	192	5
TAP	21	0	3
TAP	21	96	3
TAP	21	192	2
TAP	21	192	4
TAP	22	0	1
TAP	22	96	1
TAP	22	192	0
TAP	22	192	1
TAP	23	0	6
TAP	23	96	6
TAP	23	192	6
TAP	23	192	7
TAP	24	0	0
TAP	24	0	7
TAP	24	96	0
TAP	24	96	7
TAP	24	192	0
TAP	24	192	7
HLD	25	0	1	192
HLD	25	0	6	192
TTP	26	0	0	C	1	L1
XTP	27	0	0
XTP	27	192	7
TTP	28	0	1	E	0	L1
TTP	28	96	1	B	0	L1
TTP	28	192	2	B	0	L1
TTP	29	0	7	E	0	L1
TTP	29	96	6	B	0	L1
TTP	29	192	5	B	0	L1
TTP	30	0	3	E	0	L1
TTP	30	96	2	B	0	L1
TTP	30	192	1	B	0	L1
TTP	31	0	5	E	0	L1
TTP	31	96	5	B	0	L1
TTP	31	192	6	B	0	L1
TTP	32	0	1	E	0	L1
TTP	32	96	0	E	0	L1
TTP	32	192	7	E	0	L1
TTP	33	0	5	E	0	L1
TTP	33	96	4	E	0	L1
TTP	33	192	3	E	0	L1
TTP	34	0	6	B	0	L1
TTP	34	96	7	B	0	L1
TTP	34	192	0	B	0	L1
TTP	34	288	1	B	0	L1
TTP	35	0	0	C	1	L1
XHO	36	0	6	192
HLD	36	192	7	192
HLD	37	0	0	192
TAP	37	192	1
HLD	38	0	2	192
HLD	38	192	3	192
HLD	39	0	4	192
TAP	39	192	5
TAP	40	0	6
TAP	40	0	7
TAP	40	192	4
TAP	40	192	5
TAP	41	0	2
TAP	41	0	3
TAP	41	192	0
TAP	41	192	1
TAP	42	0	2
TAP	42	0	3
TAP	42	192	4
TAP	42	192	5
TAP	43	0	3
TAP	43	0	4
TAP	43	96	3
TAP	43	96	4
XTP	43	192	2
XTP	43	192	5
STR	44	0	6
SSR	44	0	6	96	480	2
STR	46	0	1
SSL	46	0	1	96	480	5
STR	48	0	6
SSR	48	0	6	96	480	2
TAP	50	0	1
TAP	50	192	0
TAP	50	192	1
HLD	51	0	0	192
HLD	51	0	7	192
BRK	52	0	6
TAP	52	96	6
TAP	52	192	6
TAP	52	192	7
TAP	52	288	6
TAP	52	288	7
TAP	53	0	1
TAP	53	96	1
TAP	53	192	0
TAP	53	192	1
TAP	53	288	0
TAP	53	288	1
TAP	54	0	2
TAP	54	96	2
TAP	54	192	3
TAP	54	288	3
TAP	55	0	4
TAP	55	96	4
TAP	55	192	3
TAP	55	192	5
HLD	56	0	6	96
HLD	56	0	7	96
TAP	56	192	6
TAP	56	192	7
HLD	57	0	0	96
HLD	57	0	1	96
TAP	57	192	0
TAP	57	192	1
TAP	58	0	7
TAP	58	96	7
TAP	58	192	0
TAP	58	288	0
TAP	59	0	0
TAP	59	0	7
TAP	59	96	0
TAP	59	96	7
XTP	59	192	1
XTP	59	192	6
BRK	60	0	2
TAP	60	96	2
TAP	60	192	2
TAP	60	192	3
TAP	60	288	2
TAP	60	288	3
TAP	61	0	5
TAP	61	96	5
TAP	61	192	4
TAP	61	192	5
TAP	61	288	4
TAP	61	288	5
TAP	62	0	6
TAP	62	96	6
TAP	62	192	7
TAP	62	288	7
TAP	63	0	0
TAP	63	96	0
TAP	63	192	1
TAP	63	192	7
TAP	64	0	2
TAP	64	0	3
TAP	64	96	2
TAP	64	96	3
TAP	64	192	1
TAP	64	192	4
TAP	65	0	4
TAP	65	0	5
TAP	65	96	4
TAP	65	96	5
TAP	65	192	3
TAP	65	192	6
STR	66	0	6
SCL	66	0	6	96	192	3
STR	67	0	2
SCL	67	0	2	96	192	7
BRK	68	0	6
TAP	68	96	6
TAP	68	192	6
TAP	68	192	7
TAP	68	288	0
TAP	68	288	5
TAP	69	0	1
TAP	69	96	1
TAP	69	192	0
TAP	69	192	1
TAP	69	288	2
TAP	69	288	7
TAP	70	0	3
TAP	70	96	2
TAP	70	192	2
TAP	70	192	3
TAP	70	288	1
TAP	70	288	4
TAP	71	0	5
TAP	71	96	5
TAP	71	192	4
TAP	71	192	5
TAP	71	288	3
TAP	71	288	6
TAP	72	0	2
TAP	72	96	2
TAP	72	192	1
TAP	72	288	1
TAP	73	0	0
TAP	73	96	0
TAP	73	192	7
TAP	73	288	7
TAP	74	0	6
TAP	74	96	6
TAP	74	192	5
TAP	74	288	5
TAP	75	0	4
TAP	75	96	4
XTP	75	192	3
XTP	75	192	5
BRK	76	0	2
TAP	76	96	2
TAP	76	192	2
TAP	76	192	3
TAP	76	288	1
TAP	76	288	4
TAP	77	0	5
TAP	77	96	5
TAP	77	192	4
TAP	77	192	5
TAP	77	288	3
TAP	77	288	6
TAP	78	0	7
TAP	78	96	6
TAP	78	192	6
TAP	78	192	7
TAP	78	288	0
TAP	78	288	5
TAP	79	0	1
TAP	79	96	1
TAP	79	192	0
TAP	79	192	1
TAP	79	288	2
TAP	79	288	7
TAP	80	0	6
TAP	80	96	6
TAP	80	192	5
TAP	80	288	5
TAP	81	0	4
TAP	81	96	4
HLD	81	192	3	96
HLD	81	192	5	96
STR	82	0	3
SI_	82	0	3	96	192	0
STR	82	0	5
SI_	82	0	5	96	192	0
XTP	83	192	0
XTP	83	192	7
XTP	83	288	0
XTP	83	288	7
TAP	84	0	1
STR	84	0	6
SI_	84	0	6	96	192	2
STR	85	0	1
SI_	85	0	1	96	192	4
STR	86	0	5
SI_	86	0	5	96	192	0
TAP	87	0	1
TAP	87	192	0
TAP	87	192	7
STR	88	0	1
SI_	88	0	1	96	192	5
STR	89	0	6
SI_	89	0	6	96	192	3
STR	90	0	2
SI_	90	0	2	96	192	7
TAP	91	0	6
TAP	91	96	6
TAP	91	192	6
TAP	91	192	7
HLD	92	0	0	96
HLD	92	0	1	96
TAP	92	192	0
TAP	92	192	1
HLD	93	0	6	96
HLD	93	0	7	96
TAP	93	192	6
TAP	93	192	7
HLD	94	0	0	96
HLD	94	0	1	96
TAP	94	192	0
TAP	94	192	1
TAP	95	0	0
TAP	95	0	7
TAP	95	96	0
TAP	95	96	7
TAP	95	192	1
TAP	95	192	6
HLD	96	0	2	96
HLD	96	0	3	96
TAP	96	192	2
TAP	96	192	3
HLD	97	0	4	96
HLD	97	0	5	96
TAP	97	192	4
TAP	97	192	5
HLD	98	0	2	96
HLD	98	0	3	96
TAP	98	192	2
TAP	98	192	3
HLD	99	0	4	96
HLD	99	0	5	96
TAP	99	192	3
TAP	99	192	6
TAP	100	0	2
TAP	100	96	2
TAP	100	192	2
TAP	100	192	3
TAP	101	0	5
TAP	101	96	5
TAP	101	192	4
TAP	101	192	5
TAP	102	0	2
TAP	102	96	2
TAP	102	192	3
TAP	102	288	3
TAP	103	0	4
TAP	103	96	4
TAP	103	192	3
TAP	103	192	5
TAP	104	0	6
TAP	104	96	6
TAP	104	192	6
TAP	104	192	7
TAP	105	0	1
TAP	105	96	1
TAP	105	192	0
TAP	105	192	1
TAP	106	0	7
TAP	106	96	7
TAP	106	192	0
TAP	106	288	0
HLD	107	0	1	384
HLD	107	0	6	384

T_REC_TAP	271
T_REC_BRK	4
T_REC_XTP	14
T_REC_HLD	41
T_REC_XHO	1
T_REC_STR	13
T_REC_BST	0
T_REC_XST	0
T_REC_TTP	24
T_REC_THO	0
T_REC_SLD	13
T_REC_ALL	381
T_NUM_TAP	322
T_NUM_BRK	4
T_NUM_HLD	42
T_NUM_SLD	13
T_NUM_ALL	381
T_JUDGE_TAP	326
T_JUDGE_HLD	128
T_JUDGE_SLD	13
T_JUDGE_ALL	467
TTM_EACHPAIRS	99
TTM_SCR_TAP	161000
TTM_SCR_BRK	10400
TTM_SCR_HLD	42000
TTM_SCR_SLD	19500
TTM_SCR_ALL	232900
TTM_SCR_S	225550
TTM_SCR_SS	232500
TTM_RAT_ACV	10017

