VERSION	0.00.00	1.03.00
FES_MODE	0
BPM_DEF	200.000	200.000	200.000	200.000
MET_DEF	4	4
RESOLUTION	384
CLK_DEF	384
COMPATIBLE_CODE	MA2

BPM	0	0	200.000
MET	0	0	4	4

TAP	2	0	0
TAP	4	0	0
TAP	6	0	7
TAP	8	0	7
TAP	10	0	0
TAP	11	0	0
TAP	12	0	1
TAP	13	0	1
TAP	14	0	2
TAP	15	0	2
TAP	16	0	3
TAP	17	0	3
TAP	17	0	4
TAP	18	0	4
TAP	19	0	4
TAP	20	0	5
TAP	21	0	5
TAP	22	0	6
TAP	23	0	6
TAP	24	0	7
TAP	25	0	7
BRK	26	0	0
BRK	26	0	7
HLD	28	0	6	384
HLD	28	0	7	384
HLD	30	0	4	384
HLD	30	0	5	384
HLD	32	0	2	384
HLD	32	0	3	384
HLD	34	0	0	384
HLD	34	0	1	384
TAP	36	0	7
TAP	36	192	7
TAP	37	0	6
TAP	37	0	7
TAP	38	0	0
TAP	38	192	0
TAP	39	0	0
TAP	39	0	1
TAP	40	0	2
TAP	40	192	2
TAP	41	0	2
TAP	41	0	3
TAP	42	0	4
TAP	42	192	4
TAP	43	0	3
TAP	43	0	4
TTP	44	0	3	B	0	L1
TTP	45	0	4	B	0	L1
TTP	46	0	2	B	0	L1
TTP	47	0	5	B	0	L1
TTP	48	0	1	B	0	L1
TTP	49	0	6	B	0	L1
THO	50	0	0	384	C	0	L1
XTP	52	0	7
TAP	52	96	7
TAP	52	192	7
TAP	53	0	6
TAP	54	0	5
TAP	54	96	5
TAP	54	192	5
TAP	55	0	3
TAP	55	0	4
TAP	56	0	3
TAP	56	96	3
TAP	56	192	3
TAP	57	0	2
TAP	58	0	1
TAP	58	96	1
TAP	58	192	1
TAP	59	0	0
TAP	59	0	7
TAP	60	0	0
TAP	60	96	0
TAP	60	192	0
TAP	61	0	1
TAP	62	0	2
TAP	62	96	2
TAP	62	192	2
TAP	63	0	3
TAP	63	0	4
TAP	64	0	4
TAP	64	96	4
TAP	64	192	4
TAP	65	0	5
TAP	66	0	6
TAP	66	96	6
TAP	66	192	6
TAP	67	0	0
TAP	67	0	7
TAP	68	0	7
TAP	68	192	7
TAP	69	0	6
TAP	69	96	6
TAP	69	192	6
TAP	70	0	5
TAP	70	192	5
TAP	71	0	4
TAP	71	96	4
TAP	71	192	3
TAP	71	192	4
TAP	72	0	3
TAP	72	192	3
TAP	73	0	2
TAP	73	96	2
TAP	73	192	2
TAP	74	0	1
TAP	74	192	1
TAP	75	0	0
TAP	75	96	0
TAP	75	192	0
TAP	75	192	7
TAP	76	0	0
TAP	76	192	0
TAP	77	0	1
TAP	77	96	1
TAP	77	192	1
TAP	78	0	2
TAP	78	192	2
TAP	79	0	3
TAP	79	96	3
TAP	79	192	3
TAP	79	192	4
TAP	80	0	4
TAP	80	192	4
TAP	81	0	5
TAP	81	96	5
TAP	81	192	5
TAP	82	0	6
TAP	82	192	6
TAP	83	0	7
TAP	83	96	7
TAP	83	192	7
TAP	84	0	6
TAP	84	192	6
TAP	85	0	6
TAP	85	0	7
TAP	85	192	6
TAP	85	192	7
TAP	86	0	5
TAP	86	192	5
TAP	87	0	4
TAP	87	0	5
TAP	88	0	2
TAP	88	192	2
TAP	89	0	2
TAP	89	0	3
TAP	89	192	2
TAP	89	192	3
TAP	90	0	1
TAP	90	192	1
TAP	91	0	0
TAP	91	0	1
HLD	92	0	0	192
HLD	92	0	1	192
TAP	93	0	0
TAP	93	0	1
HLD	94	0	2	192
HLD	94	0	3	192
TAP	95	0	2
TAP	95	0	3
HLD	96	0	4	192
HLD	96	0	5	192
TAP	97	0	4
TAP	97	0	5
HLD	98	0	6	192
HLD	98	0	7	192
XTP	99	0	6
XTP	99	0	7
STR	100	0	0
SI_	100	0	0	96	288	4
TAP	102	0	7
TAP	103	0	0
STR	104	0	7
SI_	104	0	7	96	288	3
TAP	106	0	0
XTP	107	0	1
XTP	107	0	7

T_REC_TAP	144
T_REC_BRK	2
T_REC_XTP	5
T_REC_HLD	16
T_REC_XHO	0
T_REC_STR	2
T_REC_BST	0
T_REC_XST	0
T_REC_TTP	6
T_REC_THO	1
T_REC_SLD	2
T_REC_ALL	178
T_NUM_TAP	157
T_NUM_BRK	2
T_NUM_HLD	17
T_NUM_SLD	2
T_NUM_ALL	178
T_JUDGE_TAP	159
T_JUDGE_HLD	104
T_JUDGE_SLD	2
T_JUDGE_ALL	265
TTM_EACHPAIRS	32
TTM_SCR_TAP	78500
TTM_SCR_BRK	5200
TTM_SCR_HLD	17000
TTM_SCR_SLD	3000
TTM_SCR_ALL	103700
TTM_SCR_S	100400
TTM_SCR_SS	103500
TTM_RAT_ACV	10019

