VERSION	0.00.00	1.03.00
FES_MODE	0
BPM_DEF	205.000	205.000	205.000	205.000
MET_DEF	4	4
RESOLUTION	384
CLK_DEF	384
COMPATIBLE_CODE	MA2

BPM	0	0	205.000
MET	0	0	4	4
MET	30	0	4	3
MET	30	288	4	4
MET	31	288	4	3
MET	32	192	4	4
MET	52	192	4	3
MET	56	96	4	4
MET	73	96	4	3
MET	82	96	4	4
MET	109	96	4	3
MET	110	288	4	5
MET	114	192	4	3
MET	116	0	4	5
MET	119	288	4	4

HLD	1	0	2	96
TAP	1	96	5
HLD	1	144	5	192
TAP	1	192	2
TAP	1	264	2
HLD	1	336	2	96
TAP	2	24	5
HLD	2	48	5	192
TAP	2	96	2
TAP	2	168	2
HLD	2	240	2	96
TAP	2	336	5
TAP	2	360	5
BRK	3	0	3
BRK	3	0	4
TAP	3	48	2
TAP	3	96	1
TAP	3	144	2
TAP	3	192	3
TAP	3	192	5
TAP	3	240	6
TAP	3	288	4
TAP	3	288	5
TAP	3	336	4
TAP	3	336	5
TAP	4	48	0
TAP	4	48	4
TAP	4	96	2
TAP	4	96	6
BRK	4	192	3
BRK	4	192	7
BRK	4	240	1
BRK	4	240	5
TAP	5	0	3
TAP	5	0	4
TAP	5	96	6
TAP	5	144	5
TAP	5	192	2
TAP	5	240	4
TAP	5	288	1
HLD	5	336	1	96
TAP	6	48	3
TAP	6	72	3
TAP	6	96	2
TAP	6	144	4
TAP	6	192	1
TAP	6	240	6
TAP	6	288	5
TAP	6	336	3
TAP	7	0	2
TAP	7	0	4
TAP	7	96	1
TAP	7	144	3
TAP	7	192	2
TAP	7	240	4
TAP	7	288	3
HLD	7	336	6	96
TAP	8	48	4
TAP	8	72	4
TAP	8	96	5
TAP	8	144	3
TAP	8	192	6
TAP	8	240	4
TAP	8	288	3
TAP	8	288	5
TAP	9	0	2
TAP	9	0	4
TAP	9	96	1
TAP	9	144	2
TAP	9	192	5
TAP	9	240	3
TAP	9	288	6
HLD	9	336	6	96
TAP	10	48	4
TAP	10	72	4
TAP	10	96	5
TAP	10	144	3
TAP	10	192	6
TAP	10	240	1
TAP	10	288	2
TAP	10	336	4
TAP	11	0	3
TAP	11	0	5
TAP	11	96	6
TAP	11	144	6
TAP	11	192	2
TAP	11	240	4
TAP	11	288	1
HLD	11	336	1	96
TAP	12	48	3
TAP	12	72	3
TAP	12	96	2
TAP	12	144	4
TAP	12	192	0
TAP	12	240	0
TAP	12	288	1
STR	12	288	6
SI_	12	288	6	96	48	3
TAP	12	336	2
TAP	12	336	5
TAP	13	0	3
TAP	13	96	1
STR	13	144	1
SV_	13	144	1	96	48	0
TAP	13	240	6
STR	13	288	6
SI_	13	288	6	96	48	3
TAP	13	336	6
TAP	14	0	2
TAP	14	96	1
TAP	14	144	1
TAP	14	240	5
TAP	14	288	5
TAP	14	336	4
TTP	15	0	6	E	0	M1
TTP	15	48	4	B	0	M1
TTP	15	96	2	E	0	M1
TTP	15	144	3	B	0	M1
TTP	15	192	5	E	0	M1
TTP	15	240	4	E	0	M1
TTP	15	288	3	E	0	M1
TTP	15	336	0	C	0	M1
TTP	16	48	1	E	0	M1
TTP	16	48	7	E	0	M1
TTP	16	144	3	B	0	M1
TTP	16	144	4	B	0	M1
TAP	16	240	7
STR	16	288	1
SI_	16	288	1	96	48	4
TAP	16	288	6
TAP	16	336	2
TAP	16	336	5
TAP	17	0	4
TAP	17	96	6
STR	17	144	6
SV_	17	144	6	96	48	7
TAP	17	240	1
STR	17	288	1
SI_	17	288	1	96	48	4
TAP	17	336	1
TAP	18	0	5
TAP	18	96	6
TAP	18	144	6
TAP	18	240	2
TAP	18	288	2
TAP	18	336	3
TTP	19	0	2	E	0	M1
TTP	19	48	3	B	0	M1
TTP	19	96	6	E	0	M1
TTP	19	144	4	B	0	M1
TTP	19	192	3	E	0	M1
TTP	19	240	4	E	0	M1
TTP	19	288	5	E	0	M1
TAP	19	336	0
TAP	20	48	0
STR	20	96	1
SUR	20	96	1	96	96	2
TAP	20	144	6
STR	20	192	7
SCL	20	192	7	96	48	4
XTP	21	0	1
TAP	21	48	0
HLD	21	96	0	96
TAP	21	192	2
HLD	21	240	3	96
TAP	21	288	1
HLD	21	336	1	96
TAP	22	48	0
TAP	22	96	7
TAP	22	144	2
TAP	22	240	4
TAP	22	240	5
TAP	22	336	1
TAP	22	360	3
TAP	23	0	2
TAP	23	48	5
TAP	23	72	4
TAP	23	96	5
TAP	23	144	2
STR	23	168	3
SI_	23	168	3	96	24	0
HLD	23	192	1	72
TAP	23	336	6
TAP	23	360	4
TAP	24	0	5
TAP	24	48	2
TAP	24	72	3
TAP	24	96	2
TAP	24	144	5
STR	24	168	4
SI_	24	168	4	96	24	7
HLD	24	192	6	72
TAP	24	336	1
TAP	25	0	2
TAP	25	0	3
TAP	25	96	6
TAP	25	144	4
HLD	25	144	5	96
TAP	25	240	0
TAP	25	288	1
TAP	25	336	2
TAP	26	0	7
TAP	26	48	1
STR	26	96	0
SI_	26	96	0	96	48	5
TAP	26	192	4
XTP	26	240	3
XTP	26	288	3
TAP	26	336	0
HLD	27	0	1	48
TAP	27	48	0
HLD	27	96	7	48
TAP	27	144	1
HLD	27	192	2	48
HLD	27	240	6	48
TAP	27	288	3
TAP	27	336	3
STR	28	0	5
SI_	28	0	5	96	96	2
STR	28	96	2
SCR	28	96	2	96	96	5
TAP	28	192	0
XTP	28	288	0
TAP	29	0	2
TAP	29	0	6
TAP	29	48	4
TAP	29	72	4
TAP	29	96	3
TAP	29	144	1
TAP	29	144	5
TAP	29	192	3
TAP	29	216	3
TAP	29	240	4
TAP	29	288	2
HLD	29	288	6	120
HLD	30	0	1	48
HLD	30	72	2	72
TAP	30	144	3
TAP	30	192	4
TAP	30	240	2
TAP	30	288	1
TAP	30	288	5
TAP	30	336	3
TAP	30	360	3
TAP	31	0	4
TAP	31	48	2
TAP	31	48	6
TAP	31	96	4
TAP	31	120	4
TAP	31	144	3
HLD	31	192	1	72
HLD	31	192	5	96
TAP	31	336	0
TAP	31	336	4
TAP	32	0	1
TAP	32	0	5
TAP	32	48	2
TAP	32	48	6
STR	32	96	3
SCL	32	96	3	96	48	0
STR	32	96	7
SCL	32	96	7	96	48	4
BRK	32	192	3
BST	32	192	7
SSL	32	192	7	96	144	3
TAP	33	144	2
TAP	33	144	5
TAP	33	192	2
TAP	33	192	5
TTP	34	0	2	B	0	M1
TTP	34	0	3	B	0	M1
TTP	34	0	4	B	0	M1
TTP	34	0	5	B	0	M1
TTP	34	0	6	B	0	M1
TTP	34	0	7	B	0	M1
HLD	34	96	1	96
TAP	34	192	0
TAP	34	240	0
TAP	34	288	2
TAP	34	336	2
TAP	35	0	3
TAP	35	48	3
TAP	35	96	4
TAP	35	144	4
TAP	35	192	5
TAP	35	240	3
TAP	35	240	5
TAP	35	288	4
TAP	35	336	5
TAP	36	0	2
TAP	36	0	6
BRK	36	48	5
BRK	36	96	3
BRK	36	144	1
BRK	36	192	0
BRK	36	192	7
TAP	36	204	1
TAP	36	204	6
TAP	36	216	2
TAP	36	216	5
TAP	36	228	3
TAP	36	228	4
STR	36	336	0
SI_	36	336	0	96	48	5
STR	37	48	6
SI_	37	48	6	96	48	2
TAP	37	144	4
STR	37	192	4
SCL	37	192	4	96	144	6
STR	37	288	0
SCL	37	288	0	96	96	4
STR	38	0	4
SLL	38	0	4	96	96	0
TAP	38	96	0
STR	38	192	6
SI_	38	192	6	96	48	2
TAP	38	288	7
STR	38	336	7
SI_	38	336	7	96	48	4
TAP	39	48	3
TAP	39	144	0
STR	39	192	0
SI_	39	192	0	96	48	4
STR	39	288	6
SCR	39	288	6	96	48	1
STR	40	0	3
SCR	40	0	3	96	48	6
STR	40	96	7
SI_	40	96	7	96	48	2
SI_	40	96	7	96	48	4
BRK	40	192	7
STR	40	336	1
SI_	40	336	1	96	48	4
STR	40	336	5
SI_	40	336	5	96	48	0
TAP	41	144	2
TAP	41	144	6
STR	41	192	2
SI_	41	192	2	96	48	7
TAP	41	192	6
STR	41	288	5
SI_	41	288	5	96	48	0
STR	42	0	1
SCR	42	0	1	96	48	4
STR	42	96	7
SUL	42	96	7	96	144	0
TTP	42	192	0	C	1	M1
TAP	42	336	7
TAP	43	0	7
TAP	43	144	0
TAP	43	144	6
TAP	43	192	0
TAP	43	192	6
TAP	43	264	2
TAP	43	264	7
TAP	43	336	3
TAP	43	336	5
TAP	44	0	3
TAP	44	0	5
BRK	44	48	2
BRK	44	96	4
BRK	44	144	6
BRK	44	192	0
BRK	44	192	7
TAP	44	204	1
TAP	44	204	6
TAP	44	216	2
TAP	44	216	5
TAP	44	228	3
TAP	44	228	4
STR	44	336	7
SI_	44	336	7	96	48	2
STR	45	48	1
SI_	45	48	1	96	48	5
TAP	45	144	3
STR	45	192	3
SCR	45	192	3	96	144	1
STR	45	288	7
SCR	45	288	7	96	96	3
STR	46	0	3
SLR	46	0	3	96	96	7
STR	46	96	7
SXR	46	96	7	96	144	7
XTP	46	192	0
STR	46	336	1
SI_	46	336	1	96	48	5
TAP	47	48	0
TAP	47	144	7
STR	47	192	0
SI_	47	192	0	96	48	2
STR	47	192	7
SI_	47	192	7	96	48	2
STR	47	288	0
SI_	47	288	0	96	48	5
STR	47	288	7
SI_	47	288	7	96	48	5
STR	48	0	0
SI_	48	0	0	96	48	2
STR	48	0	7
SI_	48	0	7	96	48	2
STR	48	96	0
SI_	48	96	0	96	48	4
STR	48	96	7
SI_	48	96	7	96	48	3
BRK	48	192	0
BRK	48	192	7
HLD	49	0	0	96
HLD	49	96	2	96
HLD	49	192	4	96
HLD	49	288	6	96
TAP	50	0	1
STR	50	96	3
SCL	50	96	3	96	48	0
TAP	50	96	4
TTP	50	192	1	B	0	M1
TTP	50	192	2	B	0	M1
STR	50	288	4
SCR	50	288	4	96	48	7
TTP	51	0	5	B	0	M1
TTP	51	0	6	B	0	M1
STR	51	96	3
SCL	51	96	3	96	48	0
TTP	51	192	0	E	0	M1
TTP	51	192	7	B	0	M1
STR	51	288	4
SCR	51	288	4	96	48	7
THO	52	0	0	192	C	0	M1
XTP	53	288	3
XTP	53	288	4
TAP	54	0	1
TAP	54	0	4
TAP	54	72	2
TAP	54	72	5
TAP	54	144	3
HLD	54	144	6	48
TAP	54	192	7
TAP	54	216	0
TAP	54	240	1
TAP	54	264	2
TAP	54	288	3
TAP	54	288	6
TAP	54	360	2
TAP	54	360	5
HLD	55	48	1	48
TAP	55	48	4
TAP	55	96	0
TAP	55	120	7
TAP	55	144	6
TAP	55	168	5
TAP	55	192	2
TAP	55	192	4
TAP	55	264	3
TAP	55	264	5
TAP	55	336	4
HLD	55	336	6	48
TAP	56	0	7
TAP	56	24	0
TAP	56	48	1
TAP	56	72	2
TAP	56	96	3
TAP	56	96	5
TAP	56	168	2
TAP	56	168	4
TAP	56	240	1
TAP	56	240	3
TAP	56	288	0
TAP	56	336	0
TAP	56	336	6
TAP	57	0	0
TAP	57	0	6
BRK	57	48	0
BRK	57	48	6
BRK	57	72	1
BRK	57	72	5
BRK	57	96	2
BRK	57	96	4
TAP	57	192	2
TAP	57	288	2
TAP	58	0	2
TAP	58	96	2
TAP	58	192	2
TAP	58	288	2
TAP	59	0	2
HLD	59	48	4	24
TAP	59	96	2
TAP	59	192	2
TAP	59	288	2
TAP	60	0	2
TAP	60	96	2
TAP	60	192	2
TAP	60	288	2
TAP	61	0	2
TAP	61	0	4
STR	61	96	1
SCR	61	96	1	96	48	3
TAP	61	96	5
TAP	61	192	4
TAP	61	240	5
STR	61	288	6
SI_	61	288	6	96	48	4
TAP	61	336	6
TAP	62	0	3
TAP	62	48	2
STR	62	96	1
SCR	62	96	1	96	48	3
TAP	62	144	1
TAP	62	192	4
TAP	62	240	5
STR	62	288	6
SI_	62	288	6	96	48	4
TAP	62	336	6
TAP	63	0	3
TAP	63	48	2
STR	63	96	1
SCR	63	96	1	96	48	3
TAP	63	144	1
TAP	63	192	4
TAP	63	240	5
TAP	63	288	6
TAP	63	336	6
TAP	64	0	3
TAP	64	48	3
TAP	64	96	2
TAP	64	96	4
TAP	64	144	2
TAP	64	192	5
TAP	64	216	4
TAP	64	264	2
TAP	64	288	3
TAP	64	336	1
TAP	64	336	5
BRK	65	0	1
BRK	65	0	5
TAP	65	96	2
TAP	65	96	6
TAP	65	144	5
TAP	65	168	5
TAP	65	192	4
TAP	65	240	6
TAP	65	288	3
TAP	65	336	3
TAP	66	0	2
TAP	66	0	4
TAP	66	48	1
TAP	66	96	0
TAP	66	96	7
TAP	66	144	6
TAP	66	192	3
TAP	66	192	5
TAP	66	240	2
TAP	66	264	2
TAP	66	288	3
TAP	66	336	5
TAP	67	0	3
TAP	67	0	6
TAP	67	48	2
TAP	67	96	1
TAP	67	96	5
TAP	67	144	2
TAP	67	168	2
TAP	67	192	3
TAP	67	240	1
TAP	67	288	4
TAP	67	336	4
TAP	68	0	3
TAP	68	0	5
TAP	68	48	6
TAP	68	96	0
TAP	68	96	7
TAP	68	144	1
TAP	68	192	2
TAP	68	192	4
TAP	68	240	5
TAP	68	264	5
TAP	68	288	4
TAP	68	336	2
TAP	69	0	1
TAP	69	0	4
TAP	69	48	5
TAP	69	96	2
TAP	69	96	6
TAP	69	144	5
TAP	69	168	5
TAP	69	192	4
TAP	69	240	6
TAP	69	288	3
TAP	69	336	3
TAP	70	0	2
TAP	70	0	4
TAP	70	48	1
TAP	70	96	0
TAP	70	96	7
TAP	70	144	6
TAP	70	192	3
TAP	70	192	5
TAP	70	240	2
TAP	70	264	2
TAP	70	288	3
TAP	70	336	5
TAP	71	0	3
TAP	71	0	6
TAP	71	48	2
TAP	71	96	1
TAP	71	96	5
TAP	71	144	2
TAP	71	168	2
TAP	71	192	3
TAP	71	240	1
TAP	71	288	4
TAP	71	336	4
TAP	72	0	3
TAP	72	0	5
TAP	72	48	6
TAP	72	96	0
TAP	72	96	7
TAP	72	144	1
TAP	72	192	2
TAP	72	192	4
TAP	72	240	5
TAP	72	264	5
TAP	72	288	4
TAP	72	336	3
TAP	73	0	2
TAP	73	0	4
TAP	73	48	5
HLD	73	96	1	48
HLD	73	96	6	48
HLD	73	168	2	48
HLD	73	168	5	48
TAP	73	240	3
TAP	73	240	4
TAP	73	288	2
TAP	73	288	5
BRK	74	192	2
BST	74	192	5
SCR	74	192	5	96	192	3
TTP	74	288	0	C	1	M1
TAP	75	144	0
HLD	75	192	0	96
TAP	75	288	6
HLD	75	336	6	96
TAP	76	48	4
TAP	76	96	4
TAP	76	192	3
TAP	76	192	7
TAP	76	288	4
STR	76	288	6
SUL	76	288	6	96	192	3
TTP	77	0	0	C	0	M1
TAP	77	96	0
STR	77	192	1
SUR	77	192	1	96	192	4
TTP	77	288	0	C	0	M1
TAP	78	0	7
STR	78	96	6
SUL	78	96	6	96	192	3
TTP	78	192	0	C	0	M1
TAP	78	288	1
XST	79	0	0
SSL	79	0	0	96	144	4
BRK	79	96	7
TAP	79	336	6
HLD	80	0	6	96
TAP	80	96	4
HLD	80	144	4	96
TAP	80	240	3
TAP	80	288	3
TAP	81	0	3
TAP	81	0	4
STR	81	96	2
SUL	81	96	2	96	144	3
TTP	81	192	0	C	0	M1
TAP	81	288	7
STR	82	0	6
SUL	82	0	6	96	96	7
TTP	82	96	0	C	0	M1
TAP	82	288	0
TAP	82	288	6
STR	83	0	2
SV_	83	0	2	96	192	7
STR	83	0	4
SV_	83	0	4	96	192	7
TAP	84	0	6
TAP	84	48	5
TAP	84	96	3
TAP	84	96	4
TAP	84	144	2
TAP	84	168	3
TAP	84	192	1
TAP	84	240	0
TAP	84	240	4
TAP	84	288	5
TAP	84	312	4
TAP	84	336	6
TAP	85	0	7
TAP	85	48	1
TAP	85	48	7
TAP	85	96	2
TAP	85	144	2
TAP	85	192	3
TAP	85	240	5
TAP	85	288	5
TAP	85	336	4
TAP	86	0	6
TAP	86	48	2
TAP	86	72	2
TAP	86	96	3
TAP	86	144	1
TAP	86	192	1
TAP	86	192	3
TAP	86	240	1
TAP	86	240	3
BRK	86	288	4
BRK	86	336	6
BST	87	0	0
SI_	87	0	0	96	48	3
BST	87	0	7
SI_	87	0	7	96	48	4
BRK	87	48	2
BRK	87	48	5
BRK	87	96	0
BRK	87	96	7
TTP	87	108	0	B	0	M1
TTP	87	108	7	B	0	M1
TTP	87	120	0	C	1	M1
TTP	87	120	3	E	0	M1
TTP	87	120	5	E	0	M1
TTP	87	132	3	B	0	M1
TTP	87	132	4	B	0	M1
HLD	87	240	2	96
STR	87	240	6
SI_	87	240	6	96	48	2
TAP	87	336	6
TAP	88	48	1
TAP	88	48	7
STR	88	96	2
SLL	88	96	2	96	96	4
TAP	88	96	6
STR	88	192	4
SLL	88	192	4	96	96	0
TAP	88	288	2
STR	89	0	6
SI_	89	0	6	96	48	2
STR	89	96	1
SI_	89	96	1	96	48	5
TAP	89	192	4
HLD	89	240	4	96
TAP	89	336	3
TAP	90	48	0
TAP	90	48	1
STR	90	96	2
SCR	90	96	2	96	48	5
TAP	90	96	7
TAP	90	192	2
STR	90	192	6
SI_	90	192	6	96	48	2
STR	90	288	0
SI_	90	288	0	96	48	5
TAP	90	288	6
TAP	91	0	0
XST	91	0	4
SI_	91	0	4	96	48	0
SI_	91	0	4	96	48	1
BRK	91	96	4
TTP	91	108	4	B	0	M1
TTP	91	120	0	C	1	M1
TTP	91	132	0	B	0	M1
XTP	91	240	1
XST	91	240	5
SI_	91	240	5	96	48	7
STR	91	336	0
SI_	91	336	0	96	48	4
TAP	92	48	4
STR	92	96	5
SCR	92	96	5	96	48	0
STR	92	192	1
SI_	92	192	1	96	48	5
STR	92	288	7
SI_	92	288	7	96	48	3
STR	93	0	2
SCL	93	0	2	96	96	5
TAP	93	96	5
STR	93	192	4
SI_	93	192	4	96	48	7
XTP	93	240	4
XTP	93	288	2
TAP	94	48	0
TAP	94	48	6
TAP	94	96	1
TAP	94	96	5
TAP	94	168	2
TAP	94	168	3
TAP	94	240	4
TAP	94	240	5
BRK	94	288	3
BRK	94	336	1
BST	95	0	0
SI_	95	0	0	96	48	3
BST	95	0	7
SI_	95	0	7	96	48	4
BRK	95	48	2
BRK	95	48	5
BRK	95	96	0
BRK	95	96	7
TTP	95	108	0	B	0	M1
TTP	95	108	7	B	0	M1
TTP	95	120	0	C	1	M1
TTP	95	120	3	E	0	M1
TTP	95	120	5	E	0	M1
TTP	95	132	3	B	0	M1
TTP	95	132	4	B	0	M1
XST	95	240	1
SI_	95	240	1	96	48	5
XST	95	240	5
SI_	95	240	5	96	48	0
TAP	95	336	1
TAP	95	336	5
TAP	96	48	4
TAP	96	48	7
TAP	96	96	3
STR	96	96	6
SV_	96	96	6	96	48	3
STR	96	192	2
SI_	96	192	2	96	48	6
TAP	96	192	6
TAP	96	288	2
STR	96	288	7
SV_	96	288	7	96	48	2
TAP	97	0	1
TAP	97	0	7
TAP	97	96	0
TAP	97	96	4
TAP	97	192	5
STR	97	240	4
SLL	97	240	4	96	96	6
TAP	97	240	5
TAP	97	336	6
TAP	98	48	7
STR	98	96	0
SCR	98	96	0	96	48	3
STR	98	96	7
SUR	98	96	7	96	48	3
STR	98	192	0
SUL	98	192	0	96	48	4
STR	98	192	7
SCL	98	192	7	96	48	4
STR	98	288	0
SCR	98	288	0	96	48	3
STR	98	288	7
SUR	98	288	7	96	48	3
STR	99	0	0
SF_	99	0	0	96	48	4
TAP	99	0	7
BRK	99	96	0
TTP	99	104	0	E	0	M1
TTP	99	104	1	E	0	M1
TTP	99	108	0	B	0	M1
TTP	99	112	1	B	0	M1
TTP	99	112	7	B	0	M1
TTP	99	120	0	C	1	M1
TTP	99	120	2	B	0	M1
TTP	99	120	6	B	0	M1
TTP	99	128	3	E	0	M1
TTP	99	128	6	E	0	M1
TTP	99	136	4	B	0	M1
XHO	99	288	7	96
HLD	100	0	5	96
HLD	100	96	3	96
HLD	100	192	1	96
TAP	100	288	7
STR	101	0	6
SCR	101	0	6	96	48	1
BRK	101	96	1
TAP	101	96	6
STR	101	192	2
SCL	101	192	2	96	48	6
TAP	101	288	2
BRK	101	288	6
STR	102	0	4
SCR	102	0	4	96	48	1
BRK	102	96	1
TAP	102	96	4
STR	102	192	2
SCL	102	192	2	96	84	4
TTP	102	288	0	C	1	M1
BRK	102	288	2
TTP	102	300	2	E	0	M1
TTP	102	312	1	E	0	M1
TTP	102	324	0	E	0	M1
TTP	102	336	7	E	0	M1
TTP	102	348	6	E	0	M1
TTP	102	360	5	E	0	M1
XTP	103	96	7
TAP	103	192	5
TAP	103	240	4
TAP	103	288	3
TAP	103	288	6
TAP	103	336	5
TAP	104	0	1
TAP	104	0	4
TAP	104	48	2
TAP	104	96	3
TAP	104	144	2
TAP	104	192	1
TAP	104	192	4
TAP	104	240	5
TAP	104	288	4
TAP	104	288	6
TAP	104	336	4
TAP	104	336	6
TAP	105	0	3
TAP	105	0	7
TAP	105	48	2
TAP	105	72	2
TAP	105	96	3
TAP	105	144	1
TAP	105	192	4
TAP	105	240	5
TAP	105	264	5
TAP	105	288	4
TAP	105	336	6
TAP	106	0	3
TAP	106	48	2
TAP	106	96	1
TAP	106	96	3
TAP	106	144	0
TAP	106	168	0
TAP	106	192	4
TAP	106	216	5
TAP	106	240	6
TAP	106	264	7
TAP	106	288	1
TAP	106	312	2
TAP	106	336	3
TAP	106	360	4
TAP	107	0	7
TAP	107	24	6
TAP	107	48	5
TAP	107	72	4
TAP	107	96	1
TAP	107	120	0
TAP	107	144	1
TAP	107	192	2
TAP	107	192	7
TAP	107	240	3
TAP	107	288	4
TAP	107	288	5
TAP	107	336	6
TAP	107	360	7
TAP	108	0	6
TAP	108	48	0
TAP	108	96	1
TAP	108	96	3
TAP	108	144	2
TAP	108	192	4
TAP	108	192	6
TAP	108	240	5
TAP	108	288	3
TAP	108	312	4
TAP	108	336	3
TAP	108	360	4
STR	109	0	3
SSR	109	0	3	96	192	7
STR	109	24	4
SSL	109	24	4	96	168	0
TAP	109	48	3
TAP	109	72	4
BRK	110	0	2
BRK	110	0	6
TAP	110	96	1
TAP	110	120	5
TAP	110	144	3
TAP	110	168	4
BRK	110	192	0
BRK	110	288	6
BRK	110	288	7
TAP	110	336	5
TAP	110	360	4
TAP	111	24	1
TAP	111	48	0
TAP	111	96	2
STR	111	96	7
SI_	111	96	7	96	48	3
STR	111	144	6
SI_	111	144	6	96	48	2
TAP	111	192	7
TAP	111	240	6
TAP	111	288	0
TAP	111	336	0
TAP	111	336	4
TAP	112	0	5
TAP	112	24	4
TAP	112	48	6
TAP	112	96	1
TAP	112	120	0
TAP	112	168	2
TAP	112	192	3
TAP	112	240	0
STR	112	240	4
SI_	112	240	4	96	48	1
TAP	112	288	5
TAP	112	336	4
TAP	112	336	6
TAP	113	0	7
TAP	113	48	0
BRK	113	96	1
BRK	113	96	7
TAP	113	144	2
TAP	113	168	3
TAP	113	216	6
TAP	113	240	7
STR	113	288	0
SI_	113	288	0	96	48	4
TAP	113	288	5
STR	113	336	1
SI_	113	336	1	96	48	5
TAP	114	0	0
TAP	114	48	1
TAP	114	96	7
TAP	114	144	3
TAP	114	144	7
TAP	114	192	2
TAP	114	216	3
TAP	114	240	1
TAP	114	288	6
TAP	114	312	7
TAP	114	360	5
TAP	115	0	4
STR	115	48	3
SI_	115	48	3	96	48	7
TAP	115	48	6
TAP	115	96	2
TAP	115	144	1
TAP	115	144	3
TAP	115	192	0
TAP	115	240	6
BRK	115	288	4
BRK	115	336	2
BRK	116	0	1
BRK	116	0	5
TAP	116	48	2
TAP	116	72	3
TAP	116	120	5
TAP	116	144	4
STR	116	192	3
SI_	116	192	3	96	48	7
TAP	116	192	6
STR	116	240	2
SI_	116	240	2	96	48	6
TAP	116	288	3
TAP	116	336	2
TAP	117	0	4
TAP	117	48	0
TAP	117	48	4
TAP	117	96	1
TAP	117	120	3
TAP	117	144	2
TAP	117	192	6
TAP	117	216	7
TAP	117	264	5
TAP	117	288	4
TAP	117	336	2
TAP	117	336	6
TAP	118	0	3
TAP	118	0	4
TAP	118	48	1
TAP	118	48	5
STR	118	96	0
SI_	118	96	0	96	48	3
STR	118	96	6
SV_	118	96	6	96	48	3
STR	118	192	0
SV_	118	192	0	96	48	5
TAP	118	192	6
TAP	118	288	0
HLD	118	336	7	96
TAP	119	48	3
TAP	119	96	2
TAP	119	144	1
TAP	119	144	4
TAP	119	192	0
TAP	119	192	5
TAP	119	240	6
TAP	119	240	7
TAP	119	288	0
STR	119	288	5
SI_	119	288	5	96	48	0
STR	119	336	1
SI_	119	336	1	96	48	4
STR	120	0	5
SI_	120	0	5	96	48	2
STR	120	48	1
SI_	120	48	1	96	48	5
TAP	120	96	5
TAP	120	144	1
XTP	120	192	7
XTP	120	240	7
BRK	120	288	0
BRK	120	288	6
TAP	120	336	1
TAP	120	360	3
TAP	121	0	2
BRK	121	48	1
BRK	121	48	7
TAP	121	96	6
TAP	121	120	4
TAP	121	144	5
BRK	121	192	2
BRK	121	192	4
TAP	121	240	5
TAP	121	264	7
TAP	121	288	6
BST	121	336	1
SI_	121	336	1	96	48	5
TAP	121	360	0
TAP	122	0	1
TAP	122	24	2
BRK	122	48	1

T_REC_TAP	673
T_REC_BRK	66
T_REC_XTP	13
T_REC_HLD	47
T_REC_XHO	1
T_REC_STR	109
T_REC_BST	7
T_REC_XST	5
T_REC_TTP	73
T_REC_THO	1
T_REC_SLD	123
T_REC_ALL	1118
T_NUM_TAP	873
T_NUM_BRK	73
T_NUM_HLD	49
T_NUM_SLD	123
T_NUM_ALL	1118
T_JUDGE_TAP	946
T_JUDGE_HLD	92
T_JUDGE_SLD	123
T_JUDGE_ALL	1161
TTM_EACHPAIRS	187
TTM_SCR_TAP	436500
TTM_SCR_BRK	189800
TTM_SCR_HLD	49000
TTM_SCR_SLD	184500
TTM_SCR_ALL	859800
TTM_SCR_S	826950
TTM_SCR_SS	852500
TTM_RAT_ACV	10085

