VERSION	0.00.00	1.03.00
FES_MODE	0
BPM_DEF	205.000	205.000	205.000	205.000
MET_DEF	4	4
RESOLUTION	384
CLK_DEF	384
COMPATIBLE_CODE	MA2

BPM	0	0	205.000
MET	0	0	4	4
MET	30	0	4	3
MET	30	288	4	4
MET	31	288	4	3
MET	32	192	4	4
MET	52	192	4	3
MET	56	96	4	4
MET	73	96	4	3
MET	82	96	4	4
MET	109	96	4	3
MET	110	288	4	5
MET	114	192	4	3
MET	116	0	4	5
MET	119	288	4	4

XTP	3	0	1
XTP	3	0	7
TAP	3	96	6
TAP	3	144	6
TAP	3	192	4
TAP	3	288	5
TAP	3	336	3
TAP	3	336	5
TAP	4	48	2
TAP	4	96	2
TAP	4	96	4
TAP	4	192	1
TAP	4	192	5
HLD	5	0	6	96
TAP	5	96	4
TAP	5	144	4
TAP	5	192	5
TAP	5	288	3
TAP	5	336	3
TAP	6	48	2
TAP	6	48	4
TAP	6	144	3
TAP	6	144	5
TAP	6	240	7
TAP	6	288	0
TAP	6	336	1
HLD	7	0	1	96
TAP	7	96	3
TAP	7	144	3
TAP	7	192	2
TAP	7	288	5
TAP	7	336	3
TAP	7	336	5
TAP	8	48	2
TAP	8	48	4
TAP	8	144	3
TAP	8	144	5
TAP	8	240	0
TAP	8	288	7
TAP	8	336	6
HLD	9	0	6	96
TAP	9	96	4
TAP	9	144	4
TAP	9	192	5
TAP	9	288	3
TAP	9	336	3
TAP	10	48	2
TAP	10	48	4
TAP	10	144	3
TAP	10	144	5
TAP	10	240	7
TAP	10	288	0
TAP	10	336	1
HLD	11	0	1	96
TAP	11	96	3
TAP	11	144	3
TAP	11	192	2
TAP	11	288	5
TAP	11	336	3
TAP	11	336	5
TAP	12	48	2
TAP	12	48	4
TAP	12	144	1
TAP	12	144	5
TAP	12	240	6
TAP	12	288	3
TAP	12	288	6
HLD	13	0	7	96
TAP	13	96	4
TAP	13	144	4
TAP	13	240	2
TAP	13	288	2
HLD	14	0	0	96
TAP	14	96	3
TAP	14	144	3
TAP	14	240	5
TAP	14	288	5
HLD	15	0	6	96
HLD	15	96	4	96
HLD	15	192	3	96
TAP	15	288	1
TAP	15	336	1
TAP	16	48	7
TAP	16	144	3
TAP	16	144	5
TAP	16	240	2
TAP	16	288	2
HLD	17	0	0	96
TAP	17	96	3
TAP	17	144	3
TAP	17	240	5
TAP	17	288	5
HLD	18	0	7	96
TAP	18	96	4
TAP	18	144	4
TAP	18	240	2
TAP	18	288	2
HLD	19	0	1	96
HLD	19	96	3	96
HLD	19	192	4	96
TAP	19	288	6
TAP	19	336	6
TAP	20	48	0
TAP	20	48	7
TAP	20	96	0
TAP	20	96	7
TAP	20	192	3
TAP	20	192	4
TAP	20	288	2
TAP	20	288	5
STR	21	0	6
SI_	21	0	6	96	96	2
TAP	21	192	1
HLD	21	240	1	96
HLD	21	336	3	96
HLD	22	48	4	96
HLD	22	144	6	96
HLD	22	240	0	96
TAP	22	336	3
TAP	23	0	3
TAP	23	96	4
TAP	23	96	6
XTP	23	192	7
XHO	23	240	7	96
TAP	23	336	4
TAP	24	0	4
TAP	24	96	1
TAP	24	96	3
XTP	24	192	0
XTP	24	240	0
TAP	24	336	5
HLD	25	0	5	96
HLD	25	96	7	96
HLD	25	192	0	96
HLD	25	288	2	96
TAP	26	0	5
TAP	26	96	3
TAP	26	96	4
TAP	26	192	1
TAP	26	192	6
XTP	26	240	0
XHO	26	288	0	96
STR	27	0	7
SCL	27	0	7	96	96	4
STR	27	192	0
SCR	27	192	0	96	96	3
TAP	28	0	7
TAP	28	96	5
TAP	28	192	3
TAP	28	192	4
TAP	28	288	2
TAP	28	288	5
HLD	29	0	3	96
HLD	29	0	6	96
HLD	29	144	1	96
HLD	29	144	4	96
HLD	29	288	3	96
HLD	29	288	6	96
TAP	30	48	1
TAP	30	48	4
TAP	30	144	3
TAP	30	144	6
TAP	30	192	3
TAP	30	192	6
HLD	30	288	0	96
HLD	30	288	5	96
HLD	31	48	2	96
HLD	31	48	7	96
HLD	31	192	0	96
HLD	31	192	5	96
HLD	31	336	2	96
TAP	31	336	7
TAP	32	48	4
TAP	32	96	4
STR	32	192	5
SCL	32	192	5	96	96	2
TAP	33	0	0
TAP	33	96	1
STR	33	192	2
SI_	33	192	2	96	96	6
STR	34	0	5
SI_	34	0	5	96	96	1
HLD	34	192	2	288
TAP	34	336	5
HLD	35	0	5	96
TAP	35	192	3
TAP	35	240	4
TAP	35	288	3
TAP	35	288	4
XTP	36	0	1
XTP	36	0	6
BRK	36	192	2
BRK	36	192	7
TAP	36	288	0
TAP	36	288	1
STR	36	336	0
SI_	36	336	0	96	48	5
STR	36	336	1
SI_	36	336	1	96	48	4
TAP	37	144	6
HLD	37	192	6	96
HLD	37	288	4	96
HLD	38	0	3	96
TAP	38	96	1
TAP	38	192	0
TAP	38	192	4
TAP	38	288	6
HLD	38	336	6	96
TAP	39	48	4
TAP	39	144	1
HLD	39	192	1	96
TAP	39	288	3
TAP	40	0	3
TAP	40	0	4
STR	40	96	4
SI_	40	96	4	96	48	0
TAP	40	96	6
HLD	40	192	7	144
TAP	40	336	0
TAP	41	48	4
TAP	41	48	6
TAP	41	144	3
TAP	41	192	3
TAP	41	288	1
TAP	41	288	5
TAP	42	0	2
TAP	42	0	4
STR	42	96	0
SCR	42	96	0	96	48	3
STR	42	96	6
SI_	42	96	6	96	48	3
TAP	42	336	1
TAP	42	336	7
TAP	43	0	1
TAP	43	0	7
XTP	43	144	0
XTP	43	144	6
XTP	43	192	0
XTP	43	192	6
XTP	43	264	1
XTP	43	264	5
XTP	43	336	2
XTP	43	336	4
XHO	44	0	2	96
XHO	44	0	4	96
BRK	44	192	0
BRK	44	192	5
TAP	44	288	6
TAP	44	288	7
STR	44	336	6
SI_	44	336	6	96	48	3
STR	44	336	7
SI_	44	336	7	96	48	2
TAP	45	144	1
HLD	45	192	1	96
HLD	45	288	3	96
HLD	46	0	4	96
TAP	46	96	6
TAP	46	192	3
TAP	46	192	7
TAP	46	288	1
HLD	46	336	1	96
TAP	47	48	3
TAP	47	144	6
HLD	47	192	6	96
TAP	47	288	4
TAP	48	0	3
TAP	48	0	4
TAP	48	96	1
STR	48	96	3
SI_	48	96	3	96	48	7
BRK	48	192	0
HLD	49	0	1	96
HLD	49	96	3	96
HLD	49	192	4	96
HLD	49	288	6	96
HLD	50	0	7	96
TAP	50	96	0
BRK	50	192	1
BRK	50	192	6
TTP	50	288	3	E	0	M1
TTP	50	288	5	E	0	M1
BRK	51	0	2
BRK	51	0	5
TTP	51	96	3	B	0	M1
TTP	51	96	4	B	0	M1
BRK	51	192	0
BRK	51	192	7
TTP	51	288	2	B	0	M1
TTP	51	288	5	B	0	M1
HLD	52	0	1	192
HLD	52	0	6	480
TAP	54	0	2
TAP	54	0	4
TAP	54	72	2
TAP	54	72	4
TAP	54	144	2
TAP	54	144	4
XTP	54	192	5
XTP	54	240	5
TAP	54	288	3
TAP	54	288	6
TAP	54	360	3
TAP	54	360	6
TAP	55	48	3
TAP	55	48	6
XTP	55	96	2
XTP	55	144	2
TAP	55	192	1
TAP	55	192	4
TAP	55	264	1
TAP	55	264	4
TAP	55	336	1
TAP	55	336	4
XTP	56	0	5
XTP	56	48	5
TAP	56	96	4
TAP	56	96	6
TAP	56	168	4
TAP	56	168	6
TAP	56	240	4
TAP	56	240	6
XTP	56	288	3
XTP	56	336	3
XTP	57	0	4
XTP	57	48	4
HLD	57	96	2	720
TAP	57	192	3
TAP	57	288	3
TAP	58	0	3
TAP	58	96	3
TAP	58	192	3
TAP	58	288	3
TAP	59	0	3
HLD	59	96	5	720
TAP	59	192	4
TAP	59	288	4
TAP	60	0	4
TAP	60	96	4
TAP	60	192	4
TAP	60	288	4
TAP	61	0	4
STR	61	96	2
SI_	61	96	2	96	48	5
TAP	61	288	6
TAP	61	336	6
TAP	62	0	4
TAP	62	48	4
TAP	62	48	5
TAP	62	144	3
TAP	62	144	6
TAP	62	240	2
TAP	62	288	2
TAP	62	336	4
TAP	63	0	3
TAP	63	0	4
STR	63	96	5
SI_	63	96	5	96	48	2
TAP	63	288	1
TAP	63	336	1
TAP	64	0	3
TAP	64	48	2
TAP	64	48	3
TAP	64	144	1
TAP	64	144	4
TAP	64	240	5
TAP	64	288	3
TAP	64	288	5
TAP	65	0	2
TAP	65	0	6
TAP	65	96	1
TAP	65	192	2
TAP	65	192	4
TAP	65	288	7
TAP	65	336	7
TAP	66	48	4
TAP	66	48	6
TAP	66	144	1
TAP	66	144	3
TAP	66	240	5
TAP	66	288	5
TAP	66	336	4
TAP	67	48	3
TAP	67	48	6
TAP	67	144	2
TAP	67	144	4
TAP	67	240	1
TAP	67	288	1
TAP	67	336	3
TAP	68	48	2
TAP	68	48	7
TAP	68	144	0
TAP	68	144	5
TAP	68	240	6
TAP	68	288	6
TAP	68	336	4
TAP	69	48	3
TAP	69	48	5
TAP	69	96	2
TAP	69	144	1
TAP	69	144	3
TAP	69	240	4
TAP	69	240	6
TAP	69	336	0
TAP	69	336	6
TAP	70	48	1
TAP	70	96	1
TAP	70	144	3
TAP	70	240	0
TAP	70	240	4
TAP	70	336	2
TAP	70	336	6
TAP	71	48	5
TAP	71	96	5
TAP	71	144	4
TAP	71	240	2
TAP	71	240	6
TAP	71	336	1
TAP	71	336	5
TAP	72	48	7
TAP	72	96	7
TAP	72	144	0
TAP	72	240	1
TAP	72	240	6
TAP	72	288	1
TAP	72	288	6
TAP	73	0	3
TAP	73	0	4
STR	73	96	2
SCL	73	96	2	96	288	4
TAP	73	96	5
TAP	74	192	4
TAP	74	192	5
XTP	74	288	3
XTP	74	288	6
XTP	74	360	3
XTP	74	360	6
XTP	75	48	3
XTP	75	48	6
TAP	75	144	2
HLD	75	192	2	96
HLD	75	288	0	96
HLD	76	0	7	96
HLD	76	96	5	96
TAP	76	192	3
TAP	76	240	3
TAP	76	288	4
TAP	77	0	2
TAP	77	0	5
TAP	77	96	1
TAP	77	192	7
TAP	77	240	7
TAP	77	288	0
TAP	78	0	3
TAP	78	0	6
TAP	78	96	1
TAP	78	96	4
TAP	78	192	0
TAP	78	288	1
TAP	78	288	3
TAP	79	0	4
TAP	79	96	3
TAP	79	96	5
TAP	79	192	6
TAP	79	240	6
STR	79	288	3
SCL	79	288	3	96	96	0
STR	80	96	7
SCL	80	96	7	96	96	4
TAP	80	288	3
TAP	81	0	2
TAP	81	48	2
STR	81	96	4
SI_	81	96	4	96	96	7
STR	81	288	0
SI_	81	288	0	96	96	3
HLD	82	96	4	384
TAP	82	192	3
TAP	82	288	3
TAP	83	0	3
HLD	83	96	3	384
TAP	83	192	4
TAP	83	288	4
TAP	84	0	4
TAP	84	96	4
TAP	84	192	6
TAP	84	240	6
TAP	84	288	4
TAP	85	0	3
TAP	85	0	5
TAP	85	48	3
TAP	85	48	5
TAP	85	144	2
TAP	85	192	1
TAP	85	192	3
TAP	85	288	5
TAP	85	336	4
TAP	85	336	6
TAP	86	48	0
TAP	86	48	7
STR	86	96	0
SI_	86	96	0	96	48	4
STR	86	96	7
SI_	86	96	7	96	48	3
XTP	86	288	2
XTP	86	288	5
BRK	87	96	0
BRK	87	96	6
TAP	87	192	1
TAP	87	192	7
STR	87	240	1
SI_	87	240	1	96	48	4
STR	87	240	7
SI_	87	240	7	96	48	3
TAP	88	48	2
TAP	88	48	5
HLD	88	96	2	96
TAP	88	96	5
HLD	88	192	0	96
HLD	88	288	7	96
TAP	89	0	5
TAP	89	96	0
TAP	89	96	4
TAP	89	192	2
HLD	89	240	2	96
TAP	89	336	0
TAP	90	48	5
HLD	90	96	5	96
TAP	90	192	7
BRK	90	288	1
BRK	90	288	6
BST	91	0	3
SI_	91	0	3	96	48	0
BST	91	0	4
SI_	91	0	4	96	48	7
TAP	91	240	0
TAP	91	240	7
TAP	91	336	1
TAP	91	336	3
TAP	92	48	4
TAP	92	96	4
TAP	92	192	2
TAP	92	192	6
TAP	92	288	3
TAP	92	288	5
STR	93	0	1
SI_	93	0	1	96	48	4
STR	93	0	7
SCL	93	0	7	96	48	4
XTP	93	240	0
XTP	93	240	6
XTP	93	288	0
XTP	93	288	6
XTP	94	48	1
XTP	94	48	7
XTP	94	96	1
XTP	94	96	7
XTP	94	168	2
XTP	94	168	6
XTP	94	240	3
XTP	94	240	5
XHO	94	288	3	96
XHO	94	288	5	96
BRK	95	96	1
BRK	95	96	7
TAP	95	192	0
TAP	95	192	6
STR	95	240	0
SI_	95	240	0	96	48	4
STR	95	240	6
SI_	95	240	6	96	48	3
TAP	96	48	2
TAP	96	48	5
TAP	96	96	2
HLD	96	96	5	96
HLD	96	192	7	96
HLD	96	288	0	96
TAP	97	0	2
TAP	97	96	3
TAP	97	96	7
TAP	97	192	5
HLD	97	240	5	96
TAP	97	336	7
TAP	98	48	2
HLD	98	96	2	96
TAP	98	192	0
BRK	98	288	1
BRK	98	288	5
BST	99	0	2
SI_	99	0	2	96	48	7
BST	99	0	4
SI_	99	0	4	96	48	6
HLD	99	288	6	96
HLD	100	0	4	96
HLD	100	96	3	96
HLD	100	192	1	96
HLD	100	288	0	96
TAP	101	0	7
BRK	101	96	2
BRK	101	96	6
TTP	101	192	3	E	0	M1
TTP	101	192	5	E	0	M1
BRK	101	288	1
BRK	101	288	5
TTP	102	0	3	B	0	M1
TTP	102	0	4	B	0	M1
TTP	102	0	4	E	0	M1
BRK	102	96	0
BRK	102	96	7
TTP	102	192	2	B	0	M1
TTP	102	192	3	E	0	M1
TTP	102	192	5	B	0	M1
TTP	102	192	5	E	0	M1
BRK	102	288	1
BRK	102	288	6
STR	103	0	3
SCL	103	0	3	96	288	4
TAP	103	0	4
TTP	103	96	0	C	1	M1
TAP	104	96	6
TAP	104	192	4
TAP	104	192	6
TAP	104	288	3
TAP	105	0	2
TAP	105	0	4
TAP	105	96	1
TAP	105	192	1
TAP	105	192	3
TAP	105	288	4
TAP	106	0	3
TAP	106	0	5
TAP	106	96	6
TAP	106	144	6
TAP	106	192	0
TAP	106	288	1
TAP	106	288	5
TAP	107	0	2
TAP	107	0	6
TAP	107	96	1
TAP	107	192	1
TAP	107	192	3
TAP	107	288	4
TAP	108	0	5
TAP	108	0	6
TAP	108	96	0
TAP	108	96	7
TAP	108	192	1
TAP	108	192	2
TAP	108	288	3
TAP	108	288	4
HLD	109	0	5	96
HLD	109	0	6	144
XTP	110	0	2
XTP	110	0	4
TAP	110	96	3
TAP	110	144	3
TAP	110	192	4
TAP	110	288	3
TAP	110	288	5
TAP	110	360	2
TAP	110	360	4
TAP	111	48	1
TAP	111	48	3
TAP	111	144	0
TAP	111	192	0
TAP	111	240	3
TAP	111	288	3
TAP	111	336	2
TAP	112	48	2
TAP	112	48	4
TAP	112	120	3
TAP	112	120	5
TAP	112	192	4
TAP	112	192	6
TAP	112	288	7
TAP	112	336	7
TAP	113	0	2
TAP	113	96	2
TAP	113	96	4
TAP	113	168	3
TAP	113	168	5
TAP	113	240	4
TAP	113	240	6
TAP	113	336	7
TAP	114	0	7
TAP	114	48	4
TAP	114	96	4
TAP	114	144	5
TAP	114	240	3
TAP	114	240	5
TAP	114	312	2
TAP	114	312	4
TAP	115	0	1
TAP	115	0	3
TAP	115	96	0
TAP	115	144	0
TAP	115	192	5
TAP	115	240	5
BRK	115	288	3
TAP	116	0	3
TAP	116	0	5
TAP	116	72	2
TAP	116	72	4
TAP	116	144	1
TAP	116	144	3
TAP	116	240	0
TAP	116	288	0
TAP	116	336	3
TAP	117	0	3
TAP	117	48	2
TAP	117	144	2
TAP	117	144	4
TAP	117	216	3
TAP	117	216	5
TAP	117	288	4
TAP	117	288	6
TAP	118	0	7
TAP	118	48	7
STR	118	96	1
SI_	118	96	1	96	48	5
STR	118	192	6
SI_	118	192	6	96	48	2
TAP	119	48	0
TAP	119	96	0
TAP	119	144	3
TAP	119	240	3
TAP	119	240	6
TAP	119	336	7
STR	120	0	7
SI_	120	0	7	96	48	3
TAP	120	96	2
BRK	120	192	1
HLD	120	288	0	96
HLD	120	288	3	96
HLD	121	48	2	96
HLD	121	48	5	96
HLD	121	192	4	96
HLD	121	192	7	96
TAP	121	336	2
TAP	121	336	5
THO	122	48	0	192	C	0	M1

T_REC_TAP	480
T_REC_BRK	29
T_REC_XTP	48
T_REC_HLD	87
T_REC_XHO	6
T_REC_STR	33
T_REC_BST	4
T_REC_XST	0
T_REC_TTP	16
T_REC_THO	1
T_REC_SLD	37
T_REC_ALL	741
T_NUM_TAP	577
T_NUM_BRK	33
T_NUM_HLD	94
T_NUM_SLD	37
T_NUM_ALL	741
T_JUDGE_TAP	610
T_JUDGE_HLD	244
T_JUDGE_SLD	37
T_JUDGE_ALL	891
TTM_EACHPAIRS	188
TTM_SCR_TAP	288500
TTM_SCR_BRK	85800
TTM_SCR_HLD	94000
TTM_SCR_SLD	55500
TTM_SCR_ALL	523800
TTM_SCR_S	504900
TTM_SCR_SS	520500
TTM_RAT_ACV	10063

