VERSION	0.00.00	1.03.00
FES_MODE	0
BPM_DEF	205.000	205.000	205.000	205.000
MET_DEF	4	4
RESOLUTION	384
CLK_DEF	384
COMPATIBLE_CODE	MA2

BPM	0	0	205.000
MET	0	0	4	4
MET	30	0	4	3
MET	30	288	4	4
MET	31	288	4	3
MET	32	192	4	4
MET	52	192	4	3
MET	56	96	4	4
MET	73	96	4	3
MET	82	96	4	4
MET	109	96	4	3
MET	110	288	4	5
MET	114	192	4	3
MET	116	0	4	5
MET	119	288	4	4

TAP	3	0	3
TAP	3	96	3
TAP	3	192	4
TAP	3	288	4
TAP	4	0	3
TAP	4	0	4
TAP	4	96	3
TAP	4	96	4
TAP	4	192	2
TAP	4	192	5
BRK	5	0	6
TAP	5	96	6
TAP	5	192	6
TAP	5	192	7
TAP	6	0	1
TAP	6	96	1
TAP	6	192	0
TAP	6	192	1
TAP	7	0	6
TAP	7	96	6
TAP	7	192	7
TAP	7	288	7
TAP	8	0	0
TAP	8	96	0
TAP	8	192	1
TAP	8	192	7
TAP	9	0	2
TAP	9	96	2
TAP	9	192	2
TAP	9	192	3
TAP	10	0	5
TAP	10	96	5
TAP	10	192	4
TAP	10	192	5
TAP	11	0	2
TAP	11	96	2
TAP	11	192	3
TAP	11	288	3
TAP	12	0	3
TAP	12	0	4
TAP	12	96	3
TAP	12	96	4
XTP	12	192	2
XTP	12	192	5
HLD	13	0	6	192
TAP	13	192	7
HLD	14	0	1	192
TAP	14	192	0
HLD	15	0	6	192
HLD	15	192	7	192
HLD	16	0	0	192
TAP	16	192	1
HLD	17	0	2	192
TAP	17	192	3
HLD	18	0	5	192
TAP	18	192	4
HLD	19	0	2	192
HLD	19	192	3	192
HLD	20	0	4	192
TAP	20	192	5
TAP	21	0	6
TAP	21	96	6
TAP	21	192	7
TAP	22	0	1
TAP	22	96	1
TAP	22	192	0
TAP	23	0	6
TAP	23	96	6
TAP	23	192	7
TAP	24	0	0
TAP	24	96	0
TAP	24	192	1
TAP	24	192	7
TAP	25	0	2
TAP	25	96	2
TAP	25	192	3
TAP	26	0	5
TAP	26	96	5
TAP	26	192	4
TAP	27	0	2
TAP	27	96	2
TAP	27	192	3
TAP	28	0	3
TAP	28	0	4
TAP	28	96	3
TAP	28	96	4
XTP	28	192	2
XTP	28	192	5
STR	29	0	6
SSR	29	0	6	96	384	2
STR	30	288	1
SSL	30	288	1	96	384	5
STR	32	192	6
SI_	32	192	6	96	192	3
STR	33	192	2
SI_	33	192	2	96	192	7
TAP	34	192	6
TAP	34	288	7
TAP	35	0	1
TAP	35	96	0
TAP	35	192	0
TAP	35	192	7
TAP	35	288	0
TAP	35	288	7
XTP	36	0	1
XTP	36	0	6
BRK	36	192	5
TAP	36	288	5
TAP	37	0	4
TAP	37	0	5
TAP	37	96	3
TAP	37	96	6
TAP	37	192	2
TAP	37	288	2
TAP	38	0	2
TAP	38	0	3
TAP	38	96	1
TAP	38	96	4
TAP	38	192	0
TAP	38	288	1
TAP	39	0	0
TAP	39	0	1
TAP	39	96	2
TAP	39	96	7
TAP	39	192	6
TAP	39	288	6
TAP	40	0	6
TAP	40	0	7
TAP	40	96	0
TAP	40	96	5
TAP	40	192	1
TAP	40	288	1
TAP	41	0	0
TAP	41	96	0
TAP	41	192	7
TAP	41	288	7
TAP	42	0	6
TAP	42	96	6
TAP	42	192	5
TAP	42	288	5
TAP	43	0	4
TAP	43	96	4
TAP	43	192	3
TAP	43	288	4
XTP	44	0	2
XTP	44	0	5
BRK	44	192	1
TAP	44	288	1
TAP	45	0	0
TAP	45	0	1
TAP	45	96	2
TAP	45	96	7
TAP	45	192	6
TAP	45	288	6
TAP	46	0	6
TAP	46	0	7
TAP	46	96	0
TAP	46	96	5
TAP	46	192	4
TAP	46	288	5
TAP	47	0	4
TAP	47	0	5
TAP	47	96	3
TAP	47	96	6
TAP	47	192	2
TAP	47	288	3
TAP	47	288	4
TAP	48	0	2
TAP	48	0	5
TAP	48	96	1
TAP	48	96	6
BRK	48	192	0
BRK	48	192	7
TAP	49	0	6
TAP	49	96	7
TAP	49	192	0
TAP	49	288	1
TAP	50	0	0
TAP	50	0	7
TTP	50	192	6	B	0	L1
TTP	50	192	7	B	0	L1
TTP	51	0	0	B	0	L1
TTP	51	0	1	B	0	L1
TTP	51	192	2	B	0	L1
TTP	51	192	3	B	0	L1
TTP	52	0	4	B	0	L1
TTP	52	0	5	B	0	L1
TTP	52	192	0	C	1	L1
TAP	54	0	2
TAP	54	0	3
TAP	54	96	2
TAP	54	96	3
TAP	54	192	2
TAP	54	192	3
TAP	54	288	4
TAP	54	288	5
TAP	55	0	4
TAP	55	0	5
TAP	55	96	4
TAP	55	96	5
TAP	55	192	2
TAP	55	192	3
TAP	55	288	2
TAP	55	288	3
TAP	56	0	2
TAP	56	0	3
TAP	56	96	4
TAP	56	96	5
TAP	56	192	4
TAP	56	192	5
TAP	56	288	4
TAP	56	288	5
BRK	57	0	3
BRK	57	0	6
XHO	57	96	2	192
HLD	57	288	3	192
HLD	58	96	4	192
TAP	58	288	5
HLD	59	96	6	192
HLD	59	288	7	192
HLD	60	96	0	192
TAP	60	288	1
STR	61	96	2
SI_	61	96	2	96	192	7
STR	62	96	6
SI_	62	96	6	96	192	2
STR	63	96	1
SI_	63	96	1	96	192	5
STR	64	96	6
SI_	64	96	6	96	192	3
TAP	65	96	2
TAP	65	192	2
TAP	65	288	2
TAP	65	288	3
TAP	66	96	5
TAP	66	192	5
TAP	66	288	4
TAP	66	288	5
TAP	67	96	2
TAP	67	192	2
TAP	67	288	2
TAP	67	288	3
TAP	68	96	4
TAP	68	96	5
TAP	68	192	4
TAP	68	192	5
TAP	68	288	3
TAP	68	288	6
TAP	69	96	6
TAP	69	192	6
TAP	69	288	6
TAP	69	288	7
TAP	70	96	1
TAP	70	192	1
TAP	70	288	0
TAP	70	288	1
TAP	71	96	6
TAP	71	192	6
TAP	71	288	6
TAP	71	288	7
TAP	72	96	0
TAP	72	96	7
TAP	72	192	0
TAP	72	192	7
BRK	72	288	1
BRK	72	288	6
TTP	73	96	2	B	0	L1
TTP	73	96	3	B	0	L1
TTP	73	96	3	E	0	L1
TTP	74	288	4	B	0	L1
TTP	74	288	5	B	0	L1
TTP	74	288	5	E	0	L1
TTP	76	96	3	B	0	L1
TTP	76	96	3	E	0	L1
TTP	77	0	1	B	0	L1
TTP	77	0	1	E	0	L1
TTP	77	288	7	B	0	L1
TTP	77	288	7	E	0	L1
TTP	78	192	5	B	0	L1
TTP	78	192	5	E	0	L1
TTP	79	96	1	B	0	L1
TTP	79	192	2	B	0	L1
TTP	80	0	6	B	0	L1
TTP	80	96	5	B	0	L1
TTP	80	288	1	B	0	L1
TTP	81	0	2	B	0	L1
TTP	81	192	6	B	0	L1
TTP	81	288	5	B	0	L1
XHO	82	96	2	192
HLD	82	288	3	192
HLD	83	96	4	192
TAP	83	288	5
TAP	84	96	6
TAP	84	192	6
TAP	84	288	7
TAP	85	0	7
TAP	85	96	0
TAP	85	96	7
TAP	85	192	0
TAP	85	192	7
TAP	85	288	1
TAP	85	288	6
TAP	86	96	3
TAP	86	96	4
TAP	86	192	3
TAP	86	192	4
TAP	86	288	2
TAP	86	288	5
BRK	87	96	1
TAP	87	192	0
TAP	87	192	1
TAP	87	288	1
TAP	88	0	0
TAP	88	0	1
TAP	88	96	2
TAP	88	192	2
TAP	88	192	3
TAP	88	288	2
TAP	89	0	2
TAP	89	0	3
TAP	89	96	5
TAP	89	192	4
TAP	89	192	5
TAP	89	288	5
TAP	90	0	4
TAP	90	0	5
TAP	90	96	6
TAP	90	192	6
TAP	90	192	7
TAP	90	288	6
TAP	91	0	6
TAP	91	0	7
TAP	91	96	5
TAP	91	192	4
TAP	91	288	3
TAP	92	0	2
TAP	92	96	1
TAP	92	192	0
TAP	92	288	7
TAP	93	0	6
STR	93	96	4
SCL	93	96	4	96	192	1
STR	93	96	5
SCR	93	96	5	96	192	0
TAP	94	96	0
TAP	94	96	1
TAP	94	192	2
TAP	94	192	7
XTP	94	288	3
XTP	94	288	6
BRK	95	96	5
TAP	95	192	4
TAP	95	192	5
TAP	95	288	5
TAP	96	0	4
TAP	96	0	5
TAP	96	96	6
TAP	96	192	6
TAP	96	192	7
TAP	96	288	6
TAP	97	0	6
TAP	97	0	7
TAP	97	96	1
TAP	97	192	0
TAP	97	192	1
TAP	97	288	1
TAP	98	0	0
TAP	98	0	1
TAP	98	96	2
TAP	98	192	3
TAP	98	192	4
TAP	98	288	2
TAP	98	288	5
TAP	99	0	1
TAP	99	0	6
BRK	99	96	0
BRK	99	96	7
TAP	99	288	6
TAP	100	0	7
TAP	100	96	0
TAP	100	192	1
TAP	100	288	0
TAP	100	288	7
TTP	101	96	2	E	0	L1
TTP	101	96	6	E	0	L1
TTP	101	288	1	E	0	L1
TTP	101	288	7	E	0	L1
TTP	102	96	3	E	0	L1
TTP	102	96	5	E	0	L1
THO	102	288	0	576	C	1	L1
XST	105	96	7
SCL	105	96	7	96	480	2
STR	107	96	0
SCR	107	96	0	96	480	5
XHO	109	96	6	288
XHO	109	96	7	288
BRK	110	288	5
TAP	111	0	5
TAP	111	96	4
TAP	111	192	2
TAP	111	288	2
TAP	112	0	3
TAP	112	96	5
TAP	112	192	4
TAP	112	288	3
TAP	113	0	2
BRK	113	96	1
TAP	113	192	1
TAP	113	288	0
TAP	114	0	6
TAP	114	96	6
TAP	114	192	7
TAP	114	288	1
TAP	115	0	0
TAP	115	96	7
TAP	115	192	6
TAP	115	288	5
BRK	116	0	6
TAP	116	96	6
TAP	116	192	7
TAP	116	288	1
TAP	117	0	1
TAP	117	96	0
TAP	117	192	6
TAP	117	288	7
TAP	118	0	0
TAP	118	96	1
BRK	118	192	2
TAP	118	288	2
TAP	119	0	3
TAP	119	96	5
TAP	119	192	5
TAP	119	288	4
TAP	120	0	3
TAP	120	96	3
TAP	120	192	4
XTP	120	288	3
XTP	120	288	4
XTP	121	48	3
XTP	121	48	4
XTP	121	192	3
XTP	121	192	4
XTP	121	336	3
XTP	121	336	4
TTP	122	48	0	C	1	L1

T_REC_TAP	326
T_REC_BRK	17
T_REC_XTP	18
T_REC_HLD	17
T_REC_XHO	4
T_REC_STR	11
T_REC_BST	0
T_REC_XST	1
T_REC_TTP	38
T_REC_THO	1
T_REC_SLD	12
T_REC_ALL	445
T_NUM_TAP	394
T_NUM_BRK	17
T_NUM_HLD	22
T_NUM_SLD	12
T_NUM_ALL	445
T_JUDGE_TAP	411
T_JUDGE_HLD	100
T_JUDGE_SLD	12
T_JUDGE_ALL	523
TTM_EACHPAIRS	97
TTM_SCR_TAP	197000
TTM_SCR_BRK	44200
TTM_SCR_HLD	22000
TTM_SCR_SLD	18000
TTM_SCR_ALL	281200
TTM_SCR_S	271150
TTM_SCR_SS	279500
TTM_RAT_ACV	10060

