VERSION	0.00.00	1.03.00
FES_MODE	0
BPM_DEF	205.000	205.000	205.000	205.000
MET_DEF	4	4
RESOLUTION	384
CLK_DEF	384
COMPATIBLE_CODE	MA2

BPM	0	0	205.000
MET	0	0	4	4
MET	30	0	4	3
MET	30	288	4	4
MET	31	288	4	3
MET	32	192	4	4
MET	52	192	4	3
MET	56	96	4	4
MET	73	96	4	3
MET	82	96	4	4
MET	109	96	4	3
MET	110	288	4	5
MET	114	192	4	3
MET	116	0	4	5
MET	119	288	4	4

TAP	3	0	0
XTP	4	0	0
XTP	4	0	7
TAP	5	0	7
TAP	6	0	7
TAP	7	0	6
TAP	8	0	6
TAP	9	0	5
TAP	10	0	5
TAP	11	0	4
TAP	12	0	3
TAP	12	0	4
HLD	13	0	3	384
HLD	15	0	2	384
HLD	17	0	1	384
HLD	19	0	0	384
HLD	19	0	7	384
TAP	21	0	0
TAP	22	0	1
TAP	23	0	2
XTP	24	0	3
XTP	24	0	4
TAP	25	0	4
TAP	26	0	5
TAP	27	0	6
XTP	28	0	6
XTP	28	0	7
HLD	29	0	4	288
HLD	29	0	5	288
HLD	30	288	2	288
HLD	30	288	3	288
TAP	32	192	1
TAP	33	0	1
TAP	33	192	0
TAP	33	192	1
TAP	34	192	6
TAP	35	0	6
XTP	35	192	6
XTP	35	192	7
BRK	36	192	0
TAP	36	288	0
TAP	37	0	0
TAP	37	192	1
TAP	38	0	1
TAP	38	192	2
TAP	38	288	2
TAP	39	0	2
TAP	39	192	3
TAP	40	0	3
TAP	40	0	4
TAP	40	192	4
TAP	40	288	4
TAP	41	0	4
TAP	41	192	5
TAP	42	0	5
TAP	42	192	6
TAP	42	288	6
TAP	43	0	6
TAP	43	192	7
XTP	44	0	0
XTP	44	0	7
BRK	44	192	7
TAP	44	288	7
TAP	45	0	7
TAP	45	192	6
TAP	46	0	6
TAP	46	192	5
TAP	46	288	5
TAP	47	0	5
TAP	47	192	4
TAP	48	0	3
TAP	48	0	4
TAP	48	192	3
TAP	48	288	3
TAP	49	0	3
TAP	49	192	2
TAP	50	0	2
TAP	50	192	1
TAP	50	288	1
TAP	51	0	1
TAP	51	192	0
TAP	52	0	0
TAP	52	0	7
HLD	52	192	0	288
HLD	52	192	7	288
HLD	54	0	0	288
HLD	54	0	1	288
HLD	55	192	6	288
HLD	55	192	7	288
TAP	56	288	6
TAP	56	288	7
STR	57	96	0
SI_	57	96	0	96	480	3
TAP	60	96	7
STR	61	96	7
SI_	61	96	7	96	480	4
XTP	64	96	0
TAP	65	96	0
TAP	65	288	0
TAP	66	96	1
TAP	66	288	1
TAP	67	96	2
TAP	67	288	2
TAP	68	96	3
TAP	68	96	4
TAP	69	96	4
TAP	69	288	4
TAP	70	96	5
TAP	70	288	5
TAP	71	96	6
TAP	71	288	6
XTP	72	96	6
XTP	72	96	7
TTP	73	96	6	B	0	L1
TTP	73	96	7	B	0	L1
TTP	74	288	0	B	0	L1
TTP	74	288	1	B	0	L1
TTP	76	96	2	B	0	L1
TTP	76	96	3	B	0	L1
TTP	77	288	4	B	0	L1
TTP	77	288	5	B	0	L1
TTP	79	96	4	E	0	L1
TTP	80	288	3	E	0	L1
TTP	80	288	5	E	0	L1
THO	82	96	0	768	C	0	L1
TTP	82	96	2	E	0	L1
TTP	82	96	6	E	0	L1
XHO	85	96	0	384
XHO	85	96	7	384
BRK	87	96	7
TAP	87	192	7
TAP	87	288	7
TAP	88	96	6
TAP	88	192	6
TAP	88	288	6
TAP	89	96	5
TAP	89	192	5
TAP	89	288	5
TAP	90	96	4
TAP	90	192	4
XTP	90	288	3
XTP	90	288	4
TAP	91	96	3
TAP	91	192	3
TAP	91	288	3
TAP	92	96	2
TAP	92	192	2
TAP	92	288	2
TAP	93	96	1
TAP	93	192	1
TAP	93	288	1
TAP	94	96	0
TAP	94	192	0
XTP	94	288	0
XTP	94	288	7
BRK	95	96	0
TAP	95	192	0
TAP	95	288	0
TAP	96	0	0
TAP	96	96	1
TAP	96	192	1
TAP	96	288	0
TAP	96	288	1
TAP	97	96	7
TAP	97	192	7
TAP	97	288	7
TAP	98	0	7
TAP	98	96	6
TAP	98	192	6
TAP	98	288	6
TAP	98	288	7
TAP	99	96	5
TAP	99	192	5
TAP	99	288	4
TAP	99	288	5
TAP	100	96	2
TAP	100	192	2
TAP	100	288	2
TAP	100	288	3
TAP	101	96	4
TAP	101	192	4
TAP	101	288	3
TAP	101	288	4
TAP	102	96	3
TAP	102	96	4
BRK	102	288	2
BRK	102	288	5
TAP	103	96	1
TAP	103	288	1
TAP	104	96	0
TAP	104	96	1
TAP	104	288	0
TAP	104	288	1
TAP	105	96	7
TAP	105	288	7
TAP	106	96	6
TAP	106	288	6
TAP	106	288	7
TAP	107	96	0
TAP	107	288	0
TAP	108	96	7
TAP	108	288	7
HLD	109	96	0	288
HLD	109	96	7	288
STR	110	288	0
SI_	110	288	0	96	384	4
STR	113	96	7
SI_	113	96	7	96	384	3
STR	116	0	1
SI_	116	0	1	96	384	5
STR	118	192	6
SI_	118	192	6	96	384	2
TAP	120	288	0
TAP	120	288	7
TAP	121	0	0
TAP	121	0	7
TAP	121	96	1
TAP	121	96	6
TAP	121	192	1
TAP	121	192	6
HLD	121	288	2	144
HLD	121	288	5	144

T_REC_TAP	152
T_REC_BRK	6
T_REC_XTP	17
T_REC_HLD	19
T_REC_XHO	2
T_REC_STR	6
T_REC_BST	0
T_REC_XST	0
T_REC_TTP	13
T_REC_THO	1
T_REC_SLD	6
T_REC_ALL	222
T_NUM_TAP	188
T_NUM_BRK	6
T_NUM_HLD	22
T_NUM_SLD	6
T_NUM_ALL	222
T_JUDGE_TAP	194
T_JUDGE_HLD	150
T_JUDGE_SLD	6
T_JUDGE_ALL	350
TTM_EACHPAIRS	38
TTM_SCR_TAP	94000
TTM_SCR_BRK	15600
TTM_SCR_HLD	22000
TTM_SCR_SLD	9000
TTM_SCR_ALL	140600
TTM_SCR_S	135800
TTM_SCR_SS	140000
TTM_RAT_ACV	10042

