VERSION	0.00.00	1.03.00
FES_MODE	0
BPM_DEF	185.000	185.000	185.000	185.000
MET_DEF	4	4
RESOLUTION	384
CLK_DEF	384
COMPATIBLE_CODE	MA2

BPM	0	0	185.000
MET	0	0	4	4
MET	76	0	4	5
MET	77	96	4	3
MET	78	0	4	4

HLD	2	0	3	192
HLD	2	0	4	1056
HLD	2	336	5	336
TTP	4	0	5	B	0	M1
TTP	4	144	0	B	0	M1
TTP	4	288	2	B	0	M1
HLD	5	96	3	96
HLD	5	192	2	96
TAP	5	288	0
STR	6	0	5
SCR	6	0	5	96	48	0
TAP	6	96	1
STR	6	144	1
SCR	6	144	1	96	48	4
TAP	6	240	7
TAP	6	288	6
STR	6	336	6
SI_	6	336	6	96	48	3
TAP	7	48	0
TAP	7	96	0
TAP	7	192	6
TAP	7	192	7
TAP	7	288	3
TAP	7	288	4
TAP	8	0	0
STR	8	0	1
SCR	8	0	1	96	48	4
TAP	8	96	7
TAP	8	144	6
STR	8	192	5
SCR	8	192	5	96	144	4
XTP	8	288	1
TAP	9	96	0
TAP	9	192	7
TAP	9	288	6
TAP	10	0	3
TAP	10	0	5
TAP	10	96	2
TAP	10	96	4
STR	10	192	2
SV_	10	192	2	96	96	7
TAP	10	192	3
HLD	10	288	4	288
XTP	11	96	7
XTP	11	128	0
XTP	11	160	1
XTP	11	192	2
XTP	11	240	3
TAP	12	0	3
STR	12	0	6
SI_	12	0	6	96	48	3
TAP	12	96	2
STR	12	144	1
SI_	12	144	1	96	48	4
TAP	12	240	5
TAP	12	288	6
HLD	13	0	0	96
HLD	13	0	7	96
TAP	13	144	1
TAP	13	144	6
TAP	13	192	1
TAP	13	192	6
BRK	13	240	1
BRK	13	240	6
STR	14	0	2
SCR	14	0	2	96	384	5
STR	16	0	2
SCR	16	0	2	96	384	5
STR	18	0	2
SCR	18	0	2	96	384	5
TAP	19	240	4
TAP	19	288	3
TAP	19	288	5
TAP	20	0	3
TAP	20	0	4
TAP	20	96	2
HLD	20	96	5	96
TAP	20	192	3
TAP	20	240	4
XTP	20	288	1
TAP	21	0	2
TAP	21	0	3
HLD	21	96	1	96
TAP	21	96	4
TAP	21	192	3
TAP	21	240	2
XTP	21	288	5
TAP	22	0	3
TAP	22	0	4
HLD	22	96	2	96
TAP	22	96	5
TAP	22	192	4
TAP	22	240	3
XTP	22	288	6
TAP	23	0	4
TAP	23	0	5
TAP	23	96	3
HLD	23	96	6	96
TAP	23	192	4
TAP	23	240	5
XTP	23	288	0
TAP	24	0	1
TAP	24	0	7
TAP	24	48	6
TAP	24	96	5
TAP	24	144	0
TAP	24	144	4
TAP	24	192	1
TAP	24	240	2
TAP	24	288	3
HLD	24	288	7	192
XTP	25	96	0
TAP	25	192	6
TAP	25	224	4
TAP	25	256	5
TAP	25	288	1
TAP	25	320	3
TAP	25	352	2
BRK	26	0	7
STR	26	96	0
SCR	26	96	0	96	96	3
TAP	26	96	6
TAP	26	192	5
TAP	26	240	6
TAP	26	288	7
TAP	27	0	7
STR	27	96	4
SCL	27	96	4	96	96	1
TAP	27	96	6
TAP	27	192	6
TAP	27	240	5
TAP	27	288	4
TAP	28	0	0
TAP	28	96	1
STR	28	96	4
SCR	28	96	4	96	96	7
TAP	28	192	1
TAP	28	240	2
TAP	28	288	3
TAP	29	0	3
TAP	29	96	2
STR	29	96	6
SCL	29	96	6	96	96	3
TAP	29	192	2
TAP	29	240	1
TAP	29	288	0
TAP	30	0	0
TAP	30	0	4
STR	30	96	1
SI_	30	96	1	96	48	4
TAP	30	144	1
TAP	30	192	7
STR	30	288	6
SI_	30	288	6	96	48	3
TAP	30	336	6
TAP	31	0	0
STR	31	96	1
SI_	31	96	1	96	48	6
TAP	31	144	1
TAP	31	192	4
STR	31	288	5
SI_	31	288	5	96	48	2
TAP	31	336	5
HLD	32	0	3	96
TAP	32	96	1
HLD	32	144	1	96
TAP	32	240	0
HLD	32	288	0	96
HLD	33	0	4	96
TAP	33	96	6
HLD	33	144	6	96
TAP	33	240	7
STR	33	288	7
SI_	33	288	7	96	48	3
HLD	34	0	0	144
XTP	34	144	7
XTP	34	192	0
TAP	34	288	3
TAP	34	288	4
TAP	35	0	2
TAP	35	0	5
TAP	35	48	2
TAP	35	48	5
HLD	35	96	2	192
TAP	35	96	5
BRK	35	288	7
TAP	36	0	0
STR	36	0	1
SCR	36	0	1	96	48	4
TAP	36	96	6
STR	36	144	5
SCR	36	144	5	96	48	0
TAP	36	240	1
STR	36	288	1
SI_	36	288	1	96	48	5
STR	36	336	7
SI_	36	336	7	96	48	3
TAP	37	0	1
TAP	37	48	7
TAP	37	144	0
TAP	37	192	0
TAP	37	288	2
TAP	37	288	3
STR	38	0	1
SUR	38	0	1	96	96	3
TAP	38	0	4
XTP	38	96	5
XTP	38	144	6
XTP	38	192	7
TAP	38	288	2
TAP	38	288	6
TAP	38	336	3
TAP	38	336	5
TAP	39	0	4
TAP	39	96	4
TAP	39	96	5
TAP	39	192	0
TAP	39	192	7
TAP	39	288	2
STR	39	288	3
SXR	39	288	3	96	192	7
TAP	40	0	3
STR	40	0	4
SI_	40	0	4	96	96	6
TAP	40	288	1
TAP	40	288	5
TAP	40	336	1
TAP	40	336	5
TAP	41	48	0
TAP	41	48	7
TAP	41	144	1
HLD	41	192	1	72
HLD	41	264	2	72
TAP	41	336	3
TAP	42	0	3
STR	42	0	4
SCR	42	0	4	96	48	7
TAP	42	96	1
STR	42	144	0
SI_	42	144	0	96	48	3
SI_	42	144	0	96	48	5
TAP	42	240	0
TAP	42	336	1
TAP	42	336	7
HLD	43	0	1	96
HLD	43	0	7	96
TAP	43	144	4
TAP	43	144	5
TAP	43	192	4
TAP	43	192	5
BRK	43	288	0
BRK	43	288	7
STR	44	0	1
SI_	44	0	1	96	48	5
STR	44	96	6
SI_	44	96	6	96	48	1
STR	44	192	3
SI_	44	192	3	96	48	0
STR	44	288	7
SI_	44	288	7	96	48	3
STR	45	0	1
SCR	45	0	1	96	96	5
TAP	45	96	6
TAP	45	144	6
TAP	45	192	7
TAP	45	288	0
TAP	45	288	6
TAP	45	336	1
TAP	45	336	5
STR	46	0	2
SCR	46	0	2	96	48	5
TAP	46	0	4
TAP	46	96	7
STR	46	144	6
SCR	46	144	6	96	144	5
TAP	46	240	2
HLD	46	288	3	192
TAP	47	96	7
TAP	47	192	6
STR	47	288	1
SCL	47	288	1	96	384	6
STR	47	288	5
SUR	47	288	5	96	384	2
TAP	49	288	3
HLD	50	0	2	288
HLD	50	144	4	144
TAP	51	96	3
TAP	51	192	4
TAP	51	192	5
TAP	51	336	6
STR	52	0	6
SI_	52	0	6	96	48	3
TAP	52	96	7
STR	52	144	7
SI_	52	144	7	96	48	2
TAP	52	240	5
TAP	52	288	5
STR	52	336	5
SCR	52	336	5	96	144	2
SUR	52	336	5	96	144	2
TAP	53	336	5
STR	54	0	5
SI_	54	0	5	96	48	3
TAP	54	96	1
STR	54	144	1
SI_	54	144	1	96	48	4
TAP	54	240	7
TAP	54	336	6
TAP	55	0	4
TAP	55	0	6
TAP	55	48	5
TAP	55	96	1
TAP	55	96	3
TAP	55	144	2
BRK	55	192	7
BRK	55	240	7
TTP	56	0	0	C	1	M1
TTP	56	288	7	E	0	M1
TTP	57	0	2	E	0	M1
TTP	57	64	1	B	0	M1
TTP	57	128	0	B	0	M1
TTP	57	192	6	E	0	M1
TTP	57	256	5	B	0	M1
TTP	57	320	4	B	0	M1
TTP	58	0	2	B	0	M1
TTP	58	0	3	E	0	M1
TTP	58	144	5	B	0	M1
TTP	58	144	6	B	0	M1
TTP	58	288	1	B	0	M1
TTP	58	288	1	E	0	M1
TTP	59	192	3	B	0	M1
TTP	59	192	5	E	0	M1
TTP	59	288	0	C	0	M1
TTP	59	288	2	E	0	M1
TTP	60	0	0	B	0	M1
TTP	60	0	7	E	0	M1
TTP	60	288	1	E	0	M1
TTP	61	0	6	E	0	M1
TTP	61	64	6	B	0	M1
TTP	61	128	7	B	0	M1
TTP	61	192	2	E	0	M1
TTP	61	256	2	B	0	M1
TTP	61	320	3	B	0	M1
TTP	62	0	4	B	0	M1
TTP	62	0	5	B	0	M1
THO	62	144	0	432	C	0	M1
TAP	64	0	7
TAP	64	96	6
TAP	64	192	5
TAP	64	256	5
TAP	64	288	4
TAP	65	0	2
TAP	65	96	1
TAP	65	96	3
TAP	65	192	2
TAP	65	256	2
TAP	65	288	3
TAP	66	0	5
TAP	66	96	4
TAP	66	96	6
TAP	66	192	5
TAP	66	256	5
TAP	66	288	4
TAP	67	0	2
TAP	67	0	6
TAP	67	96	7
TAP	67	192	0
TAP	67	192	6
HLD	67	288	1	96
HLD	67	288	5	96
TAP	68	96	0
TAP	68	192	1
TAP	68	192	7
HLD	68	288	2	288
TAP	68	288	6
HLD	69	0	5	192
TAP	69	288	2
TAP	69	288	5
STR	70	0	1
SCL	70	0	1	96	288	2
XTP	71	192	1
XTP	71	224	2
XTP	71	256	3
XTP	71	288	4
XTP	71	320	5
XTP	71	352	6
HLD	72	0	7	288
TAP	72	288	6
TAP	72	336	5
HLD	73	0	4	384
TAP	74	0	3
XTP	75	192	2
XTP	75	192	5
TAP	76	0	2
STR	76	0	7
SI_	76	0	7	96	384	4
TAP	76	96	2
TAP	76	192	2
TAP	76	288	2
TAP	77	0	2
TAP	77	96	2
TAP	77	192	1
TAP	77	192	4
TAP	77	288	0
TAP	77	288	4
STR	78	0	0
SI_	78	0	0	96	384	3
TAP	78	0	4
TAP	78	96	4
TAP	78	192	4
TAP	78	288	4
TAP	79	0	4
TAP	79	96	4
TAP	79	192	3
TAP	79	192	5
TAP	79	288	3
TAP	79	288	6
TAP	80	0	3
STR	80	0	7
SI_	80	0	7	96	384	4
TAP	80	96	3
TAP	80	192	3
TAP	80	288	3
TAP	81	0	3
TAP	81	96	3
TAP	81	192	3
TAP	81	192	4
TAP	81	288	2
TAP	81	288	5
TAP	82	0	3
TAP	82	0	4
TAP	82	48	3
TAP	82	48	4
TAP	82	96	2
TAP	82	96	5
TAP	82	144	2
TAP	82	144	5
TAP	82	192	1
TAP	82	192	6
TAP	82	240	1
TAP	82	240	6
STR	82	288	0
SI_	82	288	0	96	48	3
STR	82	288	7
SI_	82	288	7	96	48	4
XTP	83	192	1
XTP	83	192	6
TTP	83	288	0	C	1	M1
TAP	84	0	0
STR	84	0	6
SI_	84	0	6	96	48	2
STR	84	96	1
SI_	84	96	1	96	48	6
TAP	84	96	6
TAP	84	192	1
STR	84	192	4
SI_	84	192	4	96	48	7
STR	84	288	0
SI_	84	288	0	96	48	4
TAP	84	288	4
TAP	85	0	0
STR	85	0	6
SCL	85	0	6	96	96	2
TAP	85	96	1
TAP	85	144	1
TAP	85	192	0
TAP	85	288	0
TAP	85	336	1
TAP	86	0	2
TAP	86	0	3
TAP	86	96	6
TAP	86	144	4
TAP	86	144	5
TAP	86	240	0
HLD	86	288	1	96
TAP	86	288	3
STR	87	0	0
SCL	87	0	0	96	96	5
STR	87	96	5
SCL	87	96	5	96	96	2
STR	87	192	2
SCL	87	192	2	96	96	7
STR	87	288	7
SCL	87	288	7	96	96	4
STR	88	0	4
SXL	88	0	4	96	288	3
TAP	88	96	0
HLD	88	144	0	240
XTP	89	192	2
XTP	89	192	4
TAP	89	288	3
TAP	90	0	4
TAP	90	96	4
TAP	90	144	3
STR	90	192	3
SF_	90	192	3	96	96	7
TTP	90	312	3	B	0	M1
TTP	90	336	0	C	0	M1
TTP	90	360	7	B	0	M1
XTP	91	192	1
XTP	91	192	5
TAP	91	288	2
TAP	91	288	3
STR	92	0	1
SI_	92	0	1	96	48	4
TAP	92	96	0
TAP	92	96	1
STR	92	192	0
SI_	92	192	0	96	48	5
TAP	92	288	0
TAP	92	288	1
STR	93	0	1
SI_	93	0	1	96	48	4
TAP	93	96	0
TAP	93	96	1
STR	93	192	0
SI_	93	192	0	96	48	5
TAP	93	288	0
TAP	93	288	3
TAP	94	0	2
TAP	94	48	2
TAP	94	96	2
TAP	94	96	3
TAP	94	144	2
TAP	94	144	3
TAP	94	192	1
TAP	94	192	4
TAP	94	240	1
TAP	94	240	4
TAP	94	288	0
TAP	94	288	5
TAP	94	336	0
TAP	94	336	5
STR	95	0	6
SI_	95	0	6	96	48	3
TAP	95	0	7
STR	95	96	2
SI_	95	96	2	96	48	6
STR	95	192	7
SI_	95	192	7	96	48	2
XST	95	288	0
SCR	95	288	0	96	336	7
TTP	96	0	0	C	1	M1
XTP	97	192	2
XTP	97	192	5
HLD	97	288	3	384
TAP	97	288	4
TTP	98	0	2	B	0	M1
TTP	98	144	0	B	0	M1
TTP	98	288	5	B	0	M1
STR	99	192	3
SCL	99	192	3	96	672	4
HLD	99	288	5	2208
TTP	105	144	3	B	0	M1
TTP	105	168	4	B	0	M1
TTP	105	192	5	E	0	M1

T_REC_TAP	295
T_REC_BRK	8
T_REC_XTP	32
T_REC_HLD	37
T_REC_XHO	0
T_REC_STR	68
T_REC_BST	0
T_REC_XST	1
T_REC_TTP	43
T_REC_THO	1
T_REC_SLD	71
T_REC_ALL	556
T_NUM_TAP	439
T_NUM_BRK	8
T_NUM_HLD	38
T_NUM_SLD	71
T_NUM_ALL	556
T_JUDGE_TAP	447
T_JUDGE_HLD	195
T_JUDGE_SLD	71
T_JUDGE_ALL	713
TTM_EACHPAIRS	108
TTM_SCR_TAP	219500
TTM_SCR_BRK	20800
TTM_SCR_HLD	38000
TTM_SCR_SLD	106500
TTM_SCR_ALL	384800
TTM_SCR_S	372500
TTM_SCR_SS	384000
TTM_RAT_ACV	10020

