VERSION	0.00.00	1.03.00
FES_MODE	0
BPM_DEF	185.000	185.000	185.000	185.000
MET_DEF	4	4
RESOLUTION	384
CLK_DEF	384
COMPATIBLE_CODE	MA2

BPM	0	0	185.000
MET	0	0	4	4
MET	76	0	4	5
MET	77	96	4	3
MET	78	0	4	4

HLD	2	0	5	288
TAP	2	288	3
HLD	2	336	3	432
TTP	4	0	5	B	0	M1
TTP	4	144	0	B	0	M1
TTP	4	288	2	B	0	M1
HLD	5	96	7	96
HLD	5	192	1	96
HLD	5	288	6	96
STR	6	0	0
SI_	6	0	0	96	48	3
TAP	6	96	5
STR	6	192	7
SI_	6	192	7	96	48	4
TAP	6	288	2
STR	7	0	0
SI_	7	0	0	96	48	4
TAP	7	96	5
STR	7	192	7
SI_	7	192	7	96	48	3
TAP	7	288	2
TAP	8	0	0
TAP	8	96	6
TAP	8	96	7
TAP	8	192	4
TAP	8	192	5
TAP	8	288	2
TAP	8	288	3
TAP	9	0	0
TAP	9	0	1
TAP	9	96	6
TAP	9	96	7
TAP	9	192	0
TAP	9	192	5
TAP	9	288	1
TAP	9	288	4
STR	10	0	2
SCL	10	0	2	96	288	6
TAP	10	0	3
STR	11	0	5
SCR	11	0	5	96	288	1
HLD	12	0	2	96
TAP	12	96	4
HLD	12	144	4	96
TAP	12	240	3
HLD	12	288	3	96
TAP	13	0	5
TAP	13	48	5
TAP	13	96	4
TAP	13	192	1
TAP	13	192	7
TAP	13	240	1
TAP	13	240	7
STR	14	0	2
SCR	14	0	2	96	384	5
STR	16	0	2
SCR	16	0	2	96	384	5
STR	18	0	2
SCR	18	0	2	96	384	5
TAP	19	192	4
TAP	19	240	4
XTP	19	288	3
XTP	19	288	5
HLD	20	0	6	192
TAP	20	96	4
TAP	20	192	3
TAP	20	288	2
TAP	20	288	4
HLD	21	0	1	192
TAP	21	96	3
TAP	21	192	4
TAP	21	288	3
TAP	21	288	5
HLD	22	0	6	96
TAP	22	96	3
HLD	22	144	3	96
TAP	22	240	4
TAP	22	288	4
TAP	23	0	2
TAP	23	48	3
TAP	23	96	1
TAP	23	96	4
TAP	23	192	0
TAP	23	240	0
TAP	23	288	7
TAP	24	0	1
TAP	24	0	7
TAP	24	96	2
HLD	24	144	2	96
TAP	24	240	4
HLD	24	288	4	192
TAP	25	96	0
TAP	25	192	0
BRK	25	288	1
BRK	25	288	6
TAP	26	0	4
TAP	26	0	5
TAP	26	96	4
TAP	26	96	5
TAP	26	192	4
TAP	26	192	6
TAP	26	288	4
XTP	26	288	7
TAP	27	0	4
TAP	27	0	5
TAP	27	96	4
TAP	27	96	5
TAP	27	192	4
TAP	27	192	6
TAP	27	288	4
XTP	27	288	7
TAP	28	0	2
TAP	28	0	3
TAP	28	96	2
TAP	28	96	3
TAP	28	192	1
TAP	28	192	3
XTP	28	288	0
TAP	28	288	3
TAP	29	0	5
TAP	29	96	4
TAP	29	96	6
XTP	29	192	3
XTP	29	192	7
HLD	30	0	1	96
TAP	30	96	3
HLD	30	192	6	96
TAP	30	288	4
HLD	31	0	0	96
TAP	31	96	2
HLD	31	192	7	96
TAP	31	288	5
HLD	32	0	0	96
HLD	32	96	2	96
HLD	32	192	4	96
HLD	32	288	6	96
STR	33	0	0
SCR	33	0	0	96	288	6
XTP	33	336	7
XST	34	0	7
SI_	34	0	7	96	192	3
TAP	35	0	2
TAP	35	0	5
TAP	35	48	2
TAP	35	48	5
TAP	35	96	2
TAP	35	96	5
BRK	35	288	0
BRK	35	288	7
TAP	36	0	4
TAP	36	0	5
TAP	36	96	2
TAP	36	96	3
TAP	36	192	0
TAP	36	192	1
TAP	36	288	6
TAP	36	288	7
TAP	36	336	6
TAP	36	336	7
TAP	37	48	0
TAP	37	48	5
TAP	37	96	0
TAP	37	96	5
HLD	37	192	6	96
HLD	37	288	4	96
HLD	38	0	3	96
XTP	38	96	1
XTP	38	144	1
TAP	38	240	7
TAP	38	288	7
TAP	38	336	0
TAP	39	48	5
TAP	39	96	4
TAP	39	96	5
STR	39	192	7
SI_	39	192	7	96	48	4
STR	39	288	0
SXL	39	288	0	96	216	0
TAP	40	288	7
TAP	40	336	0
TAP	40	336	6
TAP	41	48	1
TAP	41	48	7
TAP	41	96	1
TAP	41	96	7
STR	41	192	0
SI_	41	192	0	96	48	4
STR	41	288	6
SI_	41	288	6	96	48	2
XST	42	0	3
SI_	42	0	3	96	48	0
XTP	42	96	7
XTP	42	144	7
TAP	42	240	1
TAP	42	240	6
STR	42	288	1
SI_	42	288	1	96	48	4
STR	42	288	6
SI_	42	288	6	96	48	3
TAP	43	144	0
TAP	43	144	7
BRK	43	192	1
BRK	43	192	6
HLD	44	0	2	96
HLD	44	96	0	96
HLD	44	192	7	96
HLD	44	288	5	96
XTP	45	0	3
TAP	45	96	2
TAP	45	96	7
TAP	45	144	2
TAP	45	144	7
TAP	45	240	1
TAP	45	288	0
TAP	45	336	7
TAP	46	0	6
TAP	46	96	1
TAP	46	144	2
TAP	46	144	3
TAP	46	240	6
TAP	46	288	4
TAP	46	288	5
TAP	47	0	2
TAP	47	0	3
TAP	47	96	0
TAP	47	96	1
TAP	47	192	6
TAP	47	192	7
STR	47	288	1
SCL	47	288	1	96	384	6
STR	47	288	5
SUR	47	288	5	96	384	2
TAP	49	288	5
HLD	50	0	5	288
HLD	50	144	3	144
TAP	51	48	3
TAP	51	96	3
TAP	51	192	2
TAP	51	192	4
STR	52	0	1
SI_	52	0	1	96	72	4
TAP	52	96	7
TAP	52	192	6
TAP	52	288	5
STR	52	336	5
SCR	52	336	5	96	192	2
XTP	53	48	0
TAP	53	336	0
HLD	54	0	0	96
TAP	54	96	6
HLD	54	144	6	96
TAP	54	240	4
STR	54	288	4
SV_	54	288	4	96	96	3
XTP	55	0	7
TAP	55	192	2
TAP	55	192	5
TAP	55	240	2
TAP	55	240	5
STR	56	0	1
SXL	56	0	1	96	480	5
XTP	56	192	6
XTP	57	192	6
STR	58	0	6
SXR	58	0	6	96	480	2
XTP	58	192	1
XTP	59	192	1
STR	60	0	3
SCL	60	0	3	96	144	1
XTP	60	192	4
STR	61	0	4
SCR	61	0	4	96	144	6
XTP	61	192	3
STR	62	0	3
SCL	62	0	3	96	480	4
STR	64	0	5
SCL	64	0	5	96	144	2
TAP	64	96	0
TAP	64	192	0
TAP	64	288	0
STR	65	0	2
SCR	65	0	2	96	144	5
TAP	65	96	7
TAP	65	192	7
TAP	65	288	7
STR	66	0	5
SCL	66	0	5	96	144	2
TAP	66	96	0
TAP	66	192	0
TAP	66	288	0
TAP	67	0	2
TAP	67	96	4
TAP	67	192	3
TAP	67	192	5
HLD	67	288	2	96
HLD	67	288	6	96
TAP	68	96	3
TAP	68	96	4
TAP	68	192	2
TAP	68	192	5
TAP	68	288	1
TAP	68	288	6
STR	69	0	0
SI_	69	0	0	96	192	4
STR	69	0	7
SI_	69	0	7	96	192	3
BRK	70	0	1
BRK	70	0	6
TAP	71	192	3
TAP	71	288	2
HLD	72	0	1	768
TAP	72	288	7
HLD	73	0	6	384
XTP	75	192	3
XTP	75	192	4
TTP	76	0	1	E	0	M1
TTP	76	96	1	B	0	M1
TTP	76	192	2	B	0	M1
TTP	76	288	6	B	0	M1
TTP	77	0	5	B	0	M1
TTP	77	96	5	E	0	M1
TTP	77	192	2	E	0	M1
TTP	77	288	2	B	0	M1
TTP	78	0	3	B	0	M1
TTP	78	96	6	E	0	M1
TTP	78	192	5	B	0	M1
TTP	78	288	2	B	0	M1
TTP	78	288	4	B	0	M1
XTP	79	96	3
XTP	79	192	3
XTP	79	288	4
TTP	80	0	3	E	0	M1
TTP	80	96	2	E	0	M1
TTP	80	192	1	E	0	M1
TTP	80	288	0	E	0	M1
TTP	81	0	5	E	0	M1
TTP	81	96	6	E	0	M1
TTP	81	192	7	E	0	M1
TTP	81	288	0	E	0	M1
THO	82	0	0	384	C	1	M1
TTP	82	0	2	B	0	M1
TTP	82	0	5	B	0	M1
XTP	83	192	0
XTP	83	192	7
TAP	84	0	1
TAP	84	0	7
TAP	84	96	2
TAP	84	96	3
TAP	84	192	0
TAP	84	192	6
TAP	84	288	4
TAP	84	288	5
TAP	85	0	1
TAP	85	0	7
TAP	85	96	2
TAP	85	96	6
TAP	85	144	2
TAP	85	144	6
TAP	85	240	1
TAP	85	288	0
TAP	85	336	7
TAP	86	0	6
TAP	86	96	4
TAP	86	96	6
TAP	86	144	4
TAP	86	144	6
TAP	86	240	1
TAP	86	240	3
TAP	86	288	1
TAP	86	288	3
TAP	87	0	4
TAP	87	0	5
TAP	87	96	6
TAP	87	96	7
TAP	87	192	0
TAP	87	192	1
TAP	87	288	2
TAP	87	288	7
STR	88	0	3
SXR	88	0	3	96	480	0
TAP	88	0	6
XTP	88	96	7
XTP	88	144	7
HLD	90	0	5	96
TAP	90	96	3
HLD	90	144	3	240
TTP	90	288	5	B	0	M1
TTP	90	312	4	B	0	M1
TTP	90	336	3	B	0	M1
TTP	90	360	2	B	0	M1
XTP	91	192	1
XTP	91	192	6
TAP	92	0	1
TAP	92	48	1
TAP	92	96	3
TAP	92	192	6
TAP	92	240	6
TAP	92	288	4
TAP	93	0	2
TAP	93	48	2
TAP	93	96	0
TAP	93	192	5
TAP	93	240	5
TAP	93	288	7
TAP	94	0	1
TAP	94	48	1
TAP	94	96	3
TAP	94	144	3
TAP	94	192	4
TAP	94	240	4
TAP	94	288	6
TAP	94	336	6
HLD	95	0	0	144
TAP	95	144	7
STR	95	192	7
SCL	95	192	7	96	480	0
TAP	97	288	0
TAP	97	288	6
TAP	98	0	1
STR	98	0	7
SV_	98	0	7	96	288	2
SV_	98	0	7	96	288	4
TAP	99	192	2
TAP	99	192	5
STR	99	288	2
SCL	99	288	2	96	768	4
STR	99	288	5
SCR	99	288	5	96	768	3

T_REC_TAP	240
T_REC_BRK	8
T_REC_XTP	32
T_REC_HLD	40
T_REC_XHO	0
T_REC_STR	36
T_REC_BST	0
T_REC_XST	2
T_REC_TTP	30
T_REC_THO	1
T_REC_SLD	39
T_REC_ALL	428
T_NUM_TAP	340
T_NUM_BRK	8
T_NUM_HLD	41
T_NUM_SLD	39
T_NUM_ALL	428
T_JUDGE_TAP	348
T_JUDGE_HLD	134
T_JUDGE_SLD	39
T_JUDGE_ALL	521
TTM_EACHPAIRS	90
TTM_SCR_TAP	170000
TTM_SCR_BRK	20800
TTM_SCR_HLD	41000
TTM_SCR_SLD	58500
TTM_SCR_ALL	290300
TTM_SCR_S	280850
TTM_SCR_SS	289500
TTM_RAT_ACV	10027

