VERSION	0.00.00	1.03.00
FES_MODE	0
BPM_DEF	185.000	185.000	185.000	185.000
MET_DEF	4	4
RESOLUTION	384
CLK_DEF	384
COMPATIBLE_CODE	MA2

BPM	0	0	185.000
MET	0	0	4	4
MET	76	0	4	5
MET	77	96	4	3
MET	78	0	4	4

HLD	2	0	3	384
HLD	3	0	4	384
STR	4	0	2
SCL	4	0	2	96	480	5
BRK	6	0	6
TAP	6	96	6
TAP	6	192	6
TAP	6	192	7
TAP	7	0	1
TAP	7	96	1
TAP	7	192	0
TAP	7	192	1
TAP	8	0	2
TAP	8	96	2
TAP	8	192	2
TAP	8	192	3
TAP	9	0	4
TAP	9	96	4
TAP	9	192	3
TAP	9	192	5
STR	10	0	6
SI_	10	0	6	96	192	3
STR	11	0	2
SI_	11	0	2	96	192	7
TAP	12	0	6
TAP	12	192	6
TAP	12	192	7
TAP	13	0	0
TAP	13	0	7
TAP	13	96	0
TAP	13	96	7
XTP	13	192	1
XTP	13	192	6
TTP	14	0	0	C	0	L1
TTP	15	0	4	E	0	L1
TTP	16	0	5	E	0	L1
TTP	17	0	3	E	0	L1
TTP	18	0	5	B	0	L1
TTP	18	0	6	B	0	L1
TTP	19	0	1	B	0	L1
TTP	19	0	2	B	0	L1
TAP	20	0	1
TAP	20	96	1
TAP	20	192	0
TAP	21	0	6
TAP	21	96	6
TAP	21	192	7
TAP	22	0	1
TAP	22	96	1
TAP	22	192	0
TAP	23	0	7
TAP	23	96	7
TAP	23	192	0
TAP	23	192	6
STR	24	0	0
SXL	24	0	0	96	480	3
STR	24	0	7
SXR	24	0	7	96	480	4
TTP	26	0	5	E	0	L1
TTP	26	192	5	B	0	L1
TTP	27	0	6	B	0	L1
TTP	27	0	6	E	0	L1
TTP	28	0	3	E	0	L1
TTP	28	192	2	B	0	L1
TTP	29	0	1	B	0	L1
TTP	29	0	2	E	0	L1
TTP	30	0	6	B	0	L1
TTP	30	192	7	B	0	L1
TTP	31	0	0	B	0	L1
TTP	31	192	1	B	0	L1
TTP	32	0	2	B	0	L1
TTP	32	0	3	B	0	L1
TTP	32	192	4	B	0	L1
TTP	32	192	5	B	0	L1
THO	33	0	0	192	C	0	L1
XST	34	0	0
SCR	34	0	0	96	192	3
XST	34	0	7
SCL	34	0	7	96	192	4
TTP	35	0	0	C	1	L1
TAP	36	0	6
TAP	36	96	6
TAP	36	192	6
TAP	36	192	7
TAP	36	288	6
TAP	36	288	7
TAP	37	0	5
TAP	37	96	4
TAP	37	192	3
TAP	37	192	5
TAP	38	0	2
TAP	38	96	2
TAP	38	192	2
TAP	38	192	3
TAP	38	288	2
TAP	38	288	3
TAP	39	0	1
TAP	39	96	0
TAP	39	96	7
TAP	39	192	1
TAP	39	192	6
HLD	40	0	5	96
TAP	40	96	4
TAP	40	192	4
TAP	40	192	5
HLD	41	0	2	96
TAP	41	96	3
TAP	41	192	2
TAP	41	192	3
TAP	42	0	4
TAP	42	96	4
TAP	42	192	3
TAP	42	288	3
HLD	43	0	3	96
HLD	43	0	4	96
BRK	43	192	2
BRK	43	192	5
TAP	44	0	1
TAP	44	96	1
TAP	44	192	0
TAP	44	192	1
TAP	44	288	0
TAP	44	288	1
TAP	45	0	2
TAP	45	96	2
TAP	45	192	2
TAP	45	192	3
TAP	45	288	2
TAP	45	288	3
XTP	46	0	4
XTP	46	96	5
XTP	46	192	6
XTP	46	288	7
XTP	47	0	0
XTP	47	96	1
XTP	47	192	2
BST	47	288	3
SXR	47	288	3	96	432	0
BST	47	288	4
SXL	47	288	4	96	432	7
TAP	49	192	1
TAP	49	192	6
TAP	50	0	2
STR	50	0	5
SCR	50	0	5	96	384	2
HLD	52	0	1	96
TAP	52	96	0
TAP	52	192	0
HLD	53	0	6	96
TAP	53	96	7
TAP	53	192	7
HLD	54	0	5	96
TAP	54	96	4
TAP	54	192	4
TAP	55	0	3
TAP	55	0	4
TAP	55	96	2
TAP	55	96	5
BRK	55	192	1
BRK	55	192	6
XST	56	0	7
SCL	56	0	7	96	384	2
STR	58	0	0
SCR	58	0	0	96	384	5
STR	60	0	6
SI_	60	0	6	96	192	3
STR	61	0	2
SI_	61	0	2	96	192	7
STR	62	0	6
SXL	62	0	6	96	480	3
TAP	64	0	2
TAP	64	192	2
TAP	65	0	3
TAP	65	192	3
TAP	66	0	4
TAP	66	192	4
TAP	67	0	5
TAP	67	192	5
HLD	68	0	6	192
HLD	68	0	7	192
HLD	69	0	0	192
HLD	69	0	1	192
STR	70	0	0
SXL	70	0	0	96	480	3
STR	70	0	7
SXR	70	0	7	96	480	4
THO	72	0	0	768	C	0	L1
TTP	76	0	5	B	0	L1
TTP	77	0	6	B	0	L1
TTP	78	0	7	B	0	L1
TTP	79	0	0	B	0	L1
TTP	80	0	1	B	0	L1
TTP	81	0	2	B	0	L1
THO	82	0	0	384	C	1	L1
TAP	84	0	6
TAP	84	96	6
TAP	84	96	7
TAP	84	192	6
TAP	84	288	6
TAP	84	288	7
TAP	85	0	5
TAP	85	96	4
TAP	85	96	5
TAP	85	192	5
TAP	85	288	4
TAP	85	288	5
TAP	86	0	2
TAP	86	96	2
TAP	86	96	3
TAP	86	192	2
TAP	86	288	2
TAP	86	288	3
XTP	87	0	1
XTP	87	96	0
XTP	87	192	7
XTP	87	288	6
STR	88	0	5
SCR	88	0	5	96	192	0
STR	89	0	1
SCR	89	0	1	96	192	4
STR	90	0	5
SCR	90	0	5	96	192	0
TAP	91	0	1
TAP	91	192	0
TAP	91	192	7
HLD	92	0	6	96
TAP	92	96	7
TAP	92	192	6
TAP	92	192	7
HLD	93	0	1	96
TAP	93	96	0
TAP	93	192	0
TAP	93	192	1
TAP	94	0	6
TAP	94	96	7
TAP	94	192	0
TAP	94	288	1
TAP	95	0	2
TAP	95	96	3
TAP	95	192	4
TAP	95	288	5
BST	96	0	3
SXR	96	0	3	96	480	0
BST	96	0	4
SXL	96	0	4	96	480	7
TAP	98	0	0
TAP	98	0	7
TAP	98	192	1
TAP	98	192	6
TAP	99	0	2
TAP	99	0	5
TAP	99	192	3
TAP	99	192	4
HLD	100	0	2	1152
HLD	100	0	5	1152

T_REC_TAP	142
T_REC_BRK	5
T_REC_XTP	13
T_REC_HLD	17
T_REC_XHO	0
T_REC_STR	15
T_REC_BST	4
T_REC_XST	3
T_REC_TTP	31
T_REC_THO	3
T_REC_SLD	22
T_REC_ALL	255
T_NUM_TAP	204
T_NUM_BRK	9
T_NUM_HLD	20
T_NUM_SLD	22
T_NUM_ALL	255
T_JUDGE_TAP	213
T_JUDGE_HLD	126
T_JUDGE_SLD	22
T_JUDGE_ALL	361
TTM_EACHPAIRS	50
TTM_SCR_TAP	102000
TTM_SCR_BRK	23400
TTM_SCR_HLD	20000
TTM_SCR_SLD	33000
TTM_SCR_ALL	178400
TTM_SCR_S	172200
TTM_SCR_SS	177500
TTM_RAT_ACV	10050

