VERSION	0.00.00	1.03.00
FES_MODE	0
BPM_DEF	185.000	185.000	185.000	185.000
MET_DEF	4	4
RESOLUTION	384
CLK_DEF	384
COMPATIBLE_CODE	MA2

BPM	0	0	185.000
MET	0	0	4	4
MET	76	0	4	5
MET	77	96	4	3
MET	78	0	4	4

XTP	6	0	0
TAP	7	0	0
TAP	8	0	0
TAP	10	0	7
TAP	11	0	7
TAP	12	0	7
HLD	14	0	0	384
HLD	16	0	1	384
HLD	18	0	2	384
XTP	20	0	3
TAP	20	192	3
TAP	21	0	4
TAP	22	0	5
TAP	22	192	5
TAP	23	0	6
TAP	24	0	7
TAP	24	192	7
XTP	25	0	0
XTP	25	0	7
STR	26	0	7
SI_	26	0	7	96	480	4
TAP	29	0	0
STR	30	0	0
SI_	30	0	0	96	480	3
TAP	33	0	7
HLD	34	0	0	384
HLD	34	0	7	384
BRK	36	0	7
TAP	36	192	7
TAP	37	0	6
TAP	37	192	6
TAP	38	0	5
TAP	38	192	5
TAP	39	0	3
TAP	39	0	4
TAP	40	0	3
TAP	40	192	3
TAP	41	0	2
TAP	41	192	2
TAP	42	0	1
TAP	42	192	1
TAP	43	0	0
TAP	43	0	7
TAP	44	0	0
TAP	44	192	0
TAP	45	0	1
TAP	45	192	1
TAP	46	0	2
TAP	46	192	2
TAP	47	0	3
TAP	47	0	4
XTP	47	192	3
XTP	47	192	4
TAP	48	0	4
TAP	48	192	4
TAP	49	0	5
TAP	49	192	5
TAP	50	0	6
TAP	50	192	6
TAP	51	0	0
TAP	51	0	7
HLD	52	0	0	192
HLD	52	0	1	192
TAP	53	0	0
TAP	53	0	1
HLD	54	0	6	192
HLD	54	0	7	192
TAP	55	0	6
TAP	55	0	7
TTP	56	0	7	E	0	L1
TTP	57	0	6	E	0	L1
TTP	58	0	5	E	0	L1
TTP	59	0	4	E	0	L1
TTP	60	0	3	E	0	L1
TTP	61	0	2	E	0	L1
TTP	62	0	1	E	0	L1
TTP	63	0	0	E	0	L1
TTP	64	0	0	B	0	L1
TTP	64	0	7	B	0	L1
TTP	65	0	1	B	0	L1
TTP	65	0	6	B	0	L1
TTP	66	0	2	B	0	L1
TTP	66	0	5	B	0	L1
TTP	67	0	3	B	0	L1
TTP	67	0	4	B	0	L1
THO	68	0	0	768	C	1	L1
TAP	72	0	0
TAP	72	192	0
TAP	73	0	7
TAP	73	192	7
HLD	74	0	0	384
HLD	74	0	7	384
STR	76	0	0
SI_	76	0	0	96	480	3
TAP	79	0	4
STR	80	0	4
SI_	80	0	4	96	480	7
XTP	83	0	0
TAP	84	0	7
TAP	84	192	7
TAP	85	0	6
TAP	85	96	6
TAP	85	192	6
TAP	86	0	5
TAP	86	192	5
TAP	87	0	4
TAP	87	96	4
TAP	87	192	3
TAP	87	192	4
TAP	88	0	3
TAP	88	192	3
TAP	89	0	2
TAP	89	96	2
TAP	89	192	2
TAP	90	0	1
TAP	90	192	1
TAP	91	0	0
TAP	91	96	0
TAP	91	192	0
TAP	91	192	7
HLD	92	0	6	384
HLD	92	0	7	384
HLD	94	0	0	384
HLD	94	0	1	384
TAP	96	0	2
TAP	96	192	2
TAP	97	0	2
TAP	97	0	3
TAP	98	0	5
TAP	98	192	5
TAP	99	0	4
TAP	99	0	5
HLD	100	0	3	384
HLD	100	0	4	384
HLD	102	0	2	336
HLD	102	0	5	336

T_REC_TAP	84
T_REC_BRK	1
T_REC_XTP	7
T_REC_HLD	19
T_REC_XHO	0
T_REC_STR	4
T_REC_BST	0
T_REC_XST	0
T_REC_TTP	16
T_REC_THO	1
T_REC_SLD	4
T_REC_ALL	136
T_NUM_TAP	111
T_NUM_BRK	1
T_NUM_HLD	20
T_NUM_SLD	4
T_NUM_ALL	136
T_JUDGE_TAP	112
T_JUDGE_HLD	150
T_JUDGE_SLD	4
T_JUDGE_ALL	266
TTM_EACHPAIRS	20
TTM_SCR_TAP	55500
TTM_SCR_BRK	2600
TTM_SCR_HLD	20000
TTM_SCR_SLD	6000
TTM_SCR_ALL	84100
TTM_SCR_S	81500
TTM_SCR_SS	84000
TTM_RAT_ACV	10011

