VERSION	0.00.00	1.04.00
FES_MODE	0
BPM_DEF	175.000	175.000	175.000	175.000
MET_DEF	4	4
RESOLUTION	384
CLK_DEF	384
COMPATIBLE_CODE	MA2

BPM	0	0	175.000
MET	0	0	4	4

NMHLD	2	0	5	336
NMTAP	2	240	2
NMTAP	2	288	3
NMHLD	2	336	4	288
NMTAP	3	240	5
NMTAP	3	288	4
NMHLD	3	336	3	96
NMTAP	4	48	4
NMTAP	4	96	3
NMHLD	4	144	2	240
NMTAP	5	0	3
NMTAP	5	48	5
NMTAP	5	72	4
NMTAP	5	96	5
NMTAP	5	120	4
NMTAP	5	144	5
NMTAP	5	192	2
NMTAP	5	192	6
NMSTR	5	240	1
NMSI_	5	240	1	96	48	4
NMSTR	5	240	5
NMSI_	5	240	5	96	48	0
NMTAP	5	336	1
NMTAP	5	336	5
NMTAP	6	48	7
NMTAP	6	96	0
NMTAP	6	96	6
NMSTR	6	144	1
NMSI_	6	144	1	96	48	5
NMTAP	6	144	5
NMTAP	6	240	1
NMSTR	6	240	6
NMSCR	6	240	6	96	144	4
NMHLD	6	336	2	144
NMTAP	7	192	3
NMTAP	7	192	5
NMSTR	7	240	2
NMSXL	7	240	2	96	48	3
NMTAP	7	288	6
NMHLD	7	336	7	240
CNSCL	8	0	3	0	168	4
NMTTP	8	192	3	D	0	M1
NMTTP	8	208	2	D	0	M1
NMTTP	8	224	1	D	0	M1
NMTTP	8	240	0	D	0	M1
NMTTP	8	256	7	D	0	M1
NMTTP	8	272	6	D	0	M1
NMTTP	8	288	5	D	0	M1
NMTAP	9	0	2
NMTAP	9	0	3
NMTAP	9	48	1
NMTAP	9	96	0
NMTAP	9	96	7
NMTAP	9	144	6
NMTAP	9	192	4
NMTAP	9	192	5
NMSTR	9	240	3
NMSCL	9	240	3	96	48	0
NMSTR	9	240	7
NMSCL	9	240	7	96	48	4
NMTAP	9	336	3
NMTAP	9	336	7
NMTTP	10	48	1	E	0	M1
NMTTP	10	96	2	E	0	M1
NMTTP	10	144	3	E	0	M1
NMTTP	10	240	7	E	0	M1
NMTTP	10	288	6	E	0	M1
NMTTP	10	336	5	E	0	M1
NMTAP	11	48	1
NMTAP	11	48	3
NMTAP	11	96	2
NMTAP	11	144	3
NMTAP	11	192	4
NMTAP	11	192	6
NMTAP	11	240	4
NMSTR	11	240	6
NMSI_	11	240	6	96	48	2
BRTAP	11	336	0
NMTAP	12	192	4
NMTAP	12	336	2
NMTAP	13	48	4
NMTAP	13	96	4
NMTAP	13	192	2
NMHLD	14	0	4	192
NMTAP	14	192	2
NMSTR	14	336	5
NMSI_	14	336	5	96	48	3
NMTAP	15	48	2
NMTAP	15	96	2
NMTAP	15	240	4
NMTAP	15	336	3
NMTAP	16	0	3
NMTAP	16	192	5
NMTAP	16	336	4
NMTAP	17	48	3
NMTAP	17	96	3
NMTAP	17	192	5
NMSTR	17	288	3
NMSCL	17	288	3	96	384	4
NMTAP	17	336	3
NMTTP	19	192	3	A	0	M1
NMTTP	19	192	3	D	0	M1
NMTTP	19	192	4	E	0	M1
NMTTP	19	192	4	A	0	M1
NMTTP	19	192	5	D	0	M1
EXTAP	19	288	7
NMTAP	20	0	1
NMTAP	20	0	5
NMTAP	20	48	4
NMTAP	20	96	3
NMSTR	20	96	6
NMSI_	20	96	6	96	48	4
NMTAP	20	192	2
NMTAP	20	240	2
NMTAP	20	288	3
NMTAP	20	336	1
NMTAP	20	336	4
NMTAP	21	48	4
NMTAP	21	48	5
NMSTR	21	96	3
NMSI_	21	96	3	96	48	1
NMTAP	21	96	6
NMSTR	21	192	7
NMSI_	21	192	7	96	48	3
NMTAP	21	288	0
NMTAP	22	0	1
NMSTR	22	0	4
NMSI_	22	0	4	96	48	6
NMSTR	22	96	0
NMSI_	22	96	0	96	48	4
NMHLD	22	192	7	96
NMTAP	22	288	0
NMTAP	22	336	1
NMTAP	22	336	6
NMTAP	23	48	2
NMTAP	23	48	3
NMTAP	23	96	1
NMTAP	23	96	4
NMTAP	23	192	5
NMTAP	23	216	4
NMTAP	23	240	5
NMTAP	23	288	3
NMSTR	23	288	6
NMSI_	23	288	6	96	48	2
NMHLD	24	0	0	96
NMTAP	24	96	7
NMSTR	24	144	1
NMSCL	24	144	1	96	48	6
NMTAP	24	144	6
NMSTR	24	240	5
NMSCR	24	240	5	96	96	2
NMHLD	24	336	3	144
NMTAP	25	96	4
NMSTR	25	192	2
NMSI_	25	192	2	96	48	7
NMSTR	25	192	6
NMSI_	25	192	6	96	48	3
NMTAP	25	288	2
NMTAP	25	288	6
NMTAP	26	0	0
NMTAP	26	48	1
NMTAP	26	48	7
NMTAP	26	96	2
NMTAP	26	96	6
NMTAP	26	192	1
NMTAP	26	192	3
NMTAP	26	240	2
NMTAP	26	288	4
NMTAP	26	288	6
NMSTR	26	336	5
NMSCL	26	336	5	96	48	2
NMTAP	27	48	2
NMTTP	27	144	0	E	0	M1
NMTTP	27	168	0	C	0	M1
NMTTP	27	192	4	E	0	M1
NMTAP	27	288	2
NMTAP	27	288	5
NMTAP	28	0	4
NMTAP	28	0	6
NMTAP	28	96	4
NMTAP	28	192	4
NMTAP	28	288	4
NMSTR	29	0	4
NMSI_	29	0	4	96	48	2
NMSTR	29	96	6
NMSI_	29	96	6	96	48	4
NMSTR	29	192	0
NMSI_	29	192	0	96	48	6
NMSTR	29	288	2
NMSI_	29	288	2	96	48	0
NMTAP	30	0	4
NMTAP	30	96	4
NMTAP	30	192	3
NMTAP	30	192	4
NMTAP	30	288	3
NMHLD	30	336	5	144
NMTAP	31	0	3
NMTAP	31	96	3
NMTAP	31	192	3
NMSTR	31	192	7
NMSCL	31	192	7	96	48	4
NMTAP	31	288	3
NMTAP	32	0	1
NMTAP	32	0	3
NMTAP	32	96	3
NMTAP	32	192	3
NMTAP	32	288	3
NMSTR	33	0	3
NMSI_	33	0	3	96	48	1
NMSTR	33	96	7
NMSI_	33	96	7	96	48	5
NMSTR	33	192	4
NMSI_	33	192	4	96	48	0
NMTAP	33	288	6
NMHLD	34	0	1	96
NMTAP	34	96	3
NMTAP	34	144	2
NMTAP	34	144	4
NMHLD	34	192	3	96
NMTAP	34	288	5
NMTAP	34	336	4
NMHLD	35	0	6	96
NMTAP	35	96	4
NMTAP	35	144	3
NMTAP	35	144	5
NMHLD	35	192	4	96
NMTAP	35	288	2
NMTAP	35	336	3
NMHLD	36	0	0	96
NMTAP	36	96	7
NMTAP	36	144	1
NMTAP	36	144	6
NMTAP	36	240	3
NMTAP	36	288	4
NMTAP	36	336	3
NMTAP	37	0	4
NMTAP	37	0	5
NMTAP	37	96	2
NMTAP	37	96	3
NMTAP	37	192	5
NMTAP	37	192	6
NMTAP	37	288	1
NMTAP	37	288	2
NMSTR	38	0	6
NMSI_	38	0	6	96	48	3
NMTAP	38	0	7
NMTAP	38	96	7
NMTAP	38	192	0
NMSTR	38	192	1
NMSI_	38	192	1	96	48	4
NMTAP	38	288	0
NMSTR	39	0	6
NMSI_	39	0	6	96	48	3
NMTAP	39	0	7
NMSTR	39	96	2
NMSI_	39	96	2	96	48	7
NMTAP	39	96	6
NMTAP	39	192	2
NMSTR	39	192	4
NMSI_	39	192	4	96	48	0
NMTAP	39	288	3
NMTAP	39	288	4
NMTAP	40	0	1
NMTAP	40	0	7
NMTAP	40	48	2
NMTAP	40	96	1
NMTAP	40	96	6
NMTAP	40	144	2
NMTAP	40	192	5
NMTAP	40	216	4
NMTAP	40	240	5
NMTAP	40	288	3
NMTAP	40	288	6
NMTAP	40	336	7
NMTAP	41	0	0
NMTAP	41	0	6
NMTAP	41	48	5
NMTAP	41	96	1
NMTAP	41	96	6
NMTAP	41	144	5
NMTAP	41	192	2
NMTAP	41	216	3
NMTAP	41	240	2
NMTAP	41	288	1
NMTAP	41	288	4
NMTAP	41	336	0
NMTAP	42	0	1
NMTAP	42	24	7
NMTAP	42	48	1
NMTAP	42	72	7
NMTAP	42	96	2
NMTAP	42	120	6
NMTAP	42	144	2
NMTAP	42	168	6
NMTAP	42	192	3
NMTAP	42	216	5
NMTAP	42	240	3
NMTAP	42	264	5
NMTAP	42	288	4
NMTAP	42	336	2
NMTAP	42	336	6
NMSTR	43	48	0
NMSCR	43	48	0	96	48	3
NMSTR	43	48	7
NMSCL	43	48	7	96	48	4
NMTAP	43	96	1
NMTAP	43	96	6
NMTAP	43	144	0
NMTAP	43	144	7
EXTAP	43	240	3
EXTAP	43	240	4
BRTAP	43	288	1
BRTAP	43	288	6
NMTAP	44	0	3
NMTAP	44	0	7
NMSTR	44	48	1
NMSCR	44	48	1	96	48	4
NMTAP	44	48	5
NMSTR	44	144	1
NMSCL	44	144	1	96	48	6
NMTAP	44	144	6
NMSTR	44	240	1
NMSXR	44	240	1	96	144	4
NMTAP	44	240	4
NMTAP	44	336	6
NMTAP	45	48	4
NMTAP	45	96	5
NMTAP	45	144	3
NMTAP	45	144	6
NMTAP	45	240	1
NMTAP	45	240	4
NMTAP	45	288	2
NMTAP	45	336	3
NMTAP	46	0	0
NMTAP	46	0	4
NMTAP	46	48	2
NMSTR	46	48	6
NMSCL	46	48	6	96	48	3
NMTAP	46	144	1
NMSTR	46	144	6
NMSCR	46	144	6	96	48	1
NMTAP	46	240	3
NMSTR	46	240	6
NMSXL	46	240	6	96	144	3
NMTAP	46	336	1
NMTAP	47	48	3
NMTAP	47	96	2
NMTAP	47	144	1
NMTAP	47	144	4
NMTAP	47	240	3
NMSTR	47	240	6
NMSCL	47	240	6	96	48	3
NMTAP	47	288	7
NMTAP	47	336	0
NMTAP	47	336	6
NMSTR	48	48	1
NMSCR	48	48	1	96	48	4
NMTAP	48	48	4
NMTAP	48	96	0
NMTAP	48	144	1
NMTAP	48	144	7
NMTAP	48	240	1
NMSTR	48	240	6
NMSCL	48	240	6	96	96	1
NMTAP	48	288	0
NMTAP	48	288	7
NMTAP	48	336	1
NMTAP	48	336	6
NMTAP	49	48	0
NMTAP	49	96	0
NMSTR	49	144	7
NMSUL	49	144	7	96	48	3
NMSTR	49	240	0
NMSUR	49	240	0	96	48	4
NMTTP	49	336	0	C	1	M1
CNSCR	50	0	4	0	192	3
NMTAP	50	240	0
NMTAP	50	288	1
NMTAP	50	288	7
NMTAP	50	336	2
NMTAP	50	336	6
NMTAP	51	48	1
NMTAP	51	48	5
NMTAP	51	96	6
NMTAP	51	120	4
NMTAP	51	168	1
NMTAP	51	192	3
NMTAP	51	240	4
NMTAP	51	240	5
BRTAP	51	288	2
BRTAP	51	288	7
NMTAP	52	0	0
NMTAP	52	0	5
NMSTR	52	48	0
NMSI_	52	48	0	96	48	4
NMTAP	52	48	5
NMTAP	52	144	0
NMSTR	52	144	7
NMSI_	52	144	7	96	48	5
NMSTR	52	240	1
NMSI_	52	240	1	96	48	3
NMTAP	52	240	7
NMTAP	52	336	0
NMTAP	52	336	1
NMTAP	53	48	4
NMTAP	53	48	5
NMTAP	53	96	6
NMTAP	53	96	7
NMTAP	53	144	0
NMSTR	53	144	5
NMSCL	53	144	5	96	48	2
NMTAP	53	240	1
NMTAP	53	288	0
NMTAP	53	336	7
NMTAP	54	0	1
NMTAP	54	0	6
NMSTR	54	48	1
NMSI_	54	48	1	96	48	6
NMTAP	54	48	6
NMTAP	54	144	1
NMSTR	54	144	5
NMSI_	54	144	5	96	48	2
NMSTR	54	240	0
NMSF_	54	240	0	96	48	4
NMTAP	54	240	5
BRTAP	54	336	0
EXTAP	55	48	2
EXTAP	55	48	6
EXTAP	55	96	2
EXTAP	55	96	6
NMTTP	55	144	0	C	1	M1
NMTTP	55	144	2	B	0	M1
NMTTP	55	144	2	A	0	M1
NMTTP	55	144	6	B	0	M1
NMTTP	55	144	6	A	0	M1
NMTAP	55	288	1
NMTAP	55	288	7
NMHLD	55	336	0	192
NMTAP	56	48	6
NMTAP	56	96	5
NMHLD	56	144	4	288
NMTTP	56	240	6	D	0	M1
NMTTP	56	264	7	D	0	M1
NMTTP	56	288	0	D	0	M1
NMTTP	56	312	1	D	0	M1
NMTTP	56	336	2	D	0	M1
NMTAP	57	48	3
NMTAP	57	96	2
NMTAP	57	96	4
NMTAP	57	144	5
NMTAP	57	192	3
NMTAP	57	192	6
NMTAP	57	240	2
NMTAP	57	288	1
NMTAP	57	288	5
NMTAP	58	0	4
NMTAP	58	0	6
NMTAP	58	48	7
NMTAP	58	96	0
NMTAP	58	144	1
NMTAP	58	144	3
NMSTR	58	240	1
NMSCR	58	240	1	96	48	3
NMSTR	58	240	6
NMSCL	58	240	6	96	48	4
NMTAP	59	48	0
NMTAP	59	48	7
NMTAP	59	96	1
NMTAP	59	120	3
NMTAP	59	168	6
NMTAP	59	192	4
NMTAP	59	240	3
NMTAP	59	264	4
NMTAP	59	288	3
NMTAP	59	312	4
NMTAP	59	336	3
NMTAP	59	360	4
NMHLD	60	0	3	192
NMTTP	60	192	0	C	0	M1
NMHLD	61	0	7	96
NMTAP	61	96	0
NMSTR	61	144	1
NMSCR	61	144	1	96	96	5
NMTAP	61	144	6
NMSTR	61	240	5
NMSCR	61	240	5	96	96	1
NMTAP	61	336	1
NMTAP	62	48	5
NMTAP	62	96	4
NMTAP	62	144	3
NMHLD	62	144	6	96
NMTAP	62	240	7
NMTAP	62	288	6
NMTAP	62	336	0
NMTAP	62	336	5
NMTAP	63	48	1
NMTAP	63	96	0
NMHLD	63	144	2	96
NMTAP	63	144	7
NMTAP	63	240	3
NMTAP	63	288	2
NMTAP	63	336	1
NMTAP	63	336	4
NMTAP	64	0	0
NMTAP	64	48	7
NMTAP	64	96	6
NMTAP	64	144	1
NMTAP	64	144	5
NMTAP	64	240	3
NMTAP	64	288	4
NMTAP	64	336	5
NMTAP	65	0	0
NMTAP	65	0	7
NMTAP	65	48	6
NMTAP	65	72	7
NMTAP	65	96	6
NMTAP	65	120	7
NMHLD	65	144	5	96
NMTAP	65	240	4
NMTAP	65	288	3
NMTAP	65	336	2
NMTAP	66	0	0
NMTAP	66	0	7
NMTAP	66	48	1
NMTAP	66	72	0
NMTAP	66	96	1
NMHLD	66	144	2	96
NMTAP	66	144	7
NMTAP	66	240	3
NMTAP	66	288	4
NMTAP	66	336	5
NMTAP	67	0	4
NMTAP	67	0	6
NMTAP	67	96	1
NMTAP	67	96	3
NMSTR	67	144	1
NMSI_	67	144	1	96	48	5
NMTAP	67	144	3
NMTAP	67	240	1
NMSTR	67	240	6
NMSI_	67	240	6	96	48	2
NMTAP	67	336	4
NMTAP	67	336	6
NMTAP	68	48	1
NMTAP	68	96	0
NMTAP	68	144	7
NMTAP	68	192	1
NMTAP	68	192	6
NMTAP	68	240	3
NMTAP	68	264	4
NMSTR	68	288	3
NMSCL	68	288	3	96	1344	4
NMTAP	68	312	4
NMTAP	68	336	3
NMTAP	68	360	4
EXTAP	69	0	3
NMTTP	70	0	4	E	0	M1
NMTTP	71	0	4	A	0	M1
NMTTP	72	0	3	A	0	M1
NMTAP	72	336	3
NMTAP	72	360	4
NMTAP	73	0	3
NMTAP	73	48	6
NMTAP	73	72	4
NMTAP	73	96	5
NMTAP	73	144	1
NMTAP	73	168	3
NMTAP	73	192	2
NMTAP	73	240	7
NMTAP	73	264	0
NMTAP	73	288	7
NMTAP	73	312	0
NMHLD	73	336	7	192
NMTAP	74	48	0
NMTAP	74	96	0
NMTAP	74	144	0
NMTAP	74	192	6
NMTAP	74	192	7
NMTAP	74	240	0
NMTAP	74	240	1
NMSTR	74	288	4
NMSI_	74	288	4	96	48	0
NMTAP	74	288	5
NMTAP	74	336	2
NMTAP	74	336	3
EXTAP	76	0	4
EXTAP	76	12	3
BRSTR	76	96	2
NMSXR	76	96	2	96	144	3
BRSTR	76	96	6
NMSXR	76	96	6	96	144	7
EXTAP	77	0	2
EXTAP	77	0	6
NMHLD	77	96	3	120
NMTAP	77	96	4
NMTAP	77	192	2
NMTAP	77	204	1
NMTAP	77	216	0
NMTAP	77	228	7
NMTAP	77	240	6
NMTAP	77	252	5
NMTAP	77	264	4
NMTAP	77	276	3
BXTAP	77	288	2
NMSTR	78	0	7
NMSI_	78	0	7	96	48	3
NMTAP	78	48	7
NMSTR	78	96	1
NMSI_	78	96	1	96	48	4
NMTAP	78	144	1
NMSTR	78	192	5
NMSI_	78	192	5	96	48	0
NMTAP	78	240	5
NMSTR	78	288	2
NMSCL	78	288	2	96	96	5
NMTAP	78	336	2
NMTAP	79	0	3
NMTAP	79	48	3
NMTAP	79	96	4
NMTAP	79	144	2
NMTAP	79	144	6
NMSTR	79	240	1
NMSCR	79	240	1	96	48	4
NMTAP	79	240	4
NMTAP	79	288	0
NMTAP	79	336	1
NMTAP	79	336	7
NMTAP	80	48	3
NMSTR	80	48	6
NMSCL	80	48	6	96	48	3
NMTAP	80	96	7
NMTAP	80	144	0
NMTAP	80	144	6
NMSTR	80	240	1
NMSCR	80	240	1	96	96	6
NMTAP	80	240	6
NMTAP	80	288	0
NMTAP	80	288	7
NMTAP	80	336	1
NMTAP	80	336	6
NMTAP	81	48	7
NMTAP	81	96	0
NMTAP	81	144	1
NMSTR	81	144	6
NMSI_	81	144	6	96	48	3
NMSTR	81	240	1
NMSUR	81	240	1	96	48	4
NMTTP	81	336	0	C	1	M1
CNSCR	82	0	4	0	240	3
NMTAP	82	240	7
NMTAP	82	288	0
NMTAP	82	288	6
NMTAP	82	336	1
NMTAP	82	336	5
NMTAP	83	48	2
NMTAP	83	48	6
NMTAP	83	96	1
NMTAP	83	120	0
NMTAP	83	168	6
NMTAP	83	192	7
NMTAP	83	240	2
NMTAP	83	240	3
BRTAP	83	288	0
BRTAP	83	288	5
NMSTR	84	0	6
NMSI_	84	0	6	96	48	3
NMTAP	84	48	6
NMTAP	84	96	0
NMTAP	84	144	2
NMTAP	84	168	2
NMSTR	84	192	4
NMSI_	84	192	4	96	48	7
NMTAP	84	240	4
NMSTR	84	288	1
NMSI_	84	288	1	96	48	5
NMTAP	84	336	1
NMSTR	85	0	6
NMSI_	85	0	6	96	48	3
NMTAP	85	48	6
NMTAP	85	96	0
NMTAP	85	144	2
NMTAP	85	168	2
NMSTR	85	192	4
NMSI_	85	192	4	96	48	7
NMTAP	85	240	4
NMTAP	85	288	0
NMTAP	85	336	0
NMTAP	86	0	1
NMTAP	86	0	7
NMSTR	86	48	1
NMSI_	86	48	1	96	48	3
NMSTR	86	48	7
NMSI_	86	48	7	96	48	3
EXSTR	86	144	1
NMSI_	86	144	1	96	48	5
EXSTR	86	144	7
NMSI_	86	144	7	96	48	5
EXTAP	86	240	1
EXSTR	86	240	7
BRSF_	86	240	7	96	48	3
BXTAP	86	336	7
EXTAP	87	48	1
EXTAP	87	48	5
EXTAP	87	96	1
EXTAP	87	96	5
NMTTP	87	144	0	C	1	M1
NMTTP	87	144	1	B	0	M1
NMTTP	87	144	1	A	0	M1
NMTTP	87	144	5	B	0	M1
NMTTP	87	144	5	A	0	M1
NMTAP	87	288	0
NMTAP	87	288	6
NMHLD	87	336	7	192
NMTAP	88	48	1
NMTAP	88	96	2
NMHLD	88	144	3	288
NMTTP	88	240	2	D	0	M1
NMTTP	88	264	1	D	0	M1
NMTTP	88	288	0	D	0	M1
NMTTP	88	312	7	D	0	M1
NMTTP	88	336	6	D	0	M1
NMTAP	89	48	4
NMTAP	89	96	3
NMTAP	89	96	5
NMTAP	89	144	2
NMTAP	89	192	1
NMTAP	89	192	4
NMTAP	89	240	5
NMSTR	89	288	2
NMSXL	89	288	2	96	384	5
NMSTR	89	288	6
NMSXL	89	288	6	96	384	1
NMTAP	91	240	0
NMTAP	91	240	7
NMTAP	91	264	0
NMTAP	91	264	7
BXTAP	91	288	1
BXTAP	91	288	6
NMTAP	92	0	3
NMTAP	92	0	4
NMTAP	92	96	2
NMTAP	92	96	6
NMSTR	92	144	1
NMSCL	92	144	1	96	48	6
NMTAP	92	144	5
NMTAP	92	240	3
NMTAP	92	336	4
NMTAP	93	0	3
NMTAP	93	0	5
NMTAP	93	48	2
NMTAP	93	48	6
NMTAP	93	96	1
NMTAP	93	120	0
NMTAP	93	168	6
NMTAP	93	192	7
NMTAP	93	240	0
NMTAP	93	264	7
NMTAP	93	288	0
NMTAP	93	312	7
NMTAP	93	336	0
NMTAP	93	360	7
BRHLD	94	0	2	384
BRHLD	94	0	6	192
NMSTR	95	0	3
NMSCL	95	0	3	96	960	4
NMHLD	95	336	4	288
NMHLD	96	336	3	432
NMTAP	98	0	4
NMTAP	98	48	1
NMTAP	98	72	6
NMTAP	98	96	2
NMTAP	98	120	5
NMTAP	98	144	3
NMTAP	98	168	4
NMTAP	98	192	3
NMSTR	98	240	1
NMSI_	98	240	1	96	48	4
NMSTR	98	240	6
NMSI_	98	240	6	96	48	3
NMTAP	98	288	0
NMTAP	98	288	7
NMTAP	98	336	1
NMTAP	98	336	6
NMTAP	99	48	0
NMTAP	99	96	1
NMTAP	99	96	7
NMTAP	99	144	2
NMSTR	99	144	6
NMSI_	99	144	6	96	48	2
NMSTR	99	240	1
NMSCL	99	240	1	96	144	3
NMTAP	99	240	6
NMHLD	99	336	5	144
NMTAP	100	192	2
NMTAP	100	192	4
NMSTR	100	240	5
NMSXR	100	240	5	96	48	4
NMTAP	100	288	1
NMHLD	100	336	0	240
CNSCR	101	0	4	0	168	3
NMTTP	101	192	5	D	0	M1
NMTTP	101	208	6	D	0	M1
NMTTP	101	224	7	D	0	M1
NMTTP	101	240	0	D	0	M1
NMTTP	101	256	1	D	0	M1
NMTTP	101	272	2	D	0	M1
NMTTP	101	288	3	D	0	M1
NMTAP	102	0	4
NMTAP	102	0	5
NMTAP	102	48	6
NMTAP	102	96	0
NMTAP	102	96	7
NMTAP	102	144	1
NMTAP	102	192	2
NMTAP	102	192	3
NMSTR	102	240	0
NMSI_	102	240	0	96	48	3
NMSTR	102	240	4
NMSI_	102	240	4	96	48	7
NMTAP	102	336	0
NMTAP	102	336	4
NMTAP	103	48	6
NMTAP	103	96	5
NMTAP	103	144	4
NMTAP	103	192	2
NMTAP	103	192	3
NMTAP	103	240	1
NMTAP	103	288	4
NMTAP	103	288	5
NMTAP	103	336	6
NMTAP	104	0	1
NMTAP	104	0	3
NMTAP	104	48	0
NMTAP	104	96	4
NMTAP	104	96	6
NMTAP	104	144	7
NMTAP	104	192	1
NMTAP	104	192	3
NMSTR	104	240	0
NMSI_	104	240	0	96	48	4
NMTAP	104	240	4
BRHLD	104	336	7	816
NMTTP	104	342	0	C	1	M1
NMTTP	105	336	5	D	0	M1
NMTTP	105	360	4	D	0	M1
NMTTP	106	0	3	D	0	M1

T_REC_TAP	534
T_REC_BRK	8
T_REC_XTP	17
T_REC_HLD	35
T_REC_XHO	0
T_REC_STR	90
T_REC_BST	2
T_REC_XST	3
T_REC_TTP	58
T_REC_THO	0
T_REC_SLD	95
T_REC_ALL	842
T_NUM_TAP	702
T_NUM_BRK	10
T_NUM_HLD	35
T_NUM_SLD	95
T_NUM_ALL	842
T_JUDGE_TAP	712
T_JUDGE_HLD	145
T_JUDGE_SLD	95
T_JUDGE_ALL	952
TTM_EACHPAIRS	180
TTM_SCR_TAP	351000
TTM_SCR_BRK	26000
TTM_SCR_HLD	35000
TTM_SCR_SLD	142500
TTM_SCR_ALL	554500
TTM_SCR_S	536900
TTM_SCR_SS	553500
TTM_RAT_ACV	10018

