VERSION	0.00.00	1.03.00
FES_MODE	0
BPM_DEF	175.000	175.000	175.000	175.000
MET_DEF	4	4
RESOLUTION	384
CLK_DEF	384
COMPATIBLE_CODE	MA2

BPM	0	0	175.000
MET	0	0	4	4

XST	2	0	2
SCR	2	0	2	96	240	5
XST	2	336	6
SUL	2	336	6	96	240	2
XHO	3	336	0	336
TAP	4	288	7
TAP	5	0	1
TAP	5	0	6
TAP	5	48	7
TAP	5	72	0
TAP	5	96	7
TAP	5	120	0
TAP	5	144	7
TAP	5	192	2
TAP	5	192	5
STR	5	240	0
SI_	5	240	0	96	48	3
STR	5	240	7
SI_	5	240	7	96	48	4
BRK	5	336	0
BRK	5	336	7
TAP	6	48	5
TAP	6	96	4
TAP	6	96	6
TAP	6	144	4
TAP	6	144	6
STR	6	240	1
SCR	6	240	1	96	144	7
TAP	6	240	3
HLD	6	336	0	144
TAP	7	192	1
TAP	7	192	7
STR	7	240	6
SCR	7	240	6	96	144	5
TAP	7	288	5
HLD	7	336	4	144
TAP	8	192	3
TAP	8	192	5
TAP	8	288	2
TAP	8	288	4
TAP	9	0	1
TAP	9	0	3
TAP	9	48	2
TAP	9	96	4
TAP	9	96	6
TAP	9	144	5
TAP	9	192	1
TAP	9	192	3
STR	9	240	0
SI_	9	240	0	96	48	4
TAP	9	240	4
BRK	9	336	0
BRK	9	336	4
TTP	10	48	7	E	0	M1
TTP	10	96	6	E	0	M1
TTP	10	144	5	E	0	M1
TTP	10	240	1	E	0	M1
TTP	10	288	2	E	0	M1
TTP	10	336	3	E	0	M1
TAP	11	48	4
TAP	11	48	6
TAP	11	96	4
TAP	11	96	6
TAP	11	192	1
TAP	11	192	3
TAP	11	240	1
TAP	11	240	3
XTP	11	336	0
XHO	11	336	7	1584
TTP	12	192	3	E	0	M1
TAP	12	336	4
TAP	13	96	4
TTP	13	192	3	E	0	M1
TAP	14	0	4
TTP	14	192	3	E	0	M1
TAP	14	336	4
TAP	15	96	4
TTP	15	192	3	E	0	M1
HLD	16	0	0	1104
TTP	16	192	5	E	0	M1
TAP	16	336	3
TAP	17	96	3
TTP	17	192	5	E	0	M1
TAP	18	0	3
TTP	18	192	5	E	0	M1
TAP	18	336	3
TAP	19	96	2
TAP	19	96	4
TTP	19	192	4	B	0	M1
TTP	19	192	4	E	0	M1
TTP	19	192	5	B	0	M1
TTP	19	192	6	E	0	M1
XTP	19	288	0
TAP	20	0	2
STR	20	0	3
SI_	20	0	3	96	48	5
STR	20	96	1
SI_	20	96	1	96	48	3
TAP	20	144	1
STR	20	240	6
SI_	20	240	6	96	48	0
TAP	20	288	6
STR	21	0	4
SI_	21	0	4	96	48	2
STR	21	96	6
SI_	21	96	6	96	48	4
STR	21	192	1
SCR	21	192	1	96	48	4
TAP	21	288	5
HLD	22	0	6	96
HLD	22	96	4	96
HLD	22	192	3	96
TAP	22	288	1
TAP	22	336	1
TAP	22	336	3
TAP	23	48	6
TAP	23	96	4
TAP	23	96	6
TAP	23	192	3
TAP	23	192	5
TAP	23	288	1
TAP	23	288	7
TAP	24	0	2
TAP	24	0	4
TAP	24	96	0
TAP	24	96	6
HLD	24	144	1	96
TAP	24	144	5
STR	24	240	2
SXR	24	240	2	96	192	5
HLD	25	192	0	96
STR	25	288	3
SCL	25	288	3	96	192	4
TTP	26	0	0	C	1	M1
TAP	26	288	0
TAP	26	288	4
HLD	26	336	0	240
TAP	26	336	4
TAP	27	96	2
TTP	27	144	3	E	0	M1
TTP	27	168	4	E	0	M1
TTP	27	192	5	E	0	M1
XTP	27	288	1
XTP	27	288	6
HLD	28	0	3	192
TAP	28	0	4
TAP	28	96	4
TAP	28	192	4
TAP	28	288	3
TAP	28	288	4
TTP	29	0	3	E	0	M1
TAP	29	0	4
TTP	29	96	2	E	0	M1
TAP	29	96	4
TTP	29	192	1	E	0	M1
TAP	29	192	4
TTP	29	288	0	E	0	M1
TAP	29	288	4
XTP	30	0	4
XHO	30	0	7	192
TAP	30	96	4
TAP	30	192	4
TAP	30	288	4
TAP	30	288	7
TTP	31	0	0	E	0	M1
TAP	31	0	4
TTP	31	96	1	E	0	M1
TAP	31	96	4
TTP	31	192	2	E	0	M1
TAP	31	192	4
TTP	31	288	3	E	0	M1
TAP	31	288	4
XTP	32	0	3
XTP	32	0	4
TAP	32	96	2
TAP	32	96	4
TAP	32	192	1
TAP	32	192	4
TAP	32	288	0
TAP	32	288	4
TAP	33	0	4
STR	33	0	7
SF_	33	0	7	96	96	3
TAP	33	288	1
TAP	33	288	5
TAP	34	0	2
STR	34	0	3
SUR	34	0	3	96	72	7
TAP	34	96	1
HLD	34	144	1	96
TAP	34	240	0
TAP	34	288	2
TAP	34	288	7
STR	35	0	4
SUL	35	0	4	96	72	0
TAP	35	0	5
TAP	35	96	6
HLD	35	144	6	96
TAP	35	240	7
TAP	35	288	0
TAP	35	288	5
TAP	36	0	2
STR	36	0	3
SUR	36	0	3	96	72	7
TAP	36	96	1
HLD	36	144	1	96
TAP	36	240	0
TAP	36	288	1
TAP	36	336	2
TAP	37	0	3
HLD	37	0	6	96
HLD	37	96	4	96
HLD	37	192	2	96
HLD	37	288	0	96
XTP	38	0	7
XTP	38	96	5
XTP	38	96	6
XTP	38	192	3
XTP	38	192	4
XTP	38	288	1
XTP	38	288	2
XHO	39	0	0	48
XHO	39	0	7	48
XHO	39	96	5	48
XHO	39	96	6	48
XHO	39	192	3	48
XHO	39	192	4	48
XHO	39	288	1	48
XHO	39	288	2	48
XTP	40	0	0
XTP	40	0	7
TAP	40	96	3
TAP	40	96	4
TAP	40	144	5
TAP	40	192	3
TAP	40	192	4
TAP	40	240	2
TAP	40	288	3
TAP	40	288	4
TAP	40	336	5
TAP	41	0	2
TAP	41	0	3
TAP	41	48	1
TAP	41	96	4
TAP	41	96	5
TAP	41	144	6
TAP	41	192	1
TAP	41	192	3
TAP	41	240	0
TAP	41	288	4
TAP	41	288	6
TAP	41	336	7
BRK	42	0	2
BRK	42	0	6
TAP	42	96	0
TAP	42	96	1
TAP	42	144	2
TAP	42	144	7
TAP	42	240	6
TAP	42	240	7
TAP	42	288	6
TAP	42	288	7
TAP	42	336	0
TAP	42	336	5
TAP	43	48	1
TAP	43	48	6
TAP	43	96	2
TAP	43	96	5
TAP	43	144	3
TAP	43	144	4
BRK	43	288	0
BRK	43	288	7
TAP	44	0	2
TAP	44	0	6
STR	44	48	1
SI_	44	48	1	96	48	5
TAP	44	48	5
STR	44	144	3
SCR	44	144	3	96	96	6
STR	44	240	6
SCR	44	240	6	96	96	1
STR	44	336	1
SXR	44	336	1	96	144	4
TAP	45	48	4
TAP	45	96	3
TAP	45	144	2
TAP	45	240	7
TAP	45	288	7
TAP	46	0	1
TAP	46	0	5
TAP	46	48	2
STR	46	48	6
SI_	46	48	6	96	48	2
STR	46	144	0
SLR	46	144	0	96	96	4
STR	46	240	4
SLR	46	240	4	96	96	0
STR	46	336	0
SXL	46	336	0	96	144	0
TAP	47	48	5
TAP	47	96	6
TAP	47	144	7
STR	47	240	7
SI_	47	240	7	96	48	3
HLD	47	288	7	48
STR	48	48	0
SI_	48	48	0	96	48	4
HLD	48	96	0	48
STR	48	240	6
SCR	48	240	6	96	48	1
HLD	48	288	6	48
TAP	49	48	2
TAP	49	96	3
STR	49	144	1
SI_	49	144	1	96	48	5
TAP	49	144	4
TAP	49	240	1
STR	49	240	7
SCL	49	240	7	96	144	0
TTP	49	336	0	C	1	M1
BRK	49	336	7
TAP	50	240	6
TAP	50	240	7
TAP	50	288	6
TAP	50	288	7
TAP	50	336	0
TAP	50	336	5
TAP	51	48	3
TAP	51	48	6
TAP	51	96	5
TAP	51	120	4
TAP	51	168	2
TAP	51	192	3
TAP	51	240	2
TAP	51	240	4
BRK	51	288	1
BRK	51	288	5
TAP	52	0	2
TAP	52	0	6
TAP	52	48	1
STR	52	48	5
SI_	52	48	5	96	48	1
STR	52	144	7
SCR	52	144	7	96	96	2
STR	52	240	2
SCR	52	240	2	96	96	5
STR	52	336	5
SXR	52	336	5	96	144	0
TAP	53	48	0
TAP	53	96	7
TAP	53	144	6
TAP	53	240	3
TAP	53	288	3
TAP	54	0	5
STR	54	48	4
SI_	54	48	4	96	48	7
TAP	54	48	6
STR	54	144	3
SI_	54	144	3	96	48	0
TAP	54	144	4
STR	54	240	1
SCL	54	240	1	96	48	6
SCR	54	240	1	96	48	4
TAP	54	240	3
TAP	54	336	1
XTP	55	48	5
TAP	55	96	4
TAP	55	96	6
TAP	55	144	3
TAP	55	144	7
TAP	55	288	2
TAP	55	288	3
HLD	55	336	1	192
TAP	55	336	4
TAP	56	48	0
TAP	56	96	7
HLD	56	144	6	96
TAP	56	240	7
TAP	56	264	0
TAP	56	288	1
TAP	56	312	2
TAP	56	336	3
STR	56	336	6
SUL	56	336	6	96	144	4
HLD	57	48	0	96
TAP	57	288	2
HLD	57	336	2	144
TAP	58	48	3
TAP	58	96	4
HLD	58	144	5	96
STR	58	240	4
SCR	58	240	4	96	192	3
TTP	58	336	0	C	1	M1
TAP	59	240	7
TAP	59	288	6
HLD	59	336	5	288
TAP	60	240	4
TAP	60	288	5
TAP	60	336	3
TAP	60	336	6
BST	61	0	2
SV_	61	0	2	96	48	0
BRK	61	0	7
STR	61	96	6
SCL	61	96	6	96	48	4
TAP	61	144	6
HLD	61	240	1	96
HLD	61	336	3	96
HLD	62	48	4	96
STR	62	144	7
SSR	62	144	7	96	120	3
TAP	62	240	2
TAP	62	288	2
HLD	62	336	1	96
TAP	63	48	3
TAP	63	96	4
TAP	63	144	5
TAP	63	192	2
TAP	63	240	3
TAP	63	288	4
HLD	63	336	5	96
TAP	64	48	4
TAP	64	72	5
TAP	64	96	4
XTP	64	144	3
XTP	64	144	6
TAP	64	240	2
TAP	64	240	3
TAP	64	288	1
TAP	64	288	4
XTP	65	0	0
XTP	65	0	6
TTP	65	48	6	E	0	M1
TTP	65	72	5	B	0	M1
TTP	65	96	4	B	0	M1
TTP	65	120	4	E	0	M1
TTP	65	144	0	C	0	M1
TAP	65	240	6
TAP	65	288	7
TAP	65	336	0
XTP	66	0	1
XTP	66	0	7
TTP	66	48	2	E	0	M1
TTP	66	72	2	B	0	M1
TTP	66	96	3	B	0	M1
TTP	66	120	4	E	0	M1
TTP	66	144	0	C	0	M1
TAP	66	240	1
TAP	66	288	0
TAP	66	336	7
TAP	67	0	1
TAP	67	0	6
TAP	67	96	3
TAP	67	96	5
TAP	67	144	3
TAP	67	144	5
TAP	67	240	0
TAP	67	240	7
STR	67	336	1
SLR	67	336	1	96	144	0
STR	67	336	5
SLL	67	336	5	96	144	6
TAP	68	288	7
BRK	69	0	1
BRK	69	0	5
TTP	71	0	5	B	0	M1
TTP	71	0	6	E	0	M1
TTP	72	0	2	B	0	M1
TTP	72	0	2	E	0	M1
TAP	73	0	3
TAP	73	0	4
TAP	73	96	2
TAP	73	96	5
TAP	73	144	2
TAP	73	144	5
TAP	73	192	1
TAP	73	192	6
STR	73	240	1
SLR	73	240	1	96	144	0
STR	73	240	6
SLL	73	240	6	96	144	7
TAP	73	288	0
TAP	73	288	7
TTP	74	192	0	C	1	M1
TAP	75	288	2
TAP	75	288	5
XTP	76	0	3
XTP	76	12	4
BST	76	96	1
SXL	76	96	1	96	144	0
BST	76	96	5
SXL	76	96	5	96	144	4
XTP	77	0	1
XTP	77	0	5
TAP	77	96	3
HLD	77	96	4	120
XTP	77	192	5
XTP	77	204	6
XTP	77	216	7
XTP	77	228	0
XTP	77	240	1
XTP	77	252	2
XTP	77	264	3
XTP	77	276	4
BRK	77	288	5
STR	78	0	0
SI_	78	0	0	96	48	3
TAP	78	48	0
STR	78	96	7
SI_	78	96	7	96	48	4
TAP	78	144	7
STR	78	192	2
SI_	78	192	2	96	48	7
TAP	78	240	2
STR	78	288	5
SLR	78	288	5	96	96	3
TAP	78	336	5
TAP	79	0	3
TAP	79	48	2
TAP	79	96	1
TAP	79	144	0
TAP	79	144	4
STR	79	240	1
SUR	79	240	1	96	48	5
HLD	79	288	1	48
STR	80	48	6
SUL	80	48	6	96	48	2
HLD	80	96	6	48
STR	80	240	1
SCL	80	240	1	96	48	6
HLD	80	288	1	48
TAP	81	48	5
TAP	81	96	4
TAP	81	144	3
TAP	81	144	6
STR	81	240	0
SI_	81	240	0	96	48	4
TAP	81	240	4
BRK	81	336	0
BST	81	336	4
SCL	81	336	4	96	144	4
SCR	81	336	4	96	144	4
TTP	81	344	0	C	1	M1
XTP	82	240	4
TAP	82	288	3
TAP	82	288	5
TAP	82	336	2
TAP	82	336	6
TAP	83	48	0
TAP	83	48	5
TAP	83	96	6
TAP	83	120	7
TAP	83	168	1
TAP	83	192	0
TAP	83	240	1
TAP	83	240	7
BRK	83	288	2
BRK	83	288	6
STR	84	0	1
SI_	84	0	1	96	48	5
TAP	84	48	1
STR	84	96	4
SI_	84	96	4	96	48	7
TAP	84	144	4
STR	84	192	0
SI_	84	192	0	96	48	3
TAP	84	240	0
STR	84	288	6
SI_	84	288	6	96	48	2
TAP	84	336	6
STR	85	0	4
SI_	85	0	4	96	48	1
TAP	85	48	4
STR	85	96	5
SI_	85	96	5	96	48	0
TAP	85	144	5
STR	85	192	2
SI_	85	192	2	96	48	7
TAP	85	240	2
TAP	85	288	3
TAP	85	336	3
TAP	86	0	0
TAP	86	0	4
TAP	86	48	2
STR	86	48	6
SI_	86	48	6	96	48	2
STR	86	144	1
SI_	86	144	1	96	48	5
TAP	86	144	6
TAP	86	240	1
STR	86	240	7
SF_	86	240	7	96	48	3
TAP	86	336	7
XTP	87	48	2
TAP	87	96	1
TAP	87	96	3
TAP	87	144	0
TAP	87	144	4
TAP	87	288	4
TAP	87	288	5
TAP	87	336	3
HLD	87	336	6	192
TAP	88	48	7
TAP	88	96	0
HLD	88	144	1	96
TAP	88	240	0
TAP	88	264	7
TAP	88	288	6
TAP	88	312	5
STR	88	336	1
SUR	88	336	1	96	144	4
TAP	88	336	4
HLD	89	48	7	144
TAP	89	288	3
TAP	89	288	5
TTP	90	0	0	C	1	M1
TAP	91	240	4
TAP	91	264	4
BRK	91	288	1
TAP	92	0	2
TAP	92	48	2
TAP	92	96	4
TAP	92	144	3
TAP	92	192	5
TAP	92	240	5
TAP	92	288	3
TAP	92	336	4
TAP	93	0	2
TAP	93	0	5
TAP	93	48	2
TAP	93	48	5
TAP	93	96	6
TAP	93	120	7
TAP	93	168	1
TAP	93	192	0
TAP	93	240	2
TAP	93	264	3
TAP	93	288	2
TAP	93	336	1
TAP	93	336	4
BRK	94	0	0
BRK	94	0	7
TAP	94	192	3
TAP	94	192	5
TAP	94	240	3
STR	94	240	5
SCR	94	240	5	96	432	4
TTP	94	336	0	C	1	M1
HLD	97	0	7	288
TAP	97	288	0
TAP	98	0	1
TAP	98	0	6
TAP	98	48	0
TAP	98	72	7
TAP	98	96	0
TAP	98	120	7
TAP	98	144	0
TAP	98	192	2
TAP	98	192	5
STR	98	240	0
SI_	98	240	0	96	48	3
STR	98	240	7
SI_	98	240	7	96	48	4
BRK	98	336	0
BRK	98	336	7
TAP	99	48	2
TAP	99	96	1
TAP	99	96	3
TAP	99	144	1
TAP	99	144	3
TAP	99	240	4
STR	99	240	6
SCL	99	240	6	96	144	0
HLD	99	336	7	144
TAP	100	192	0
TAP	100	192	6
STR	100	240	1
SCL	100	240	1	96	144	2
TAP	100	288	2
HLD	100	336	3	144
TAP	101	192	2
TAP	101	192	4
TAP	101	288	3
TAP	101	288	5
TAP	102	0	4
TAP	102	0	6
TAP	102	48	5
TAP	102	96	1
TAP	102	96	3
TAP	102	144	2
TAP	102	192	4
TAP	102	192	6
STR	102	240	3
SCL	102	240	3	96	48	0
STR	102	240	7
SCL	102	240	7	96	48	4
BRK	102	336	3
BRK	102	336	7
TAP	103	48	1
TAP	103	96	7
TAP	103	144	6
TAP	103	192	1
TAP	103	240	2
TAP	103	288	5
TAP	103	336	4
TAP	104	0	2
TAP	104	0	3
TAP	104	48	2
TAP	104	48	3
TAP	104	96	1
TAP	104	96	4
TAP	104	192	4
TAP	104	192	5
STR	104	240	3
SCL	104	240	3	96	240	4
TAP	104	240	6
TTP	104	336	0	C	1	M1
TTP	105	336	7	B	0	M1
TTP	105	360	0	C	0	M1
TTP	106	0	3	B	0	M1

T_REC_TAP	395
T_REC_BRK	25
T_REC_XTP	37
T_REC_HLD	41
T_REC_XHO	11
T_REC_STR	72
T_REC_BST	4
T_REC_XST	2
T_REC_TTP	53
T_REC_THO	0
T_REC_SLD	80
T_REC_ALL	720
T_NUM_TAP	559
T_NUM_BRK	29
T_NUM_HLD	52
T_NUM_SLD	80
T_NUM_ALL	720
T_JUDGE_TAP	588
T_JUDGE_HLD	173
T_JUDGE_SLD	80
T_JUDGE_ALL	841
TTM_EACHPAIRS	163
TTM_SCR_TAP	279500
TTM_SCR_BRK	75400
TTM_SCR_HLD	52000
TTM_SCR_SLD	120000
TTM_SCR_ALL	526900
TTM_SCR_S	508300
TTM_SCR_SS	524000
TTM_RAT_ACV	10055

