VERSION	0.00.00	1.03.00
FES_MODE	0
BPM_DEF	175.000	175.000	175.000	175.000
MET_DEF	4	4
RESOLUTION	384
CLK_DEF	384
COMPATIBLE_CODE	MA2

BPM	0	0	175.000
MET	0	0	4	4

HLD	2	0	3	384
TAP	2	0	4
HLD	3	0	4	384
STR	4	0	3
SCL	4	0	3	96	192	0
TAP	5	0	7
TAP	5	96	0
TAP	5	192	0
TAP	5	192	7
TAP	5	240	0
TAP	5	240	7
BRK	5	336	1
BRK	5	336	6
TAP	6	96	3
TAP	6	96	5
TAP	6	144	3
TAP	6	144	5
HLD	6	240	2	96
TAP	6	240	4
XST	6	336	3
SI_	6	336	3	96	96	7
TAP	7	192	0
TAP	7	288	1
TAP	7	288	6
XHO	7	336	1	240
XST	7	336	6
SXL	7	336	6	96	192	3
TAP	9	0	2
TAP	9	48	2
TAP	9	96	1
TAP	9	96	3
TAP	9	192	4
TAP	9	240	3
STR	9	240	5
SCR	9	240	5	96	240	2
TTP	9	336	0	C	1	M1
HLD	11	0	0	96
TAP	11	96	7
TAP	11	192	1
TAP	11	192	6
TAP	11	240	1
TAP	11	240	6
XTP	11	336	3
XHO	11	336	5	816
TTP	12	192	5	E	0	M1
TTP	13	192	4	E	0	M1
HLD	14	0	2	768
TTP	14	192	4	E	0	M1
TTP	15	192	5	E	0	M1
HLD	16	0	6	768
TTP	16	192	0	E	0	M1
TTP	17	192	2	E	0	M1
HLD	18	0	1	192
STR	18	192	3
SV_	18	192	3	96	144	0
SV_	18	192	3	96	144	6
TAP	19	192	0
TAP	19	288	7
HLD	20	0	1	96
TAP	20	96	3
TAP	20	192	2
TAP	20	192	4
TAP	20	288	3
TAP	20	336	3
TAP	21	48	5
TAP	21	96	5
TAP	21	192	4
TAP	21	192	6
TAP	21	288	3
TAP	21	288	7
HLD	22	0	6	96
TAP	22	96	4
TAP	22	192	3
TAP	22	192	5
TAP	22	288	4
TAP	22	336	4
TAP	23	48	2
TAP	23	96	2
TAP	23	192	1
TAP	23	192	3
TAP	23	288	0
TAP	23	288	7
TAP	24	0	1
HLD	24	0	6	336
TAP	24	96	4
TAP	24	144	4
TAP	24	240	3
HLD	24	336	2	336
TAP	25	96	1
TAP	25	192	0
TAP	25	288	7
STR	26	0	3
SCR	26	0	3	96	192	1
TAP	26	0	6
THO	26	336	0	240	C	1	M1
XTP	28	0	0
XHO	28	0	1	672
TAP	28	96	0
TAP	28	192	0
TAP	28	288	0
TTP	29	0	2	E	0	M1
TTP	29	96	0	E	0	M1
TTP	29	192	4	E	0	M1
XTP	30	0	4
XHO	30	0	5	672
TAP	30	96	4
TAP	30	192	4
TAP	30	288	4
TTP	31	0	6	E	0	M1
TTP	31	96	4	E	0	M1
TTP	31	192	0	E	0	M1
TAP	32	0	0
HLD	32	0	1	192
TAP	32	96	0
TAP	32	192	0
TAP	32	288	0
TAP	32	288	1
STR	33	0	0
SCR	33	0	0	96	96	3
STR	33	0	7
SCL	33	0	7	96	96	4
TAP	33	288	3
TAP	33	288	4
TAP	34	0	2
HLD	34	0	5	144
TAP	34	96	4
HLD	34	144	4	96
TAP	34	240	6
TAP	34	288	4
TAP	34	288	6
HLD	35	0	2	144
TAP	35	96	3
HLD	35	144	3	96
TAP	35	240	1
TAP	35	288	1
TAP	35	288	3
HLD	36	0	5	144
TAP	36	96	4
HLD	36	144	4	96
TAP	36	240	6
TAP	36	288	4
TAP	36	288	6
TAP	37	0	3
TAP	37	0	5
TAP	37	96	2
TAP	37	96	4
TAP	37	192	0
TAP	37	192	7
TAP	37	288	1
TAP	37	288	6
XHO	38	0	7	96
XHO	38	96	6	96
XHO	38	192	5	96
XHO	38	288	4	96
XHO	39	0	3	96
XHO	39	96	2	96
XHO	39	192	1	96
XHO	39	288	0	96
XTP	40	0	7
TAP	40	96	6
TAP	40	144	7
TAP	40	192	6
TAP	40	288	0
TAP	40	288	7
TAP	41	0	1
TAP	41	48	0
TAP	41	96	1
TAP	41	192	0
TAP	41	192	7
TAP	41	288	1
TAP	41	288	6
TAP	41	336	1
TAP	41	336	6
TAP	42	0	1
TAP	42	0	6
TAP	42	96	5
TAP	42	144	4
TAP	42	144	6
TAP	42	240	2
TAP	42	288	2
TAP	42	336	1
TAP	42	336	3
TAP	43	48	0
TAP	43	48	7
TAP	43	96	0
TAP	43	96	7
TAP	43	144	0
TAP	43	144	7
BRK	43	288	1
BRK	43	288	6
TAP	44	0	2
TAP	44	0	5
STR	44	48	2
SI_	44	48	2	96	48	7
TAP	44	48	5
STR	44	144	6
SI_	44	144	6	96	48	3
STR	44	240	0
SI_	44	240	0	96	48	4
TAP	44	336	6
TAP	45	48	5
TAP	45	96	4
TAP	45	144	3
TAP	45	144	6
TAP	45	240	0
TAP	45	240	7
TAP	45	288	0
TAP	45	288	7
TAP	46	0	2
TAP	46	0	5
TAP	46	48	2
STR	46	48	5
SI_	46	48	5	96	48	2
STR	46	144	1
SI_	46	144	1	96	48	6
STR	46	240	3
SI_	46	240	3	96	48	7
TAP	46	336	0
TAP	47	48	1
TAP	47	96	0
TAP	47	144	2
TAP	47	144	7
TAP	47	240	6
TAP	47	288	6
TAP	47	336	7
TAP	48	48	1
TAP	48	96	1
TAP	48	144	0
TAP	48	240	5
TAP	48	288	5
TAP	48	336	4
TAP	49	48	2
TAP	49	96	2
STR	49	144	1
SI_	49	144	1	96	48	5
TAP	49	144	3
STR	49	240	7
SCL	49	240	7	96	192	0
TTP	49	336	0	C	1	M1
TAP	50	240	1
TAP	50	288	1
TAP	50	336	0
TAP	50	336	2
TAP	51	48	6
TAP	51	96	5
TAP	51	96	7
TAP	51	192	3
TAP	51	192	4
BRK	51	288	0
BRK	51	288	7
TAP	52	0	1
TAP	52	0	6
TAP	52	48	1
STR	52	48	6
SI_	52	48	6	96	48	3
STR	52	144	2
SI_	52	144	2	96	48	7
STR	52	240	4
SI_	52	240	4	96	48	0
TAP	52	336	2
TAP	53	48	1
TAP	53	96	0
TAP	53	144	2
TAP	53	144	7
TAP	53	240	3
TAP	53	240	4
TAP	53	288	3
TAP	53	288	4
XTP	54	0	0
XTP	54	0	7
XTP	54	48	0
XTP	54	48	7
XTP	54	144	3
XTP	54	144	6
XTP	54	240	1
XTP	54	240	4
XST	54	336	0
SCR	54	336	0	96	96	3
XST	54	336	7
SCL	54	336	7	96	96	4
TAP	55	288	3
TAP	55	288	4
XHO	56	0	2	96
XHO	56	0	5	96
XHO	56	144	1	144
XHO	56	144	4	144
XST	56	336	0
SXL	56	336	0	96	240	5
XTP	56	336	3
TAP	57	288	7
XHO	58	0	4	96
XHO	58	0	6	96
XST	58	144	3
SXR	58	144	3	96	240	0
XST	58	144	5
SXL	58	144	5	96	240	0
TAP	59	288	0
TAP	59	288	7
STR	60	0	0
SI_	60	0	0	96	96	4
STR	60	0	7
SI_	60	0	7	96	96	3
TAP	60	288	2
TAP	60	288	5
TAP	61	0	0
TAP	61	0	7
TAP	61	96	6
TAP	61	144	6
TAP	61	192	4
TAP	61	288	1
TAP	61	336	1
TAP	62	0	3
STR	62	96	0
SSL	62	96	0	96	144	4
TAP	62	96	4
TAP	63	0	5
TAP	63	48	5
TAP	63	96	4
TAP	63	192	3
TAP	63	192	6
TAP	63	288	2
TAP	63	336	2
TAP	64	0	3
STR	64	96	1
SI_	64	96	1	96	96	3
STR	64	96	4
SI_	64	96	4	96	96	0
XHO	65	0	7	384
TAP	65	96	2
TAP	65	144	2
TAP	65	240	4
TAP	65	288	4
XHO	66	0	0	384
TAP	66	96	5
TAP	66	144	5
TAP	66	240	3
TAP	66	288	3
HLD	67	0	7	240
TAP	67	96	2
TAP	67	144	2
XHO	67	240	0	96
THO	67	336	0	240	C	0	M1
XTP	68	288	0
XTP	68	288	7
BRK	69	0	1
BRK	69	0	6
TTP	71	0	5	E	0	M1
TTP	72	0	3	E	0	M1
TAP	73	0	2
TAP	73	0	5
TAP	73	96	3
TAP	73	144	3
TAP	73	192	4
STR	73	240	4
SCR	73	240	4	96	336	3
TTP	73	336	0	C	1	M1
HLD	75	288	3	96
HLD	75	288	4	108
XST	76	96	3
SI_	76	96	3	96	96	0
XST	76	96	4
SI_	76	96	4	96	96	7
TAP	77	0	0
TAP	77	0	7
STR	77	96	1
SCR	77	96	1	96	96	4
TAP	77	96	6
BRK	77	288	7
STR	78	0	6
SI_	78	0	6	96	48	3
STR	78	96	7
SI_	78	96	7	96	48	1
STR	78	192	6
SI_	78	192	6	96	48	4
STR	78	288	7
SI_	78	288	7	96	48	3
TAP	79	0	6
TAP	79	96	1
TAP	79	96	4
TAP	79	144	1
TAP	79	144	4
TAP	79	240	5
TAP	79	288	4
TAP	79	336	3
TAP	79	336	6
TAP	80	48	2
TAP	80	96	3
TAP	80	144	1
TAP	80	144	4
TAP	80	240	6
TAP	80	288	7
TAP	80	336	0
TAP	80	336	5
TAP	81	48	1
TAP	81	96	0
STR	81	144	2
SI_	81	144	2	96	48	6
TAP	81	144	7
STR	81	240	4
SCR	81	240	4	96	192	3
TTP	81	336	0	C	1	M1
TAP	82	240	2
TAP	82	288	2
TAP	82	336	1
TAP	82	336	3
TAP	83	48	5
TAP	83	96	4
TAP	83	96	6
TAP	83	192	0
TAP	83	192	7
BRK	83	288	2
BRK	83	288	5
STR	84	0	1
SI_	84	0	1	96	48	4
TAP	84	0	6
STR	84	96	0
SI_	84	96	0	96	48	6
STR	84	192	1
SI_	84	192	1	96	48	3
STR	84	288	0
SI_	84	288	0	96	48	4
STR	85	0	1
SI_	85	0	1	96	48	5
STR	85	96	0
SI_	85	96	0	96	48	6
TAP	85	192	1
TAP	85	288	3
TAP	85	288	4
XTP	86	0	2
XTP	86	0	5
XTP	86	48	2
XTP	86	48	5
XTP	86	144	1
XTP	86	144	4
XTP	86	240	3
XTP	86	240	6
XST	86	336	0
SCR	86	336	0	96	96	3
XST	86	336	7
SCL	86	336	7	96	96	4
TAP	87	288	3
TAP	87	288	4
XHO	88	0	2	96
XHO	88	0	5	96
XHO	88	144	3	144
XHO	88	144	6	144
XST	88	336	4
SF_	88	336	4	96	144	0
XTP	88	336	7
TAP	89	288	1
TAP	89	288	7
TTP	90	0	0	C	1	M1
XTP	91	240	3
XTP	91	264	4
XTP	91	288	3
TAP	92	0	5
TAP	92	96	4
TAP	92	96	6
TAP	92	192	2
TAP	92	288	1
TAP	92	288	3
TAP	93	0	5
TAP	93	48	4
TAP	93	96	3
TAP	93	96	5
TAP	93	192	2
TAP	93	240	3
TAP	93	288	2
TAP	93	288	4
BST	94	0	0
SUL	94	0	0	96	144	3
BST	94	0	7
SUR	94	0	7	96	144	4
TAP	95	0	3
HLD	95	0	4	384
HLD	96	0	3	384
STR	97	0	4
SCR	97	0	4	96	192	7
TAP	98	0	0
TAP	98	96	7
TAP	98	192	0
TAP	98	192	7
TAP	98	240	0
TAP	98	240	7
BRK	98	336	1
BRK	98	336	6
TAP	99	96	2
TAP	99	96	4
TAP	99	144	2
TAP	99	144	4
TAP	99	240	3
HLD	99	240	5	96
XST	99	336	4
SI_	99	336	4	96	96	0
TAP	100	192	7
TAP	100	288	1
TAP	100	288	6
XST	100	336	1
SXR	100	336	1	96	192	4
XHO	100	336	6	240
TAP	102	0	5
TAP	102	48	5
TAP	102	96	4
TAP	102	96	6
TAP	102	192	3
STR	102	240	2
SCL	102	240	2	96	240	5
TAP	102	240	4
TTP	102	336	0	C	1	M1
HLD	104	0	7	96
TAP	104	96	0
TAP	104	192	2
TAP	104	192	5
TAP	104	240	2
TAP	104	240	5
XTP	104	336	1
XHO	104	336	6	432
TTP	105	336	2	E	0	M1
TTP	105	360	2	B	0	M1
TTP	106	0	3	B	0	M1

T_REC_TAP	293
T_REC_BRK	13
T_REC_XTP	28
T_REC_HLD	25
T_REC_XHO	27
T_REC_STR	38
T_REC_BST	2
T_REC_XST	14
T_REC_TTP	23
T_REC_THO	2
T_REC_SLD	55
T_REC_ALL	520
T_NUM_TAP	396
T_NUM_BRK	15
T_NUM_HLD	54
T_NUM_SLD	55
T_NUM_ALL	520
T_JUDGE_TAP	411
T_JUDGE_HLD	255
T_JUDGE_SLD	55
T_JUDGE_ALL	721
TTM_EACHPAIRS	131
TTM_SCR_TAP	198000
TTM_SCR_BRK	39000
TTM_SCR_HLD	54000
TTM_SCR_SLD	82500
TTM_SCR_ALL	373500
TTM_SCR_S	360850
TTM_SCR_SS	372000
TTM_RAT_ACV	10040

