VERSION	0.00.00	1.03.00
FES_MODE	0
BPM_DEF	175.000	175.000	175.000	175.000
MET_DEF	4	4
RESOLUTION	384
CLK_DEF	384
COMPATIBLE_CODE	MA2

BPM	0	0	175.000
MET	0	0	4	4

HLD	2	0	2	384
HLD	3	0	3	384
HLD	4	0	4	384
TAP	5	0	5
TAP	5	96	4
TAP	5	96	5
TAP	5	192	3
TAP	5	192	6
XTP	6	0	2
XTP	6	96	2
XTP	6	192	2
XTP	6	192	3
TAP	7	0	5
TAP	7	96	5
TAP	7	192	4
TAP	7	192	5
TAP	8	0	6
TAP	8	96	6
TAP	8	192	7
TAP	8	288	7
TAP	9	0	0
TAP	9	96	0
TAP	9	192	1
TAP	9	192	6
XST	10	0	0
SCR	10	0	0	96	192	3
XST	10	0	7
SCL	10	0	7	96	192	4
TAP	11	0	4
TAP	11	96	3
XHO	11	192	3	144
XHO	11	192	4	144
XTP	12	192	4
XTP	12	192	5
HLD	13	0	2	192
XTP	13	192	3
HLD	14	0	5	192
XTP	14	192	4
HLD	15	0	2	96
HLD	15	0	3	96
XTP	15	192	2
XTP	15	192	3
HLD	16	0	1	192
XTP	16	192	0
HLD	17	0	6	192
XTP	17	192	7
HLD	18	0	1	192
XTP	18	192	0
TAP	19	0	0
TAP	19	0	7
TAP	19	96	0
TAP	19	96	7
TAP	19	192	1
TAP	19	192	6
TAP	20	0	5
TAP	20	96	5
TAP	20	192	4
TAP	21	0	2
TAP	21	96	2
TAP	21	192	3
TAP	22	0	5
TAP	22	96	5
TAP	22	192	4
TAP	23	0	3
TAP	23	96	3
TAP	23	192	2
TAP	23	192	4
TAP	24	0	1
TAP	24	96	1
TAP	24	192	0
TAP	24	288	0
TAP	25	0	7
TAP	25	96	7
TAP	25	192	6
TAP	25	288	6
STR	26	0	4
SI_	26	0	4	96	144	1
STR	26	0	5
SI_	26	0	5	96	144	0
STR	27	0	0
SCL	27	0	0	96	144	5
STR	27	0	1
SCR	27	0	1	96	144	4
TTP	28	0	4	B	0	L1
TTP	28	192	5	B	0	L1
TTP	29	0	6	B	0	L1
TTP	29	192	7	B	0	L1
TTP	30	0	0	B	0	L1
TTP	30	192	1	B	0	L1
TTP	31	0	2	B	0	L1
TTP	31	192	3	B	0	L1
TTP	32	0	4	B	0	L1
TTP	32	0	5	B	0	L1
TTP	32	192	6	B	0	L1
TTP	32	192	7	B	0	L1
TTP	33	0	0	B	0	L1
TTP	33	0	1	B	0	L1
TTP	33	192	2	B	0	L1
TTP	33	192	3	B	0	L1
XST	34	0	5
SCR	34	0	5	96	192	0
STR	35	0	1
SCR	35	0	1	96	192	4
STR	36	0	5
SCR	36	0	5	96	192	0
STR	37	0	1
SCR	37	0	1	96	192	4
XTP	38	0	5
XTP	38	96	6
XTP	38	192	7
XTP	38	288	0
XTP	39	0	1
XTP	39	96	2
XTP	39	192	3
XTP	39	288	4
XST	40	0	2
SI_	40	0	2	96	144	0
XST	40	0	5
SI_	40	0	5	96	144	7
TAP	41	0	0
TAP	41	0	7
TAP	41	96	0
TAP	41	96	7
TAP	41	192	1
TAP	41	192	6
TAP	41	288	1
TAP	41	288	6
TAP	42	0	2
TAP	42	0	5
TAP	42	96	2
TAP	42	96	5
TAP	42	192	3
TAP	42	192	4
TAP	42	288	3
TAP	42	288	4
TTP	43	0	0	C	1	L1
XTP	43	288	0
XTP	43	288	7
BRK	44	0	6
TAP	44	96	6
TAP	44	96	7
TAP	44	192	1
TAP	44	288	0
TAP	44	288	1
TAP	45	0	2
TAP	45	96	3
TAP	45	192	2
TAP	45	192	4
TAP	46	0	5
TAP	46	96	4
TAP	46	96	5
TAP	46	192	2
TAP	46	288	2
TAP	46	288	3
TAP	47	0	1
TAP	47	96	0
TAP	47	192	1
TAP	47	192	7
HLD	48	0	6	192
HLD	48	192	7	192
HLD	49	0	0	192
TAP	49	192	1
BST	50	0	2
SI_	50	0	2	96	144	7
BST	50	0	3
SI_	50	0	3	96	144	6
TAP	51	0	6
TAP	51	0	7
TAP	51	96	6
TAP	51	96	7
XTP	51	192	0
XTP	51	192	5
BRK	52	0	5
TAP	52	96	4
TAP	52	96	5
TAP	52	192	2
TAP	52	288	2
TAP	52	288	3
TAP	53	0	1
TAP	53	96	0
TAP	53	96	1
TAP	53	192	2
TAP	53	192	7
XHO	54	0	0	144
XTP	54	144	7
XTP	54	240	0
XTP	54	240	7
XST	54	336	1
SI_	54	336	1	96	192	4
XST	54	336	6
SI_	54	336	6	96	192	3
HLD	56	0	2	192
HLD	56	192	3	192
STR	57	0	4
SCL	57	0	4	96	192	1
SCR	57	0	4	96	192	7
TAP	58	0	0
TAP	58	192	1
TAP	58	192	7
TAP	59	0	2
STR	59	0	6
SUL	59	0	6	96	240	2
TAP	60	0	1
TAP	60	192	0
TAP	60	192	7
STR	61	0	1
SI_	61	0	1	96	192	5
STR	62	0	6
SI_	62	0	6	96	192	2
STR	63	0	1
SI_	63	0	1	96	192	4
STR	64	0	5
SI_	64	0	5	96	192	0
TAP	65	0	1
TAP	65	96	1
TAP	65	192	0
TAP	65	192	1
TAP	66	0	6
TAP	66	96	6
TAP	66	192	6
TAP	66	192	7
TAP	67	0	0
TAP	67	96	0
TAP	67	192	7
TAP	67	288	7
XST	68	0	0
SCR	68	0	0	96	192	3
XST	68	0	7
SCL	68	0	7	96	192	4
TTP	69	0	0	C	1	L1
TTP	71	0	6	E	0	L1
TTP	72	0	2	E	0	L1
TTP	73	0	1	E	0	L1
TTP	73	0	7	E	0	L1
TTP	73	96	1	B	0	L1
TTP	73	96	6	B	0	L1
TTP	73	192	2	B	0	L1
TTP	73	192	5	B	0	L1
TTP	73	288	3	E	0	L1
TTP	73	288	5	E	0	L1
THO	74	0	0	192	C	1	L1
TAP	76	0	0
TAP	76	0	1
XTP	76	96	0
XST	76	96	1
SI_	76	96	1	96	192	4
TAP	77	0	5
TAP	77	96	4
TAP	77	96	5
BRK	77	192	3
BRK	77	192	6
TAP	78	0	2
TAP	78	96	2
TAP	78	96	3
TAP	78	192	5
TAP	78	288	4
TAP	78	288	5
TAP	79	0	6
TAP	79	96	6
TAP	79	96	7
TAP	79	192	0
TAP	79	192	5
TAP	80	0	1
TAP	80	96	1
TAP	80	192	0
TAP	80	288	0
TAP	81	0	7
TAP	81	96	7
TAP	81	192	6
TAP	81	288	6
BST	82	0	4
SCL	82	0	4	96	192	1
BST	82	0	5
SCR	82	0	5	96	192	0
TAP	83	0	0
TAP	83	0	1
TAP	83	96	0
TAP	83	96	1
XTP	83	192	2
XTP	83	192	7
TAP	84	0	6
TAP	84	96	6
TAP	84	96	7
TAP	84	192	5
TAP	84	288	4
TAP	84	288	5
TAP	85	0	2
TAP	85	96	2
TAP	85	96	3
TAP	85	192	1
TAP	85	192	4
XHO	86	0	0	144
XTP	86	144	7
XTP	86	240	0
XTP	86	240	7
XST	86	336	1
SI_	86	336	1	96	192	4
XST	86	336	6
SI_	86	336	6	96	192	3
HLD	88	0	5	192
TAP	88	192	4
STR	89	0	3
SCL	89	0	3	96	192	0
TAP	89	0	4
STR	90	0	7
SXL	90	0	7	96	528	4
TAP	92	0	3
TAP	92	96	3
TAP	92	192	2
TAP	92	288	2
TAP	93	0	1
TAP	93	96	1
TAP	93	192	0
TAP	93	288	0
STR	94	0	0
SCR	94	0	0	96	192	3
STR	94	0	7
SCL	94	0	7	96	192	4
HLD	95	0	5	384
HLD	96	0	4	384
HLD	97	0	3	384
TAP	98	0	2
TAP	98	96	2
TAP	98	96	3
TAP	98	192	1
TAP	98	192	4
XTP	99	0	5
XTP	99	96	5
XTP	99	192	4
XTP	99	192	5
TAP	100	0	2
TAP	100	96	2
TAP	100	192	2
TAP	100	192	3
TAP	101	0	1
TAP	101	96	1
TAP	101	192	0
TAP	101	288	0
TAP	102	0	7
TAP	102	96	7
TAP	102	192	6
TAP	102	288	6
STR	103	0	5
SCR	103	0	5	96	384	2
THO	104	336	0	432	C	1	L1

T_REC_TAP	181
T_REC_BRK	4
T_REC_XTP	38
T_REC_HLD	19
T_REC_XHO	4
T_REC_STR	18
T_REC_BST	4
T_REC_XST	12
T_REC_TTP	28
T_REC_THO	2
T_REC_SLD	35
T_REC_ALL	345
T_NUM_TAP	277
T_NUM_BRK	8
T_NUM_HLD	25
T_NUM_SLD	35
T_NUM_ALL	345
T_JUDGE_TAP	285
T_JUDGE_HLD	121
T_JUDGE_SLD	35
T_JUDGE_ALL	441
TTM_EACHPAIRS	72
TTM_SCR_TAP	138500
TTM_SCR_BRK	20800
TTM_SCR_HLD	25000
TTM_SCR_SLD	52500
TTM_SCR_ALL	236800
TTM_SCR_S	228950
TTM_SCR_SS	236000
TTM_RAT_ACV	10033

