VERSION	0.00.00	1.03.00
FES_MODE	0
BPM_DEF	175.000	175.000	175.000	175.000
MET_DEF	4	4
RESOLUTION	384
CLK_DEF	384
COMPATIBLE_CODE	MA2

BPM	0	0	175.000
MET	0	0	4	4

HLD	2	0	0	384
XTP	3	336	7
XTP	6	96	0
TAP	6	288	0
TAP	7	96	1
TAP	7	288	1
TAP	8	96	2
TAP	8	288	2
TAP	9	96	3
TAP	9	288	3
TAP	10	96	4
TAP	10	288	4
HLD	11	96	3	240
HLD	11	96	4	240
TTP	13	0	3	B	0	L1
TTP	14	0	4	B	0	L1
TTP	15	0	2	B	0	L1
TTP	16	0	5	B	0	L1
TTP	17	0	1	B	0	L1
THO	18	0	0	384	C	0	L1
TAP	20	0	7
TAP	20	192	7
TAP	21	0	6
TAP	22	0	5
TAP	22	192	5
TAP	23	0	4
TAP	24	0	3
TAP	24	192	3
TAP	25	0	2
TAP	26	0	1
TAP	26	192	1
TAP	27	0	0
TAP	27	0	7
STR	28	0	0
SI_	28	0	0	96	288	3
STR	30	0	7
SI_	30	0	7	96	288	4
STR	32	0	3
SI_	32	0	3	96	288	0
HLD	34	0	7	384
HLD	36	0	0	384
HLD	36	0	1	384
HLD	38	0	2	384
HLD	38	0	3	384
HLD	40	0	3	384
HLD	40	0	4	384
THO	42	0	0	384	C	1	L1
TAP	44	96	0
TAP	44	288	0
TAP	45	96	1
TAP	45	192	1
TAP	45	288	1
TAP	46	96	2
TAP	46	288	2
TAP	47	96	3
TAP	47	192	3
TAP	47	288	3
TAP	47	288	4
TAP	48	96	4
TAP	48	288	4
TAP	49	96	5
TAP	49	192	5
TAP	49	288	5
TAP	50	96	6
TAP	50	288	6
TAP	51	96	0
TAP	51	96	7
TAP	51	192	0
TAP	51	192	7
XTP	51	288	0
TAP	51	288	7
TAP	52	96	7
TAP	52	288	7
TAP	53	96	6
TAP	53	192	6
TAP	53	288	6
TAP	54	96	5
TAP	54	288	5
TAP	55	96	4
TAP	55	192	4
TAP	55	288	3
TAP	55	288	4
TAP	56	96	2
TAP	56	288	2
TAP	57	96	1
TAP	57	192	1
TAP	57	288	1
TAP	58	96	0
TAP	58	288	0
TAP	59	96	0
TAP	59	96	7
HLD	59	192	0	192
HLD	59	192	7	192
STR	61	0	0
SI_	61	0	0	96	288	3
STR	63	0	7
SI_	63	0	7	96	288	4
STR	65	0	0
SI_	65	0	0	96	288	4
STR	67	0	7
SI_	67	0	7	96	288	3
BRK	69	0	0
HLD	71	0	0	384
HLD	71	0	7	384
STR	73	0	0
SI_	73	0	0	96	288	3
STR	73	0	7
SI_	73	0	7	96	288	4
THO	75	0	0	480	C	1	L1
XTP	77	96	0
XTP	77	96	7
XTP	77	192	0
XTP	77	192	7
XTP	77	288	0
XTP	77	288	7
TAP	78	96	6
TAP	78	192	6
TAP	78	288	6
TAP	79	96	5
TAP	79	192	5
TAP	79	288	5
TAP	80	96	4
TAP	80	192	4
TAP	80	288	4
TAP	81	96	3
TAP	81	192	3
TAP	81	288	3
TAP	82	96	4
TAP	82	192	4
TAP	82	288	4
TAP	83	96	3
TAP	83	96	4
TAP	83	192	3
TAP	83	192	4
XTP	83	288	3
XTP	83	288	4
TAP	84	96	2
TAP	84	192	2
TAP	84	288	2
TAP	85	96	1
TAP	85	192	1
TAP	85	288	1
TAP	86	96	0
TAP	86	192	0
TAP	86	288	0
TAP	87	96	0
TAP	87	96	7
TAP	87	192	0
TAP	87	192	7
TAP	87	288	0
TAP	87	288	7
STR	88	0	0
SI_	88	0	0	96	288	3
TAP	88	0	7
STR	90	0	4
SI_	90	0	4	96	288	7
TAP	92	96	0
TAP	92	192	0
TAP	92	288	0
TAP	93	96	7
TAP	93	192	7
TAP	93	288	7
HLD	94	0	0	384
HLD	94	0	7	384
HLD	97	0	1	384
HLD	97	0	6	384
XTP	99	96	2
TAP	99	288	2
TAP	99	288	3
TAP	100	96	4
TAP	100	288	4
TAP	100	288	5
TAP	101	96	3
TAP	101	288	3
TAP	102	96	3
TAP	102	96	4
HLD	102	192	3	144
HLD	102	192	4	144
THO	104	0	0	336	C	1	L1

T_REC_TAP	115
T_REC_BRK	1
T_REC_XTP	12
T_REC_HLD	20
T_REC_XHO	0
T_REC_STR	11
T_REC_BST	0
T_REC_XST	0
T_REC_TTP	5
T_REC_THO	4
T_REC_SLD	11
T_REC_ALL	179
T_NUM_TAP	143
T_NUM_BRK	1
T_NUM_HLD	24
T_NUM_SLD	11
T_NUM_ALL	179
T_JUDGE_TAP	144
T_JUDGE_HLD	169
T_JUDGE_SLD	11
T_JUDGE_ALL	324
TTM_EACHPAIRS	30
TTM_SCR_TAP	71500
TTM_SCR_BRK	2600
TTM_SCR_HLD	24000
TTM_SCR_SLD	16500
TTM_SCR_ALL	114600
TTM_SCR_S	111100
TTM_SCR_SS	114500
TTM_RAT_ACV	10008

