VERSION	0.00.00	1.03.00
FES_MODE	0
BPM_DEF	210.000	210.000	210.000	210.000
MET_DEF	4	4
RESOLUTION	384
CLK_DEF	384
COMPATIBLE_CODE	MA2

BPM	0	0	210.000
MET	0	0	4	4

HLD	2	0	3	192
BRK	2	0	4
HLD	2	192	4	192
HLD	3	0	5	192
STR	3	192	6
SLL	3	192	6	96	384	2
TAP	4	0	4
HLD	5	0	1	192
TAP	5	192	3
TAP	6	0	2
STR	6	0	3
SLR	6	0	3	96	384	7
STR	7	0	1
SLR	7	0	1	96	384	5
STR	8	0	7
SLR	8	0	7	96	384	3
TAP	9	0	4
TAP	9	192	4
TAP	10	0	3
HLD	10	0	4	768
TTP	10	192	3	B	0	M1
TTP	11	0	5	B	0	M1
TTP	11	192	7	B	0	M1
HLD	12	0	1	768
TTP	12	192	2	B	0	M1
TTP	13	0	0	B	0	M1
TTP	13	192	6	B	0	M1
STR	14	0	5
SLR	14	0	5	96	384	1
TAP	14	192	2
STR	15	0	3
SLL	15	0	3	96	384	7
TAP	15	192	6
HLD	16	0	5	576
TAP	16	192	4
HLD	17	0	3	192
HLD	18	0	1	384
BRK	18	0	6
TAP	18	192	3
TAP	19	0	3
TAP	19	144	2
TAP	19	144	4
TAP	19	288	3
HLD	19	288	5	384
TAP	20	48	4
TAP	20	96	4
TAP	20	192	3
TAP	20	288	4
TAP	21	0	4
TAP	21	0	5
TAP	21	144	3
TAP	21	144	4
TAP	21	288	2
TAP	21	288	3
TAP	22	0	1
TAP	22	48	1
TAP	22	96	3
TAP	22	144	3
TAP	22	192	4
TAP	22	240	4
TAP	22	288	5
TAP	22	336	5
TAP	23	0	2
TAP	23	48	2
TAP	23	96	3
TAP	23	144	3
TAP	23	192	4
TAP	23	240	4
TAP	23	288	5
TAP	23	336	5
TAP	24	0	3
TAP	24	24	4
TAP	24	48	3
TAP	24	72	4
TAP	24	96	2
TAP	24	120	5
TAP	24	144	2
TAP	24	168	5
TAP	24	192	1
TAP	24	216	6
TAP	24	240	1
TAP	24	264	6
STR	24	288	0
SCL	24	288	0	96	192	2
TAP	24	312	7
TAP	24	336	0
TAP	24	360	7
TAP	25	0	0
STR	25	192	7
SI_	25	192	7	96	48	3
BRK	26	0	1
BRK	26	0	5
TAP	26	96	0
TAP	26	120	1
TAP	26	144	2
TAP	26	168	3
STR	26	192	4
SI_	26	192	4	96	48	0
TAP	26	192	5
STR	26	288	6
SI_	26	288	6	96	48	2
TAP	26	336	6
STR	27	0	1
SI_	27	0	1	96	48	4
TAP	27	48	1
STR	27	96	5
SI_	27	96	5	96	48	0
TAP	27	144	5
STR	27	192	0
SF_	27	192	0	96	48	4
XTP	28	0	2
XTP	28	0	6
TAP	28	96	7
TAP	28	120	6
TAP	28	144	5
TAP	28	168	4
TAP	28	192	2
STR	28	192	3
SI_	28	192	3	96	48	7
STR	28	288	1
SI_	28	288	1	96	48	5
TAP	28	336	1
STR	29	0	6
SI_	29	0	6	96	48	3
TAP	29	48	6
STR	29	96	2
SI_	29	96	2	96	48	7
TAP	29	144	2
STR	29	192	7
SF_	29	192	7	96	48	3
STR	30	0	1
SSR	30	0	1	96	96	5
XTP	30	0	5
TAP	30	96	6
STR	30	192	7
SI_	30	192	7	96	48	3
TAP	30	288	3
STR	31	0	1
SSL	31	0	1	96	96	5
TAP	31	0	5
TAP	31	96	6
STR	31	192	7
SI_	31	192	7	96	48	3
TAP	31	288	3
STR	32	0	1
SLR	32	0	1	96	96	5
STR	32	96	5
SLR	32	96	5	96	96	1
TAP	32	192	1
TAP	32	288	5
TAP	32	336	5
TAP	33	0	4
TAP	33	48	3
TAP	33	48	6
TAP	33	96	7
TAP	33	144	2
TAP	33	168	3
TAP	33	192	2
TAP	33	240	2
TAP	33	240	3
STR	33	288	1
SI_	33	288	1	96	48	5
TAP	33	288	4
BRK	34	0	1
BRK	34	0	5
TAP	34	96	7
TAP	34	144	7
TAP	34	192	0
HLD	34	192	6	96
TTP	34	288	5	B	0	M1
TTP	34	288	5	E	0	M1
TTP	34	336	0	B	0	M1
TTP	34	336	7	B	0	M1
TTP	35	0	2	B	0	M1
TTP	35	0	3	E	0	M1
TTP	35	48	3	B	0	M1
TTP	35	48	4	B	0	M1
TTP	35	96	1	B	0	M1
TTP	35	96	1	E	0	M1
TTP	35	144	6	B	0	M1
TTP	35	144	7	E	0	M1
XTP	35	192	0
XTP	35	240	0
XTP	35	288	7
XTP	35	336	7
TTP	36	0	3	B	0	M1
TTP	36	0	4	B	0	M1
TTP	36	48	6	B	0	M1
TTP	36	48	7	E	0	M1
TTP	36	96	1	B	0	M1
TTP	36	96	1	E	0	M1
TTP	36	144	0	B	0	M1
TTP	36	144	7	B	0	M1
TTP	36	192	3	B	0	M1
TTP	36	192	3	E	0	M1
TTP	36	240	4	B	0	M1
TTP	36	240	5	E	0	M1
XTP	36	288	0
XTP	36	336	0
TTP	37	0	6	B	0	M1
TTP	37	0	7	E	0	M1
TTP	37	48	0	B	0	M1
TTP	37	48	1	E	0	M1
TTP	37	96	4	B	0	M1
TTP	37	96	5	E	0	M1
TTP	37	144	2	B	0	M1
TTP	37	144	3	E	0	M1
XST	37	192	7
SI_	37	192	7	96	48	3
BRK	37	288	7
BRK	38	0	1
BRK	38	0	5
TAP	38	96	2
TAP	38	96	4
TAP	38	144	1
TAP	38	192	3
TAP	38	240	2
TAP	38	288	1
TAP	38	288	4
TAP	38	336	5
TAP	39	0	2
TAP	39	48	4
TAP	39	96	3
TAP	39	96	5
TAP	39	144	6
TAP	39	192	4
TAP	39	240	5
TAP	39	288	3
STR	39	288	6
SCL	39	288	6	96	128	0
HLD	40	0	2	192
TAP	40	144	7
TAP	40	160	6
TAP	40	176	5
STR	40	192	4
SI_	40	192	4	96	48	0
STR	40	288	1
SCR	40	288	1	96	132	7
HLD	41	0	5	192
TAP	41	144	0
TAP	41	156	1
TAP	41	168	2
TAP	41	180	3
TAP	41	192	4
BRK	41	288	2
BRK	41	288	6
HLD	42	0	1	72
TAP	42	72	3
TAP	42	96	2
TAP	42	144	1
TAP	42	144	3
TAP	42	192	0
TAP	42	240	0
TAP	42	288	4
TAP	42	336	2
HLD	43	0	6	72
TAP	43	72	4
TAP	43	96	5
TAP	43	144	4
TAP	43	144	6
TAP	43	192	7
TAP	43	240	7
TAP	43	288	3
TAP	43	336	5
HLD	44	0	2	72
TAP	44	72	0
TAP	44	96	1
TAP	44	144	2
TAP	44	144	7
TAP	44	192	3
TAP	44	240	3
TAP	44	288	7
TAP	44	336	1
HLD	45	0	5	72
TAP	45	72	7
TAP	45	96	6
TAP	45	144	0
TAP	45	144	5
TAP	45	192	4
TAP	45	240	4
XTP	45	288	1
XTP	45	288	3
XTP	45	336	1
XTP	45	336	3
XHO	46	0	1	72
XTP	46	0	3
HLD	46	72	2	72
HLD	46	144	3	72
TAP	46	216	4
TAP	46	288	3
TAP	46	288	5
TAP	46	336	3
HLD	47	0	5	72
HLD	47	72	4	72
HLD	47	144	3	72
TAP	47	216	2
TAP	47	288	1
TAP	47	288	3
TAP	47	336	3
HLD	48	0	1	72
HLD	48	72	3	72
HLD	48	144	4	72
TAP	48	216	5
TAP	48	288	3
TAP	48	288	6
TAP	48	336	6
BRK	49	0	1
BRK	49	72	4
BRK	49	72	5
BRK	49	144	7
BRK	49	216	1
BRK	49	216	3
BRK	49	288	0
BRK	49	288	6
BRK	49	336	1
BRK	49	336	5
BRK	50	0	2
BST	50	0	4
SCR	50	0	4	96	96	0
TAP	50	96	3
XST	50	192	2
SCL	50	192	2	96	96	6
TAP	50	288	5
STR	51	0	4
SLR	51	0	4	96	96	0
TAP	51	96	2
XST	51	192	3
SLL	51	192	3	96	96	7
TAP	51	288	5
STR	52	0	4
SCR	52	0	4	96	96	1
TAP	52	96	2
XST	52	192	3
SCL	52	192	3	96	96	6
TAP	52	288	6
TAP	53	0	5
TAP	53	96	4
TAP	53	96	5
XHO	53	192	2	72
XTP	53	264	3
XTP	53	336	1
TAP	53	336	4
STR	54	0	0
SI_	54	0	0	96	48	4
XTP	54	0	5
BRK	54	96	0
BRK	54	96	7
XTP	54	192	3
TAP	54	192	5
TAP	54	240	3
XTP	54	240	5
XTP	54	288	1
TAP	54	288	7
XTP	55	0	2
TAP	55	0	3
XTP	55	72	5
TAP	55	72	7
TAP	55	144	4
XTP	55	144	6
XTP	55	216	0
TAP	55	216	1
XTP	55	288	2
TAP	55	288	3
TAP	55	336	1
XTP	55	336	4
TAP	56	0	0
TAP	56	0	5
TAP	56	48	0
TAP	56	96	0
TAP	56	96	6
TAP	56	144	6
TAP	56	192	4
TAP	56	192	6
TAP	56	240	4
TAP	56	288	3
TAP	56	288	4
TAP	56	336	3
TAP	57	0	1
TAP	57	0	3
TAP	57	72	3
TAP	57	72	4
TAP	57	144	4
TAP	57	144	6
TAP	57	192	4
BST	57	192	6
SI_	57	192	6	96	48	2
BST	57	288	0
SSL	57	288	0	96	1152	4
BRK	57	288	6
TTP	58	0	0	C	1	M1
THO	62	0	0	1152	C	0	M1
TTP	62	0	5	B	0	M1
TTP	62	0	6	B	0	M1
TTP	63	0	0	B	0	M1
TTP	63	0	7	B	0	M1
TTP	64	0	1	B	0	M1
TTP	64	0	2	B	0	M1
TTP	65	0	3	B	0	M1
TTP	65	0	4	B	0	M1
TTP	65	192	0	C	0	M1
STR	66	0	0
SCR	66	0	0	96	384	4
STR	67	0	4
SSL	67	0	4	96	384	0
STR	68	0	0
SCL	68	0	0	96	384	4
STR	69	0	4
SSR	69	0	4	96	384	0
TAP	70	0	7
TAP	70	96	6
TAP	70	192	5
TAP	70	288	4
TAP	71	0	3
TAP	71	48	3
TAP	71	96	2
TAP	71	144	2
TAP	71	192	1
TAP	71	240	1
TAP	71	288	0
TAP	71	336	0
TAP	72	0	7
TAP	72	24	1
TAP	72	48	7
TAP	72	72	1
TAP	72	96	6
TAP	72	120	2
TAP	72	144	6
TAP	72	168	2
TAP	72	192	5
TAP	72	216	3
TAP	72	240	5
TAP	72	264	3
TAP	72	288	4
TAP	72	312	2
TAP	72	336	4
TAP	72	360	2
HLD	73	0	3	192
STR	73	192	4
SF_	73	192	4	96	48	0
BRK	74	0	2
BRK	74	0	6
TAP	74	96	3
TAP	74	96	4
TAP	74	144	2
TAP	74	168	3
STR	74	192	1
SCR	74	192	1	96	48	4
TAP	74	240	0
TAP	74	288	1
TAP	74	288	7
TAP	74	336	7
STR	75	0	6
SCL	75	0	6	96	48	3
TAP	75	48	7
TAP	75	96	0
TAP	75	96	6
TAP	75	144	1
TAP	75	192	2
TAP	75	240	2
TAP	75	264	3
TAP	75	288	1
TAP	75	336	0
TAP	75	336	5
STR	76	0	6
SI_	76	0	6	96	48	3
TAP	76	48	7
TAP	76	96	6
STR	76	144	1
SI_	76	144	1	96	48	5
TAP	76	192	0
TAP	76	240	1
STR	76	288	7
SCR	76	288	7	96	48	2
TAP	76	336	3
STR	77	0	7
SCL	77	0	7	96	48	4
TAP	77	48	3
STR	77	96	7
SI_	77	96	7	96	48	3
TAP	77	144	3
TAP	77	192	7
TAP	77	240	2
TAP	77	288	1
TAP	77	288	5
TAP	78	0	3
TAP	78	0	4
TAP	78	48	2
TAP	78	72	3
TAP	78	96	1
TAP	78	144	5
TAP	78	168	4
STR	78	192	6
SCL	78	192	6	96	48	3
TAP	78	240	7
TAP	78	288	0
TAP	78	288	6
TAP	78	336	0
STR	79	0	1
SCR	79	0	1	96	48	4
TAP	79	48	0
TAP	79	96	1
TAP	79	96	7
TAP	79	144	6
TAP	79	192	5
TAP	79	240	5
TAP	79	264	4
TAP	79	288	6
TAP	79	336	2
TAP	79	336	7
TAP	80	0	0
TAP	80	0	1
TAP	80	48	2
TAP	80	72	3
TAP	80	96	1
TAP	80	144	0
TAP	80	144	4
TAP	80	192	5
TAP	80	216	4
TAP	80	240	6
TAP	80	288	3
TAP	80	288	7
TAP	80	336	0
TAP	80	336	2
XHO	81	0	1	48
HLD	81	0	3	48
HLD	81	72	4	48
XHO	81	72	6	48
HLD	81	144	0	48
XHO	81	144	1	48
HLD	81	216	6	48
XHO	81	216	7	48
TAP	81	288	6
XTP	81	288	7
XTP	81	336	0
TAP	81	336	5
STR	82	0	1
SI_	82	0	1	96	48	5
XTP	82	0	4
BRK	82	96	1
BRK	82	96	7
TAP	82	192	0
TAP	82	192	6
TAP	82	240	5
TAP	82	264	4
TAP	82	288	6
TAP	82	336	2
TAP	82	360	3
STR	83	0	1
SCR	83	0	1	96	48	4
TAP	83	48	0
TAP	83	96	1
TAP	83	96	7
TAP	83	144	6
TAP	83	192	5
TAP	83	240	5
TAP	83	264	4
TAP	83	288	6
TAP	83	336	2
TAP	83	336	7
STR	84	0	1
SI_	84	0	1	96	48	4
TAP	84	48	3
TAP	84	96	1
STR	84	144	6
SI_	84	144	6	96	48	2
TAP	84	192	7
TAP	84	240	6
STR	84	288	0
SI_	84	288	0	96	48	4
TAP	84	336	4
STR	85	0	0
SI_	85	0	0	96	48	2
SI_	85	0	0	96	48	3
STR	85	96	0
SI_	85	96	0	96	48	5
SI_	85	96	0	96	48	6
TAP	85	192	0
BRK	85	288	0
BRK	85	288	4
STR	86	0	2
SI_	86	0	2	96	48	6
STR	86	0	6
SI_	86	0	6	96	48	2
TAP	86	96	2
TAP	86	96	6
STR	86	192	0
SI_	86	192	0	96	48	4
TAP	86	192	4
TAP	86	288	0
TAP	86	288	7
STR	86	336	6
SI_	86	336	6	96	48	2
STR	87	48	1
SI_	87	48	1	96	48	5
TAP	87	48	6
TAP	87	144	1
TAP	87	144	5
TAP	87	240	6
TAP	87	264	6
TAP	87	288	7
TAP	87	336	0
TAP	87	336	6
STR	88	0	1
SI_	88	0	1	96	48	5
STR	88	0	5
SI_	88	0	5	96	48	1
TAP	88	96	1
TAP	88	96	5
STR	88	192	3
SI_	88	192	3	96	48	7
TAP	88	192	7
TAP	88	288	3
TAP	88	288	6
STR	88	336	5
SI_	88	336	5	96	48	1
STR	89	48	2
SI_	89	48	2	96	48	6
TAP	89	48	5
TAP	89	144	2
TAP	89	144	6
TAP	89	240	5
TAP	89	264	5
TAP	89	288	4
TAP	89	336	3
TAP	89	336	5
HLD	90	0	2	96
TAP	90	0	6
TAP	90	96	6
HLD	90	144	2	96
TAP	90	144	5
TAP	90	240	5
HLD	90	288	2	96
TAP	90	288	4
TAP	91	0	4
HLD	91	48	2	96
TAP	91	48	3
TAP	91	144	3
TAP	91	192	2
XST	91	192	3
SI_	91	192	3	96	48	7
XTP	91	288	1
TAP	92	0	1
HLD	92	0	5	96
TAP	92	96	1
TAP	92	144	2
HLD	92	144	5	96
TAP	92	240	2
TAP	92	288	3
HLD	92	288	5	96
TAP	93	0	3
TAP	93	48	4
HLD	93	48	5	96
TAP	93	144	4
XST	93	192	4
SI_	93	192	4	96	48	0
TAP	93	192	5
XTP	93	288	6
TAP	94	0	2
HLD	94	0	6	96
TAP	94	96	2
TAP	94	144	1
HLD	94	144	6	96
TAP	94	240	1
TAP	94	288	0
HLD	94	288	6	96
TAP	95	0	0
HLD	95	48	6	96
TAP	95	48	7
TAP	95	144	7
XST	95	192	6
SI_	95	192	6	96	48	2
TAP	95	192	7
XTP	95	288	2
HLD	96	0	1	96
TAP	96	0	3
TAP	96	96	3
TAP	96	144	4
HLD	96	144	6	96
TAP	96	240	4
TAP	96	288	3
TAP	96	288	5
TAP	96	336	2
HLD	97	0	1	48
HLD	97	72	0	48
HLD	97	72	2	48
HLD	97	144	3	48
HLD	97	144	7	48
HLD	97	216	4	48
HLD	97	216	6	48
BRK	97	288	3
BRK	97	288	5
BRK	97	336	3
BRK	97	336	5
HLD	98	0	2	96
TAP	98	0	6
TAP	98	96	6
HLD	98	144	2	96
TTP	98	144	6	B	0	M1
TAP	98	240	5
HLD	98	288	2	96
TTP	98	288	5	B	0	M1
TAP	99	0	4
HLD	99	48	2	96
TTP	99	48	4	B	0	M1
TAP	99	144	3
TAP	99	192	2
XST	99	192	3
SI_	99	192	3	96	48	7
XTP	99	288	0
TAP	100	0	1
HLD	100	0	5	96
TAP	100	96	1
TTP	100	144	1	B	0	M1
HLD	100	144	5	96
TAP	100	240	2
TTP	100	288	2	B	0	M1
HLD	100	288	5	96
TAP	101	0	3
TTP	101	48	3	B	0	M1
HLD	101	48	5	96
TAP	101	144	4
XST	101	192	4
SI_	101	192	4	96	48	0
TAP	101	192	5
XTP	101	288	6
TAP	102	0	2
HLD	102	0	6	96
TAP	102	96	2
TTP	102	144	2	B	0	M1
HLD	102	144	6	96
TAP	102	240	1
TTP	102	288	1	B	0	M1
HLD	102	288	6	96
TAP	103	0	0
TTP	103	48	0	B	0	M1
HLD	103	48	6	96
TAP	103	144	7
XST	103	192	6
SI_	103	192	6	96	48	2
TAP	103	192	7
XTP	103	288	4
HLD	104	0	1	96
TAP	104	0	3
TAP	104	96	0
TAP	104	144	2
HLD	104	144	7	96
TAP	104	240	0
TAP	104	288	1
HLD	104	288	6	96
TAP	105	0	7
TAP	105	48	0
HLD	105	48	5	96
TAP	105	144	4
TAP	105	192	3
TAP	105	192	5
TAP	105	240	2
TAP	105	240	6
TAP	105	288	1
TAP	105	312	7
TAP	105	336	1
HLD	105	360	7	264
XHO	106	0	1	192
TTP	106	200	2	E	0	M1
TTP	106	208	2	B	0	M1
TTP	106	216	3	B	0	M1
TTP	106	224	4	E	0	M1
TTP	106	248	7	E	0	M1
TTP	106	256	6	B	0	M1
TTP	106	264	5	B	0	M1
TTP	106	272	5	E	0	M1
BST	106	288	0
SCR	106	288	0	96	576	7
THO	107	0	0	576	C	0	M1
STR	108	288	0
SI_	108	288	0	96	48	4
STR	108	288	7
SI_	108	288	7	96	48	3
BRK	109	0	0
BRK	109	0	7
XTP	109	96	2
XTP	109	96	5
STR	109	144	1
SI_	109	144	1	96	48	4
STR	109	144	6
SI_	109	144	6	96	48	3
TAP	109	240	1
TAP	109	240	6
XTP	109	336	2
XTP	109	336	5
TAP	110	0	0
STR	110	0	7
SCR	110	0	7	96	48	2
TAP	110	96	6
STR	110	96	7
SCL	110	96	7	96	48	4
STR	110	192	3
SF_	110	192	3	96	48	7
TAP	110	192	7
TAP	110	288	3
XST	111	0	1
SI_	111	0	1	96	48	4
XST	111	0	5
SI_	111	0	5	96	48	0
BRK	111	96	1
BRK	111	96	5
XTP	111	192	2
XTP	111	192	6
TAP	111	240	4
TAP	111	264	3
STR	111	288	4
SI_	111	288	4	96	48	0
TAP	111	336	5
TAP	112	0	4
STR	112	0	6
SI_	112	0	6	96	48	3
TAP	112	48	7
STR	112	96	2
SI_	112	96	2	96	48	7
TAP	112	96	6
TAP	112	144	1
TAP	112	192	2
TAP	112	192	7
TAP	112	240	6
TAP	112	264	4
TAP	112	288	5
TAP	112	336	3
TAP	112	336	4
TAP	113	0	2
TAP	113	0	5
TAP	113	48	1
TAP	113	72	0
TAP	113	96	2
TAP	113	120	7
TAP	113	144	3
TAP	113	192	5
TAP	113	216	4
TAP	113	240	6
TAP	113	264	3
TAP	113	288	7
TAP	113	336	0
TAP	113	336	6
BRK	114	0	1
TAP	114	12	2
TAP	114	24	3
TAP	114	36	4
BRK	114	72	7
TAP	114	84	6
TAP	114	96	5
TAP	114	108	4
BRK	114	144	0
TAP	114	156	1
TAP	114	168	2
TAP	114	180	3
BRK	114	216	6
TAP	114	228	5
TAP	114	240	4
TAP	114	252	3
XTP	114	288	1
TTP	114	296	2	E	0	M1
TTP	114	304	2	B	0	M1
TTP	114	312	3	B	0	M1
TTP	114	320	4	E	0	M1
XTP	114	336	7
TTP	114	344	7	E	0	M1
TTP	114	352	6	B	0	M1
TTP	114	360	5	B	0	M1
TTP	114	368	5	E	0	M1
STR	115	0	0
SF_	115	0	0	96	48	4
BRK	115	96	0
XTP	115	192	2
XTP	115	192	6
TAP	115	240	3
TAP	115	264	4
STR	115	288	3
SI_	115	288	3	96	48	7
TAP	115	336	2
STR	116	0	1
SI_	116	0	1	96	48	4
TAP	116	0	3
TAP	116	48	0
TAP	116	96	1
STR	116	96	5
SI_	116	96	5	96	48	0
TAP	116	144	6
TAP	116	192	0
TAP	116	192	5
TAP	116	240	1
TAP	116	264	3
TAP	116	288	2
TAP	116	336	3
TAP	116	336	5
TAP	117	0	2
STR	117	0	6
SCL	117	0	6	96	48	3
TAP	117	96	0
TAP	117	96	6
STR	117	144	0
SCR	117	144	0	96	48	3
STR	117	240	0
SI_	117	240	0	96	48	4
TAP	117	288	4
TAP	117	336	0
TAP	118	0	6
TAP	118	48	6
TAP	118	60	5
TAP	118	72	4
TAP	118	84	3
TAP	118	96	2
TAP	118	108	1
TAP	118	120	0
TAP	118	132	7
XST	118	144	2
SI_	118	144	2	96	48	5
STR	118	144	6
SI_	118	144	6	96	48	1
TAP	118	240	2
TAP	118	240	6
XTP	118	336	3
XTP	118	336	7
BRK	119	0	3
BRK	119	0	7
STR	119	96	2
SI_	119	96	2	96	48	4
TAP	119	144	2
TAP	119	192	4
TAP	119	240	5
STR	119	288	6
SI_	119	288	6	96	48	2
TAP	119	336	6
STR	120	0	1
SI_	120	0	1	96	48	5
TAP	120	48	1
STR	120	96	7
SI_	120	96	7	96	48	3
TAP	120	144	7
STR	120	192	0
SI_	120	192	0	96	48	4
TAP	120	240	0
TAP	120	288	7
TAP	120	336	7
TAP	121	0	0
TAP	121	24	6
TAP	121	48	1
TAP	121	72	5
TAP	121	96	2
TAP	121	120	4
TAP	121	144	3
TAP	121	168	7
TAP	121	192	1
TAP	121	216	6
TAP	121	240	2
TAP	121	264	5
TAP	121	288	3
TAP	121	312	4
STR	121	336	1
SI_	121	336	1	96	48	6
STR	121	336	5
SI_	121	336	5	96	48	2
STR	122	48	1
SI_	122	48	1	96	48	4
STR	122	48	5
SI_	122	48	5	96	48	0
TAP	122	144	1
TAP	122	144	5
TAP	122	240	3
TAP	122	240	7
TAP	122	264	2
TAP	122	264	6
STR	122	288	1
SV_	122	288	1	96	48	4
STR	122	288	5
SV_	122	288	5	96	48	0
TAP	122	336	0
BST	123	0	1
SCL	123	0	1	96	1440	2
BRK	123	0	5
TTP	123	2	0	C	1	M1
BST	127	0	7
SSR	127	0	7	96	1392	3
STR	130	192	1
SI_	130	192	1	96	48	5

T_REC_TAP	513
T_REC_BRK	47
T_REC_XTP	47
T_REC_HLD	68
T_REC_XHO	7
T_REC_STR	92
T_REC_BST	6
T_REC_XST	13
T_REC_TTP	74
T_REC_THO	2
T_REC_SLD	113
T_REC_ALL	982
T_NUM_TAP	739
T_NUM_BRK	53
T_NUM_HLD	77
T_NUM_SLD	113
T_NUM_ALL	982
T_JUDGE_TAP	792
T_JUDGE_HLD	243
T_JUDGE_SLD	113
T_JUDGE_ALL	1148
TTM_EACHPAIRS	174
TTM_SCR_TAP	369500
TTM_SCR_BRK	137800
TTM_SCR_HLD	77000
TTM_SCR_SLD	169500
TTM_SCR_ALL	753800
TTM_SCR_S	726050
TTM_SCR_SS	748500
TTM_RAT_ACV	10070

