VERSION	0.00.00	1.03.00
FES_MODE	0
BPM_DEF	210.000	210.000	210.000	210.000
MET_DEF	4	4
RESOLUTION	384
CLK_DEF	384
COMPATIBLE_CODE	MA2

BPM	0	0	210.000
MET	0	0	4	4

TAP	2	0	2
HLD	2	0	5	192
HLD	2	192	4	192
HLD	3	0	3	192
HLD	3	192	2	192
STR	4	0	1
SCL	4	0	1	96	288	6
HLD	5	0	3	192
HLD	5	192	4	192
STR	6	0	5
SCL	6	0	5	96	288	2
HLD	7	0	4	192
HLD	7	192	3	192
STR	8	0	2
SCR	8	0	2	96	288	5
THO	9	0	0	384	C	0	M1
TTP	10	0	2	E	0	M1
TTP	10	0	6	E	0	M1
HLD	10	192	1	192
HLD	11	0	0	192
HLD	11	192	7	192
HLD	12	0	6	336
TAP	12	336	5
HLD	13	0	5	144
TAP	13	144	4
HLD	13	192	4	144
TAP	13	336	3
STR	14	0	3
SCL	14	0	3	96	288	7
TAP	14	336	3
HLD	15	0	3	144
TAP	15	144	4
HLD	15	192	4	144
TAP	15	336	5
HLD	16	0	5	288
TAP	16	288	3
TAP	16	336	4
STR	17	0	3
SF_	17	0	3	96	192	7
BRK	18	0	1
BRK	18	0	5
TAP	18	144	6
TAP	18	192	3
TAP	18	192	6
TAP	18	336	2
TAP	19	0	2
TAP	19	0	4
TAP	19	144	3
TAP	19	144	6
TAP	19	288	0
TAP	19	288	1
TAP	20	48	5
TAP	20	96	4
TAP	20	96	5
TAP	20	192	3
TAP	20	192	6
TAP	20	288	2
TAP	20	336	2
TAP	21	0	3
TAP	21	144	1
TAP	21	144	3
TAP	21	288	4
TAP	21	288	6
BRK	22	0	2
BRK	22	0	5
TAP	22	144	1
TAP	22	192	1
TAP	22	192	4
TAP	22	336	5
TAP	23	0	3
TAP	23	0	5
TAP	23	144	1
TAP	23	144	4
TAP	23	288	3
TAP	23	288	6
XTP	24	0	5
XTP	24	24	4
XTP	24	48	5
XTP	24	72	4
XTP	24	96	5
XTP	24	192	2
XTP	24	216	3
XTP	24	240	2
XTP	24	264	3
XST	24	288	2
SSL	24	288	2	96	288	6
BRK	26	0	0
BRK	26	0	7
TAP	26	96	2
TAP	26	144	3
TAP	26	192	1
HLD	26	192	4	96
TAP	26	288	3
TAP	27	0	5
TAP	27	48	5
TAP	27	96	4
HLD	27	192	3	96
HLD	27	192	6	96
TAP	28	0	6
TAP	28	0	7
TAP	28	96	5
TAP	28	144	4
HLD	28	192	3	96
TAP	28	192	6
TAP	28	288	4
TAP	29	0	2
TAP	29	48	2
TAP	29	96	3
HLD	29	192	1	96
HLD	29	192	4	96
TAP	30	0	0
TAP	30	0	1
TAP	30	96	2
TAP	30	144	3
TAP	30	192	1
HLD	30	192	4	96
TAP	30	288	3
TAP	31	0	5
TAP	31	48	5
TAP	31	96	4
HLD	31	192	3	96
HLD	31	192	6	96
STR	32	0	6
SI_	32	0	6	96	96	3
TAP	32	48	6
STR	32	96	7
SI_	32	96	7	96	96	2
STR	33	0	1
SI_	33	0	1	96	96	4
TAP	33	48	1
STR	33	96	0
SI_	33	96	0	96	96	5
HLD	34	0	2	96
TAP	34	96	3
TAP	34	144	2
TAP	34	192	1
HLD	34	192	4	96
TAP	34	288	3
HLD	35	0	5	96
TTP	35	96	4	B	0	M1
TTP	35	96	5	E	0	M1
HLD	35	192	2	96
TTP	35	288	3	B	0	M1
TTP	35	288	3	E	0	M1
HLD	36	0	6	96
TTP	36	96	4	B	0	M1
TTP	36	96	5	B	0	M1
HLD	36	192	1	96
TTP	36	288	2	B	0	M1
TTP	36	288	3	B	0	M1
HLD	37	0	7	96
TTP	37	96	5	B	0	M1
TTP	37	96	6	B	0	M1
HLD	37	192	0	96
TTP	37	288	1	B	0	M1
TTP	37	288	2	B	0	M1
TAP	38	0	6
TAP	38	0	7
TAP	38	96	5
TAP	38	144	4
HLD	38	192	3	96
TAP	38	192	6
TAP	38	288	4
TAP	39	0	2
TAP	39	48	2
TAP	39	96	3
HLD	39	192	1	96
HLD	39	192	4	96
STR	40	0	0
SCR	40	0	0	96	96	3
TAP	40	96	5
STR	40	192	7
SCL	40	192	7	96	96	4
TAP	40	288	1
THO	41	0	0	192	C	1	M1
TTP	41	192	2	E	0	M1
TTP	41	192	6	E	0	M1
TAP	42	0	6
TAP	42	0	7
TAP	42	72	5
TAP	42	96	4
TAP	42	144	6
STR	42	192	6
SI_	42	192	6	96	48	3
TAP	42	288	2
TAP	43	0	0
TAP	43	0	1
TAP	43	72	2
TAP	43	96	3
TAP	43	144	1
STR	43	192	1
SI_	43	192	1	96	48	4
TAP	43	288	5
TAP	44	0	6
TAP	44	0	7
TAP	44	72	5
TAP	44	96	4
TAP	44	144	6
STR	44	192	6
SI_	44	192	6	96	48	2
TAP	44	288	1
XTP	45	0	0
XTP	45	0	1
XTP	45	72	2
XTP	45	72	3
XTP	45	144	4
XTP	45	144	5
XTP	45	216	6
XTP	45	216	7
BRK	45	288	0
BRK	45	288	5
HLD	46	0	6	72
TAP	46	0	7
HLD	46	72	4	72
HLD	46	144	3	72
TAP	46	216	1
XTP	46	288	2
XTP	46	288	7
TAP	47	0	0
HLD	47	0	1	72
HLD	47	72	3	72
HLD	47	144	4	72
TAP	47	216	6
XTP	47	288	0
XTP	47	288	5
HLD	48	0	2	72
TAP	48	0	3
HLD	48	72	0	72
HLD	48	144	7	72
TAP	48	216	5
XTP	48	288	3
XTP	48	288	6
TAP	49	0	4
HLD	49	0	5	72
HLD	49	72	7	72
HLD	49	144	0	72
TAP	49	216	2
BRK	49	288	1
BRK	49	288	6
STR	50	0	3
SCL	50	0	3	96	192	0
TAP	50	0	4
TTP	50	192	2	B	0	M1
TTP	50	192	3	B	0	M1
STR	51	0	4
SCR	51	0	4	96	192	7
TTP	51	192	4	B	0	M1
TTP	51	192	5	B	0	M1
STR	52	0	3
SCL	52	0	3	96	192	0
TTP	52	192	1	B	0	M1
TTP	52	192	2	B	0	M1
STR	53	0	4
SCR	53	0	4	96	192	7
TTP	53	192	5	B	0	M1
TTP	53	192	6	B	0	M1
BRK	53	288	0
HLD	54	0	1	72
TAP	54	0	7
HLD	54	72	3	72
HLD	54	144	5	72
TAP	54	216	7
XTP	54	288	1
XTP	54	288	4
TAP	55	0	0
HLD	55	0	6	72
HLD	55	72	4	72
HLD	55	144	2	72
TAP	55	216	0
XTP	55	288	3
XTP	55	288	6
XTP	56	0	2
XTP	56	0	3
TAP	56	48	2
TAP	56	48	3
TAP	56	96	1
TAP	56	96	4
XTP	56	192	4
XTP	56	192	5
TAP	56	240	4
TAP	56	240	5
TAP	56	288	3
TAP	56	288	6
HLD	57	0	6	72
TAP	57	0	7
HLD	57	72	5	72
TAP	57	144	4
TAP	57	192	2
TAP	57	192	3
TAP	57	288	0
TAP	57	288	7
BST	58	0	1
SCR	58	0	1	96	1056	7
BST	58	0	6
SCL	58	0	6	96	1056	0
TTP	62	0	0	B	0	M1
TTP	62	0	0	E	0	M1
TTP	62	192	1	B	0	M1
TTP	62	192	1	E	0	M1
TTP	63	0	2	B	0	M1
TTP	63	0	2	E	0	M1
TTP	63	192	3	B	0	M1
TTP	63	192	3	E	0	M1
TTP	64	0	4	B	0	M1
TTP	64	0	4	E	0	M1
TTP	64	192	5	B	0	M1
TTP	64	192	5	E	0	M1
TTP	65	0	6	B	0	M1
TTP	65	0	6	E	0	M1
TTP	65	192	7	B	0	M1
TTP	65	192	7	E	0	M1
HLD	66	0	1	288
TAP	66	96	3
TAP	66	192	4
TAP	66	288	5
HLD	66	336	5	336
TAP	67	48	2
TAP	67	144	3
TAP	67	240	4
HLD	67	288	4	480
TAP	68	0	6
TAP	68	96	5
TAP	68	144	5
TAP	68	240	3
TAP	68	288	3
HLD	69	0	5	288
TAP	69	96	4
TAP	69	192	3
TAP	69	288	2
TAP	70	0	1
TAP	70	0	3
TAP	70	96	2
TAP	70	96	4
TAP	70	192	3
TAP	70	192	5
TAP	70	288	4
TAP	70	288	6
TAP	70	336	4
HLD	70	336	6	192
TAP	71	48	7
TAP	71	144	0
TAP	71	240	1
TAP	71	240	4
TAP	71	336	3
TAP	71	336	6
TAP	72	0	2
TAP	72	48	2
TAP	72	96	5
TAP	72	144	5
TAP	72	192	3
TAP	72	216	4
TAP	72	240	3
TAP	72	264	4
STR	72	288	3
SCL	72	288	3	96	192	7
SCR	72	288	3	96	192	7
BRK	73	288	1
BRK	73	288	5
XTP	74	0	0
XTP	74	0	7
TAP	74	48	1
TAP	74	96	2
TAP	74	96	3
TAP	74	192	4
TAP	74	192	6
TAP	74	288	1
TAP	74	288	7
TAP	74	336	0
STR	74	336	6
SI_	74	336	6	96	48	2
STR	75	48	7
SI_	75	48	7	96	48	3
STR	75	144	0
SI_	75	144	0	96	48	4
TAP	75	240	2
TAP	75	288	2
TAP	76	0	4
STR	76	0	5
SI_	76	0	5	96	48	0
TAP	76	96	1
STR	76	144	1
SI_	76	144	1	96	48	4
TAP	76	240	6
TAP	76	288	6
TAP	77	0	0
TAP	77	0	7
TAP	77	96	1
TAP	77	96	2
TAP	77	192	3
TAP	77	192	4
TAP	77	288	5
TAP	77	288	6
TAP	78	0	0
STR	78	0	7
SI_	78	0	7	96	48	5
STR	78	96	1
SI_	78	96	1	96	48	3
STR	78	192	4
SI_	78	192	4	96	48	0
TAP	78	288	1
TAP	78	336	1
TAP	79	48	0
TAP	79	48	2
TAP	79	144	5
TAP	79	144	7
TAP	79	240	4
TAP	79	264	3
TAP	79	288	4
TAP	79	336	2
HLD	80	0	1	96
TAP	80	0	3
TAP	80	96	5
TAP	80	144	4
HLD	80	144	6	96
TAP	80	240	7
TAP	80	288	7
XTP	81	0	2
XTP	81	0	6
XTP	81	72	1
XTP	81	72	4
XTP	81	144	3
XTP	81	144	5
XTP	81	216	2
XTP	81	216	4
XTP	81	288	2
XTP	81	288	5
XTP	81	336	2
XTP	81	336	5
XTP	82	0	3
XTP	82	0	4
BRK	82	96	1
BRK	82	96	6
TAP	82	192	2
TAP	82	192	3
TAP	82	288	0
TAP	82	288	6
STR	82	336	1
SI_	82	336	1	96	48	5
TAP	82	336	7
STR	83	48	0
SI_	83	48	0	96	48	4
STR	83	144	7
SI_	83	144	7	96	48	3
TAP	83	240	5
TAP	83	288	5
STR	84	0	2
SI_	84	0	2	96	48	7
TAP	84	0	3
TAP	84	96	6
STR	84	144	6
SI_	84	144	6	96	48	3
TAP	84	240	1
TAP	84	288	1
TAP	85	0	0
TAP	85	0	7
TAP	85	96	5
TAP	85	96	6
TAP	85	192	3
TAP	85	192	4
TAP	85	288	1
TAP	85	288	2
STR	86	0	0
SI_	86	0	0	96	48	2
TAP	86	0	7
STR	86	96	6
SI_	86	96	6	96	48	4
STR	86	192	3
SI_	86	192	3	96	48	7
TAP	86	288	6
TAP	86	336	6
TAP	87	48	5
TAP	87	48	7
TAP	87	144	0
TAP	87	144	2
TAP	87	240	3
TAP	87	264	4
TAP	87	288	3
TAP	87	336	5
TAP	88	0	6
TAP	88	0	7
TAP	88	96	1
TAP	88	96	2
TAP	88	192	4
TAP	88	192	5
XTP	88	288	3
XTP	88	288	6
XTP	88	336	3
XST	88	336	6
SI_	88	336	6	96	48	3
XST	89	48	4
SI_	89	48	4	96	48	1
XST	89	144	2
SI_	89	144	2	96	48	7
XTP	89	240	0
BRK	89	288	0
XHO	90	0	1	96
XHO	90	0	6	96
HLD	90	144	0	96
HLD	90	144	4	96
HLD	90	288	3	96
HLD	90	288	6	96
HLD	91	48	2	96
HLD	91	48	4	96
TAP	91	192	1
TAP	91	192	5
TAP	91	288	3
TAP	91	288	7
HLD	92	0	2	96
HLD	92	0	6	96
HLD	92	144	3	96
HLD	92	144	7	96
HLD	92	288	1	96
HLD	92	288	4	96
HLD	93	48	3	96
HLD	93	48	5	96
TAP	93	192	2
TAP	93	192	4
TAP	93	240	1
TAP	93	288	0
TAP	93	288	7
TAP	94	0	0
STR	94	0	6
SI_	94	0	6	96	48	3
TAP	94	96	2
TAP	94	192	1
TAP	94	192	4
TAP	94	288	0
TAP	94	288	5
TAP	94	336	0
TAP	94	336	5
TAP	95	48	4
TAP	95	48	6
TAP	95	144	1
TAP	95	144	3
TAP	95	240	3
TAP	95	264	4
TAP	95	288	3
TAP	95	336	5
TAP	96	0	4
TAP	96	0	6
TAP	96	96	2
TAP	96	144	1
TAP	96	144	3
TAP	96	240	7
TAP	96	264	0
TAP	96	288	7
TAP	97	0	2
HLD	97	0	6	72
HLD	97	72	4	72
HLD	97	144	3	72
TAP	97	216	1
BRK	97	288	0
BRK	97	288	7
XTP	98	0	2
XHO	98	0	5	96
TAP	98	96	1
XHO	98	144	0	96
XTP	98	144	4
TAP	98	240	6
XTP	98	288	1
XHO	98	288	7	96
TAP	99	0	3
XHO	99	48	2	96
XTP	99	48	4
TAP	99	144	5
TAP	99	192	1
TAP	99	192	6
TAP	99	288	3
TAP	99	288	7
XHO	100	0	2	96
XTP	100	0	5
TAP	100	96	6
XTP	100	144	3
XHO	100	144	7	96
TAP	100	240	1
XHO	100	288	0	96
XTP	100	288	6
TAP	101	0	4
XTP	101	48	3
XHO	101	48	5	96
TAP	101	144	2
TAP	101	192	1
TAP	101	192	4
TAP	101	288	0
TAP	101	288	7
STR	102	0	1
SI_	102	0	1	96	48	4
TAP	102	0	7
TAP	102	96	5
TAP	102	192	3
TAP	102	192	6
TAP	102	288	2
TAP	102	288	7
TAP	102	336	2
TAP	102	336	7
TAP	103	48	1
TAP	103	48	3
TAP	103	144	4
TAP	103	144	6
TAP	103	240	4
TAP	103	264	3
TAP	103	288	4
TAP	103	336	2
TAP	104	0	1
TAP	104	0	3
TAP	104	96	5
TAP	104	144	4
TAP	104	144	6
TAP	104	240	0
TAP	104	264	7
TAP	104	288	0
HLD	105	0	5	72
HLD	105	72	7	72
HLD	105	144	0	72
TAP	105	216	3
TAP	105	288	2
TAP	105	288	5
TAP	105	336	1
TAP	105	336	6
STR	106	0	0
SI_	106	0	0	96	48	4
TAP	106	0	7
TTP	106	192	6	E	0	M1
TTP	106	208	5	B	0	M1
TTP	106	240	2	E	0	M1
TTP	106	256	2	B	0	M1
TTP	106	288	0	C	1	M1
TAP	107	0	0
STR	107	0	7
SCL	107	0	7	96	576	0
XTP	109	0	0
XTP	109	0	7
XTP	109	96	4
XTP	109	96	5
XTP	109	144	3
XST	109	144	6
SI_	109	144	6	96	48	3
XST	109	240	0
SI_	109	240	0	96	48	4
TAP	109	336	7
XST	110	0	7
SI_	110	0	7	96	48	3
XST	110	96	1
SI_	110	96	1	96	48	5
XST	110	192	4
SI_	110	192	4	96	48	0
TAP	110	288	3
XTP	111	0	2
XTP	111	0	7
BRK	111	96	1
BRK	111	96	5
TAP	111	192	3
TAP	111	192	4
TAP	111	288	0
TAP	111	288	6
STR	111	336	1
SI_	111	336	1	96	48	5
TAP	111	336	7
STR	112	48	0
SI_	112	48	0	96	48	4
STR	112	144	7
SI_	112	144	7	96	48	3
TTP	112	240	6	E	0	M1
TTP	112	264	5	B	0	M1
TTP	112	288	4	B	0	M1
STR	113	0	2
SCL	113	0	2	96	48	7
TAP	113	0	3
TAP	113	96	6
STR	113	144	6
SCL	113	144	6	96	48	3
TAP	113	240	1
TAP	113	288	1
XTP	114	0	2
XTP	114	0	7
XTP	114	72	0
XTP	114	72	4
XTP	114	144	3
XTP	114	144	6
XTP	114	216	1
XTP	114	216	5
XST	114	288	0
SI_	114	288	0	96	48	4
XST	114	288	7
SI_	114	288	7	96	48	3
XTP	114	336	0
XTP	114	336	7
BRK	115	96	1
BRK	115	96	6
TAP	115	192	2
TAP	115	192	5
TAP	115	288	1
TAP	115	288	7
TAP	115	336	0
STR	115	336	6
SI_	115	336	6	96	48	2
STR	116	48	7
SI_	116	48	7	96	48	3
STR	116	144	0
SI_	116	144	0	96	48	4
TTP	116	240	2	E	0	M1
TTP	116	264	2	B	0	M1
TTP	116	288	3	B	0	M1
TAP	117	0	4
STR	117	0	5
SCR	117	0	5	96	48	0
TAP	117	96	1
STR	117	144	1
SCR	117	144	1	96	48	4
TAP	117	240	6
TAP	117	288	6
TAP	118	0	0
TAP	118	0	7
TAP	118	96	2
TAP	118	96	5
TAP	118	144	3
TAP	118	144	4
BRK	118	240	0
BRK	118	240	7
XTP	119	0	1
XTP	119	0	6
TAP	119	48	1
TAP	119	96	0
TAP	119	96	1
TAP	119	144	1
TAP	119	192	1
TAP	119	192	2
TAP	119	240	1
TAP	119	288	1
TAP	119	288	4
TAP	119	336	1
XTP	120	0	1
XTP	120	0	6
TAP	120	48	6
TAP	120	96	6
TAP	120	96	7
TAP	120	144	6
TAP	120	192	5
TAP	120	192	6
TAP	120	240	6
TAP	120	288	3
TAP	120	288	6
TAP	120	336	6
XTP	121	0	1
XTP	121	24	0
XTP	121	48	1
XTP	121	72	0
XTP	121	96	1
XTP	121	120	0
XTP	121	144	1
XTP	121	192	6
XTP	121	216	7
XTP	121	240	6
XTP	121	264	7
XTP	121	288	6
XTP	121	312	7
XTP	121	336	6
XST	122	48	3
SI_	122	48	3	96	48	1
XST	122	48	4
SI_	122	48	4	96	48	6
TAP	122	240	0
TAP	122	264	7
TAP	122	288	0
TAP	122	336	6
BST	123	0	2
SCL	123	0	2	96	1248	4
BST	123	0	5
SCR	123	0	5	96	1248	3
TTP	127	0	2	B	0	M1
TTP	127	24	3	B	0	M1
TTP	127	48	4	B	0	M1

T_REC_TAP	371
T_REC_BRK	24
T_REC_XTP	94
T_REC_HLD	84
T_REC_XHO	10
T_REC_STR	49
T_REC_BST	4
T_REC_XST	13
T_REC_TTP	54
T_REC_THO	2
T_REC_SLD	67
T_REC_ALL	772
T_NUM_TAP	581
T_NUM_BRK	28
T_NUM_HLD	96
T_NUM_SLD	67
T_NUM_ALL	772
T_JUDGE_TAP	609
T_JUDGE_HLD	258
T_JUDGE_SLD	67
T_JUDGE_ALL	934
TTM_EACHPAIRS	186
TTM_SCR_TAP	290500
TTM_SCR_BRK	72800
TTM_SCR_HLD	96000
TTM_SCR_SLD	100500
TTM_SCR_ALL	559800
TTM_SCR_S	540300
TTM_SCR_SS	557000
TTM_RAT_ACV	10050

