VERSION	0.00.00	1.03.00
FES_MODE	0
BPM_DEF	210.000	210.000	210.000	210.000
MET_DEF	4	4
RESOLUTION	384
CLK_DEF	384
COMPATIBLE_CODE	MA2

BPM	0	0	210.000
MET	0	0	4	4

STR	2	0	0
SXL	2	0	0	96	1056	3
STR	2	0	7
SXR	2	0	7	96	1056	4
STR	6	0	3
SXR	6	0	3	96	1056	0
STR	6	0	4
SXL	6	0	4	96	1056	7
HLD	10	0	1	384
HLD	11	0	0	384
HLD	12	0	7	384
TAP	13	0	6
HLD	14	0	5	384
HLD	15	0	4	384
HLD	16	0	3	384
TAP	17	0	2
HLD	18	0	1	384
TAP	19	0	0
TAP	19	192	0
TAP	19	192	7
HLD	20	0	6	384
TAP	21	0	7
TAP	21	192	0
TAP	21	192	7
TAP	22	0	0
TAP	22	0	1
TAP	22	192	0
TAP	22	192	1
TAP	23	0	6
TAP	23	0	7
TAP	23	192	6
TAP	23	192	7
TAP	24	0	0
TAP	24	96	0
TAP	24	192	7
TAP	24	288	7
BRK	25	0	1
BRK	25	0	6
HLD	26	0	2	192
TAP	26	192	3
STR	27	0	2
SV_	27	0	2	96	192	7
HLD	28	0	6	192
TAP	28	192	7
STR	29	0	5
SV_	29	0	5	96	192	0
HLD	30	0	1	192
TAP	30	192	0
STR	31	0	1
SV_	31	0	1	96	192	4
HLD	32	0	5	192
TAP	32	192	4
STR	33	0	6
SV_	33	0	6	96	192	3
TAP	34	0	2
TAP	34	96	2
TAP	34	192	2
TAP	34	192	3
TTP	35	0	1	B	0	L1
TTP	35	192	3	E	0	L1
TAP	36	0	5
TAP	36	96	5
TAP	36	192	4
TAP	36	192	5
TTP	37	0	6	B	0	L1
TTP	37	192	5	E	0	L1
XTP	38	0	2
TAP	38	96	2
TAP	38	192	2
TAP	38	192	3
TAP	39	0	5
TAP	39	96	5
TAP	39	192	4
TAP	39	192	5
TAP	40	0	3
TAP	40	96	3
TAP	40	192	4
TAP	40	288	4
TAP	41	0	3
TAP	41	0	4
TAP	41	96	3
TAP	41	96	4
XTP	41	192	2
XTP	41	192	5
TAP	42	0	1
TAP	42	96	1
TAP	42	192	0
TAP	42	192	1
TAP	42	288	0
TAP	42	288	1
TAP	43	0	2
TAP	43	96	3
TAP	43	192	2
TAP	43	192	4
TAP	44	0	5
TAP	44	96	5
TAP	44	192	4
TAP	44	192	5
TAP	44	288	4
TAP	44	288	5
TAP	45	0	6
TAP	45	96	7
XTP	45	192	0
XTP	45	192	6
TAP	46	0	6
TAP	46	96	6
TAP	46	192	6
TAP	46	192	7
TAP	46	288	6
TAP	46	288	7
TAP	47	0	5
TAP	47	96	4
TAP	47	192	3
TAP	47	192	5
TAP	48	0	2
TAP	48	96	2
TAP	48	192	2
TAP	48	192	3
TAP	48	288	2
TAP	48	288	3
XTP	49	0	1
XTP	49	96	0
XTP	49	96	7
XTP	49	192	1
XTP	49	192	6
HLD	50	0	4	96
HLD	50	0	5	96
TAP	50	192	3
TAP	50	192	6
HLD	51	0	2	96
HLD	51	0	3	96
TAP	51	192	1
TAP	51	192	4
HLD	52	0	0	96
HLD	52	0	1	96
TAP	52	192	2
TAP	52	192	7
HLD	53	0	0	96
HLD	53	0	7	96
TAP	53	192	1
TAP	53	192	6
TAP	54	0	5
TAP	54	96	5
TAP	54	192	4
TAP	54	288	4
TAP	55	0	3
TAP	55	96	3
TAP	55	192	2
TAP	55	288	2
TAP	56	0	1
TAP	56	48	1
TAP	56	96	1
TAP	56	192	0
TAP	56	240	0
TAP	56	288	0
TAP	57	0	7
TAP	57	48	7
TAP	57	96	7
TAP	57	192	0
TAP	57	192	7
TAP	57	288	0
TAP	57	288	7
BST	58	0	0
SXL	58	0	0	96	1056	3
BST	58	0	7
SXR	58	0	7	96	1056	4
TTP	62	0	1	E	0	L1
TTP	62	0	7	E	0	L1
TTP	63	0	1	B	0	L1
TTP	63	0	6	B	0	L1
TTP	64	0	2	B	0	L1
TTP	64	0	5	B	0	L1
TTP	65	0	3	E	0	L1
TTP	65	0	5	E	0	L1
HLD	66	0	1	192
TAP	66	192	0
HLD	67	0	6	192
TAP	67	192	7
HLD	68	0	1	192
TAP	68	192	0
HLD	69	0	6	96
HLD	69	0	7	96
TAP	69	192	6
TAP	69	192	7
TAP	70	0	1
TAP	70	96	1
TAP	70	192	0
TAP	70	288	0
TAP	71	0	7
TAP	71	96	7
TAP	71	192	6
TAP	71	288	6
XST	72	0	0
SCR	72	0	0	96	192	3
XST	72	0	7
SCL	72	0	7	96	192	4
TTP	73	0	0	C	1	L1
XTP	74	0	1
TAP	74	96	1
TAP	74	192	0
TAP	74	192	1
TAP	74	288	0
TAP	74	288	1
TAP	75	0	6
TAP	75	96	6
TAP	75	192	6
TAP	75	192	7
TAP	75	288	6
TAP	75	288	7
TAP	76	0	5
TAP	76	96	5
TAP	76	192	4
TAP	76	288	4
TAP	77	0	3
TAP	77	96	3
TAP	77	192	2
TAP	77	192	4
TAP	78	0	5
TAP	78	96	5
TAP	78	192	4
TAP	78	192	5
TAP	78	288	4
TAP	78	288	5
TAP	79	0	2
TAP	79	96	2
TAP	79	192	2
TAP	79	192	3
TAP	79	288	2
TAP	79	288	3
TAP	80	0	1
TAP	80	96	1
TAP	80	192	0
TAP	80	288	0
XTP	81	0	0
XTP	81	0	7
XTP	81	96	0
XTP	81	96	7
XTP	81	192	1
XTP	81	192	6
TAP	82	0	6
BRK	82	96	6
BRK	82	96	7
TAP	82	192	6
TAP	82	288	6
TAP	82	288	7
TAP	83	0	1
TAP	83	96	0
TAP	83	96	1
TAP	83	192	1
TAP	83	288	0
TAP	83	288	1
TAP	84	0	2
TAP	84	96	2
TAP	84	192	3
TAP	84	288	3
TAP	85	0	4
TAP	85	96	4
TAP	85	192	3
TAP	85	192	5
TAP	86	0	2
TAP	86	96	2
TAP	86	96	3
TAP	86	192	2
TAP	86	288	2
TAP	86	288	3
TAP	87	0	5
TAP	87	96	4
TAP	87	96	5
TAP	87	192	5
TAP	87	288	4
TAP	87	288	5
TAP	88	0	6
TAP	88	96	6
TAP	88	192	7
TAP	88	288	7
XTP	89	0	0
XTP	89	0	7
XTP	89	96	0
XTP	89	96	7
XTP	89	192	1
XTP	89	192	6
TTP	90	0	2	B	0	L1
TTP	90	0	3	B	0	L1
TTP	91	0	4	B	0	L1
TTP	91	0	5	B	0	L1
TTP	92	0	6	B	0	L1
TTP	92	0	7	B	0	L1
TTP	93	0	0	B	0	L1
TTP	93	0	1	B	0	L1
TTP	94	0	3	B	0	L1
TTP	94	0	4	B	0	L1
TTP	95	0	5	B	0	L1
TTP	95	0	6	B	0	L1
TTP	96	0	0	B	0	L1
TTP	96	0	7	B	0	L1
TTP	97	0	1	B	0	L1
TTP	97	0	2	B	0	L1
STR	98	0	4
SI_	98	0	4	96	192	7
STR	99	0	0
SI_	99	0	0	96	192	3
STR	100	0	4
SI_	100	0	4	96	192	7
TAP	101	0	0
TAP	101	192	1
TAP	101	192	6
STR	102	0	2
SI_	102	0	2	96	192	5
STR	103	0	6
SI_	103	0	6	96	192	1
STR	104	0	2
SI_	104	0	2	96	192	5
TAP	105	0	6
STR	105	192	7
SSR	105	192	7	96	384	3
TAP	107	0	2
TAP	107	192	2
TAP	107	192	3
TAP	108	0	5
TAP	108	192	4
TAP	108	192	5
TAP	109	0	3
TAP	109	96	3
TAP	109	192	4
TAP	109	288	4
TAP	110	0	3
TAP	110	0	4
TAP	110	96	3
TAP	110	96	4
BRK	110	192	2
BRK	110	192	5
TAP	111	0	6
TAP	111	96	6
TAP	111	192	6
TAP	111	192	7
TAP	111	288	0
TAP	111	288	5
TAP	112	0	1
TAP	112	96	1
TAP	112	192	0
TAP	112	192	1
TAP	112	288	2
TAP	112	288	7
TAP	113	0	3
TAP	113	96	2
TAP	113	192	2
TAP	113	192	3
TAP	113	288	2
TAP	113	288	3
XTP	114	0	1
XTP	114	0	4
XTP	114	96	0
XTP	114	96	5
XTP	114	192	6
XTP	114	192	7
TAP	115	0	1
TAP	115	96	1
TAP	115	192	0
TAP	115	192	1
TAP	115	288	2
TAP	115	288	7
TAP	116	0	6
TAP	116	96	6
TAP	116	192	6
TAP	116	192	7
TAP	116	288	0
TAP	116	288	5
TAP	117	0	4
TAP	117	96	5
TAP	117	192	4
TAP	117	192	5
TAP	117	288	4
TAP	117	288	5
XTP	118	0	3
XTP	118	0	6
XTP	118	96	2
XTP	118	96	7
XTP	118	192	0
XTP	118	192	1
TAP	119	0	7
TAP	119	96	7
TAP	119	192	6
TAP	119	288	6
TAP	120	0	5
TAP	120	96	5
TAP	120	192	4
TAP	120	288	4
TAP	121	0	3
TAP	121	48	3
TAP	121	96	3
TAP	121	192	2
TAP	121	240	2
TAP	121	288	2
TAP	122	0	1
TAP	122	48	1
TAP	122	96	1
TAP	122	192	0
TAP	122	240	0
TAP	122	288	0
XHO	123	0	1	1536
XHO	123	0	6	1536

T_REC_TAP	266
T_REC_BRK	6
T_REC_XTP	35
T_REC_HLD	25
T_REC_XHO	2
T_REC_STR	15
T_REC_BST	2
T_REC_XST	2
T_REC_TTP	29
T_REC_THO	0
T_REC_SLD	19
T_REC_ALL	401
T_NUM_TAP	347
T_NUM_BRK	8
T_NUM_HLD	27
T_NUM_SLD	19
T_NUM_ALL	401
T_JUDGE_TAP	355
T_JUDGE_HLD	176
T_JUDGE_SLD	19
T_JUDGE_ALL	550
TTM_EACHPAIRS	92
TTM_SCR_TAP	173500
TTM_SCR_BRK	20800
TTM_SCR_HLD	27000
TTM_SCR_SLD	28500
TTM_SCR_ALL	249800
TTM_SCR_S	241550
TTM_SCR_SS	249000
TTM_RAT_ACV	10032

