VERSION	0.00.00	1.03.00
FES_MODE	0
BPM_DEF	210.000	210.000	210.000	210.000
MET_DEF	4	4
RESOLUTION	384
CLK_DEF	384
COMPATIBLE_CODE	MA2

BPM	0	0	210.000
MET	0	0	4	4

TAP	10	0	0
TAP	12	0	0
TAP	14	0	7
TAP	16	0	7
TAP	18	0	0
TAP	19	0	1
TAP	20	0	2
TAP	21	0	3
TAP	22	0	4
TAP	23	0	5
TAP	24	0	6
XTP	25	0	0
XTP	25	0	7
TAP	26	0	7
TAP	26	192	7
TAP	27	0	7
TAP	28	0	6
TAP	28	192	6
TAP	29	0	6
TAP	30	0	5
TAP	30	192	5
TAP	31	0	5
TAP	32	0	4
TAP	32	192	4
XTP	33	0	3
XTP	33	0	4
HLD	34	0	3	384
HLD	36	0	2	384
HLD	38	0	1	384
HLD	40	0	0	384
HLD	40	0	7	384
TAP	42	0	0
TAP	42	192	0
TAP	43	0	1
TAP	43	192	1
TAP	44	0	2
TAP	44	192	2
TAP	45	0	2
TAP	45	0	3
TAP	46	0	4
TAP	46	192	4
TAP	47	0	5
TAP	47	192	5
TAP	48	0	6
TAP	48	192	6
TAP	49	0	6
TAP	49	0	7
HLD	50	0	7	192
TAP	51	0	7
HLD	52	0	6	192
TAP	53	0	6
HLD	54	0	5	192
TAP	55	0	5
HLD	56	0	4	192
TAP	57	0	4
BRK	58	0	3
BRK	58	0	4
TTP	62	0	3	B	0	L1
TTP	64	0	4	B	0	L1
TTP	66	0	3	E	0	L1
TTP	67	0	2	E	0	L1
TTP	68	0	1	E	0	L1
TTP	69	0	0	E	0	L1
TTP	70	0	7	E	0	L1
TTP	71	0	6	E	0	L1
TTP	72	0	5	E	0	L1
TTP	73	0	0	C	1	L1
XTP	74	0	0
TAP	74	96	0
TAP	74	192	0
TAP	75	0	1
TAP	75	96	1
TAP	75	192	1
TAP	76	0	2
TAP	76	96	2
TAP	76	192	2
TAP	77	0	3
TAP	77	96	3
TAP	77	192	3
TAP	77	192	4
TAP	78	0	4
TAP	78	96	4
TAP	78	192	4
TAP	79	0	5
TAP	79	96	5
TAP	79	192	5
TAP	80	0	6
TAP	80	96	6
TAP	80	192	6
BRK	81	0	0
BRK	81	0	7
TAP	82	0	7
TAP	82	96	7
TAP	82	192	7
TAP	83	0	6
TAP	83	96	6
TAP	83	192	6
TAP	84	0	5
TAP	84	96	5
TAP	84	192	5
TAP	85	0	4
TAP	85	96	4
TAP	85	192	3
TAP	85	192	4
TAP	86	0	3
TAP	86	96	3
TAP	86	192	3
TAP	87	0	2
TAP	87	96	2
TAP	87	192	2
TAP	88	0	1
TAP	88	96	1
TAP	88	192	1
TAP	89	0	0
TAP	89	0	7
TAP	89	96	0
TAP	89	96	7
BRK	89	192	0
BRK	89	192	7
STR	90	0	7
SI_	90	0	7	96	288	4
STR	92	0	0
SI_	92	0	0	96	288	3
STR	94	0	7
SI_	94	0	7	96	288	3
STR	96	0	0
SI_	96	0	0	96	288	4
STR	98	0	6
SI_	98	0	6	96	288	3
STR	100	0	1
SI_	100	0	1	96	288	4
STR	102	0	6
SI_	102	0	6	96	288	2
STR	104	0	1
SI_	104	0	1	96	288	5
BRK	106	0	7
HLD	107	0	0	384
HLD	107	0	7	384
TAP	109	0	0
TAP	109	96	0
TAP	109	192	0
TAP	110	0	7
TAP	110	96	7
TAP	110	192	7
TAP	111	0	0
TAP	111	96	0
TAP	111	192	1
TAP	111	288	1
TAP	112	0	2
TAP	112	96	2
TAP	112	192	2
TAP	112	192	3
TAP	113	0	4
TAP	113	96	4
TAP	113	192	5
TAP	113	288	5
BRK	114	0	6
BRK	114	0	7
TAP	115	0	7
TAP	115	96	7
TAP	115	192	6
TAP	115	288	6
TAP	116	0	5
TAP	116	96	5
TAP	116	192	4
TAP	116	192	5
TAP	117	0	3
TAP	117	96	3
TAP	117	192	2
TAP	117	288	2
TAP	118	0	1
TAP	118	96	1
TAP	118	192	0
TAP	118	192	1
TAP	119	0	6
TAP	119	0	7
TAP	119	96	6
TAP	119	96	7
TAP	119	192	6
TAP	119	192	7
TAP	120	0	0
TAP	120	0	1
TAP	120	96	0
TAP	120	96	1
TAP	120	192	0
TAP	120	192	1
TAP	121	0	2
TAP	121	96	2
TAP	121	192	3
TAP	121	288	3
TAP	122	0	4
TAP	122	96	4
TAP	122	192	5
TAP	122	288	5
BRK	123	0	3
BRK	123	0	4

T_REC_TAP	143
T_REC_BRK	11
T_REC_XTP	5
T_REC_HLD	11
T_REC_XHO	0
T_REC_STR	8
T_REC_BST	0
T_REC_XST	0
T_REC_TTP	10
T_REC_THO	0
T_REC_SLD	8
T_REC_ALL	196
T_NUM_TAP	166
T_NUM_BRK	11
T_NUM_HLD	11
T_NUM_SLD	8
T_NUM_ALL	196
T_JUDGE_TAP	177
T_JUDGE_HLD	72
T_JUDGE_SLD	8
T_JUDGE_ALL	257
TTM_EACHPAIRS	24
TTM_SCR_TAP	83000
TTM_SCR_BRK	28600
TTM_SCR_HLD	11000
TTM_SCR_SLD	12000
TTM_SCR_ALL	134600
TTM_SCR_S	129500
TTM_SCR_SS	133500
TTM_RAT_ACV	10082

