VERSION	0.00.00	1.05.00
FES_MODE	0
BPM_DEF	180.000	180.000	180.000	180.000
MET_DEF	4	4
RESOLUTION	384
CLK_DEF	384
COMPATIBLE_CODE	MA2

BPM	0	0	180.000
MET	0	0	4	4

NMTAP	2	0	1
NMHLD	2	0	3	144
NMTAP	2	48	1
NMTAP	2	96	2
NMTAP	2	144	2
NMTTP	2	240	2	E	0	M1
NMTTP	2	288	4	E	0	M1
NMHLD	2	336	1	96
NMTAP	3	48	3
NMTAP	3	96	3
NMSTR	3	144	2
NMSI_	3	144	2	96	48	4
NMTAP	3	144	4
EXTAP	3	240	5
EXTAP	3	288	5
NMHLD	4	0	4	144
NMTAP	4	0	6
NMTAP	4	48	6
NMTAP	4	96	5
NMTAP	4	144	5
NMTTP	4	240	6	E	0	M1
NMTTP	4	288	4	E	0	M1
NMHLD	4	336	6	96
NMTAP	5	48	4
NMTAP	5	96	4
NMTAP	5	144	3
NMSTR	5	144	7
NMSI_	5	144	7	96	48	3
EXTAP	5	240	2
EXTAP	5	288	2
NMTAP	6	0	1
NMHLD	6	0	3	144
NMTAP	6	48	1
NMTAP	6	96	2
NMTAP	6	144	2
NMTTP	6	240	2	E	0	M1
NMTTP	6	288	4	E	0	M1
NMHLD	6	336	1	96
NMTAP	7	48	3
NMTAP	7	96	3
NMSTR	7	144	0
NMSUR	7	144	0	96	48	4
NMTAP	7	144	4
EXTAP	7	240	5
EXTAP	7	288	5
BRTAP	8	0	3
BRTAP	8	0	7
NMTTP	8	96	4	E	0	M1
NMTTP	8	144	6	E	0	M1
NMTTP	8	192	3	E	0	M1
NMTTP	8	240	7	E	0	M1
NMTTP	8	288	1	A	0	M1
NMTTP	8	336	0	A	0	M1
EXHLD	9	0	2	0
EXHLD	9	48	3	0
EXHLD	9	96	1	0
EXHLD	9	144	4	0
EXHLD	9	192	0	0
EXHLD	9	240	5	0
EXHLD	9	288	6	0
EXHLD	9	288	7	0
NMTAP	10	0	0
NMTAP	10	0	7
NMTAP	10	16	6
NMTAP	10	32	5
NMTAP	10	48	4
NMTAP	10	144	0
NMTAP	10	144	7
NMTAP	10	160	1
NMTAP	10	176	2
NMTAP	10	192	3
BRTAP	10	288	1
BRTAP	10	288	6
BRTAP	10	336	1
BRTAP	10	336	6
NMHLD	11	144	2	96
NMHLD	11	240	3	96
NMSTR	11	336	1
NMSUR	11	336	1	96	288	3
NMHLD	12	192	5	96
NMTAP	12	336	5
NMTAP	13	96	4
NMTAP	13	96	5
NMTAP	13	240	4
NMTAP	13	240	5
NMHLD	13	336	4	96
NMHLD	13	336	6	96
NMHLD	14	144	3	96
NMHLD	14	144	5	96
NMHLD	14	336	2	96
NMHLD	14	336	4	96
NMTAP	15	144	2
NMTAP	15	144	4
NMTAP	15	240	1
NMTAP	15	240	3
NMTAP	15	288	1
NMTAP	15	288	3
NMHLD	16	0	2	96
NMHLD	16	96	3	96
NMHLD	16	192	4	96
NMHLD	16	288	5	96
NMSTR	17	0	6
NMSUL	17	0	6	96	144	2
NMHLD	17	96	4	96
NMTAP	18	0	0
NMTAP	18	48	1
NMTAP	18	48	7
NMTAP	18	96	2
NMTAP	18	96	6
NMTAP	18	144	3
NMSTR	18	144	5
NMSI_	18	144	5	96	48	2
NMSTR	18	240	0
NMSI_	18	240	0	96	48	3
NMTAP	18	240	5
BXTAP	18	336	0
NMTAP	19	144	4
NMTAP	19	168	4
NMTAP	19	192	3
NMTAP	19	240	2
NMTAP	19	288	0
NMTAP	19	288	1
NMTAP	20	0	2
NMTAP	20	0	7
NMTAP	20	96	1
NMTAP	20	144	0
NMTAP	20	192	2
NMTAP	20	240	0
NMTAP	20	288	3
NMTAP	20	336	2
NMTAP	20	336	7
NMTAP	21	48	7
NMTAP	21	96	0
NMTAP	21	144	1
NMTAP	21	144	6
NMTAP	21	240	6
NMTAP	21	288	7
NMTAP	21	336	0
NMTAP	21	336	5
NMTAP	22	48	5
NMTAP	22	96	7
NMTAP	22	144	0
NMTAP	22	144	4
NMTAP	22	240	4
NMTAP	22	288	7
NMTAP	22	336	0
NMHLD	22	336	3	96
NMTAP	23	48	1
NMTAP	23	96	2
NMHLD	23	144	2	48
NMTAP	23	192	0
NMHLD	23	240	0	48
NMTAP	23	288	7
NMTAP	24	0	6
NMTAP	24	0	7
NMTAP	24	96	0
NMSTR	24	96	3
NMSCR	24	96	3	96	48	6
NMTAP	24	144	1
NMTAP	24	192	2
NMSTR	24	288	4
NMSCL	24	288	4	96	48	1
NMTAP	24	336	6
NMTAP	25	0	5
NMSTR	25	96	3
NMSI_	25	96	3	96	48	7
NMTAP	25	192	3
NMSTR	25	288	1
NMSI_	25	288	1	96	48	4
NMTAP	25	336	7
NMTAP	26	0	1
NMSTR	26	96	6
NMSI_	26	96	6	96	48	3
NMTAP	26	144	0
NMTAP	26	192	6
NMTAP	26	288	2
NMTAP	26	336	2
NMTAP	26	336	3
NMTAP	27	0	1
NMTAP	27	24	3
NMTAP	27	48	2
NMTAP	27	72	4
NMTAP	27	96	3
NMTAP	27	120	5
NMTAP	27	144	4
NMTAP	27	168	6
BXTAP	27	192	5
NMTAP	27	336	4
NMHLD	27	336	6	288
NMTTP	28	48	5	E	0	M1
NMTTP	28	96	6	E	0	M1
NMTTP	28	144	7	E	0	M1
NMTTP	28	192	0	E	0	M1
NMTTP	28	240	1	E	0	M1
NMHLD	28	336	1	288
NMTAP	28	336	3
NMTTP	29	48	3	E	0	M1
NMTTP	29	96	2	E	0	M1
NMTTP	29	144	1	E	0	M1
NMTTP	29	192	0	E	0	M1
NMTTP	29	240	7	E	0	M1
NMTAP	29	336	2
NMTAP	29	336	6
NMTAP	30	48	6
NMTAP	30	72	4
NMTAP	30	96	6
NMTAP	30	120	4
NMTAP	30	144	5
NMTAP	30	192	1
NMTAP	30	216	3
NMTAP	30	240	1
NMTAP	30	264	3
NMTAP	30	288	2
BRTAP	30	336	3
BRTAP	30	336	5
BRTAP	31	48	2
BRSTR	31	48	7
NMSI_	31	48	7	96	48	4
BRTAP	31	144	0
BRTAP	31	144	7
NMTAP	31	288	1
NMTAP	31	312	2
NMTAP	31	336	3
NMHLD	31	336	6	288
NMTTP	32	48	5	D	0	M1
NMTTP	32	96	6	D	0	M1
NMTTP	32	144	7	D	0	M1
NMTTP	32	192	0	D	0	M1
NMTTP	32	240	1	D	0	M1
NMHLD	32	336	1	288
NMTAP	32	336	5
NMTTP	33	48	3	D	0	M1
NMTTP	33	96	2	D	0	M1
NMTTP	33	144	1	D	0	M1
NMTTP	33	192	0	D	0	M1
NMTTP	33	240	7	D	0	M1
NMTAP	33	336	1
NMTAP	33	336	5
NMTAP	34	48	5
NMTAP	34	72	7
NMTAP	34	96	5
NMTAP	34	120	7
NMTAP	34	144	6
NMTAP	34	192	2
NMTAP	34	216	0
NMTAP	34	240	2
NMTAP	34	264	0
NMTAP	34	288	1
BRTAP	34	336	3
BRTAP	34	336	7
BRTAP	35	48	2
BRSTR	35	48	6
NMSI_	35	48	6	96	48	2
BRTAP	35	144	4
BRTAP	35	144	6
EXSTR	35	336	3
NMSCL	35	336	3	96	384	6
EXSTR	36	336	6
NMSCL	36	336	6	96	384	1
EXSTR	37	336	1
NMSCL	37	336	1	96	240	6
EXTAP	38	336	5
EXTAP	39	48	4
EXTAP	39	48	6
BXTAP	39	96	3
BXTAP	39	96	7
NMTAP	39	192	3
NMTAP	39	192	7
NMTAP	39	240	2
NMTAP	39	240	6
NMTAP	39	288	1
NMTAP	39	288	5
NMHLD	39	336	0	240
NMTAP	39	336	4
NMTAP	40	48	4
NMTAP	40	96	4
NMTAP	40	144	3
NMTAP	40	192	3
NMSTR	40	240	0
NMSI_	40	240	0	96	48	4
NMTAP	40	240	2
NMTAP	40	288	2
NMTTP	40	336	0	B	1	M1
NMTAP	41	192	4
NMTAP	41	192	5
NMTAP	41	288	6
NMTAP	41	288	7
NMSTR	41	336	7
NMSCR	41	336	7	96	168	4
NMTAP	42	48	4
NMTAP	42	96	5
NMTAP	42	144	5
NMTAP	42	192	6
NMTAP	42	240	6
NMTAP	42	288	7
NMTAP	42	336	7
BRSTR	43	0	0
NMSV_	43	0	0	96	72	6
BRSTR	43	0	4
NMSV_	43	0	4	96	72	2
CNSCL	43	168	2	0	72	1
CNSCR	43	168	6	0	72	7
BRTAP	43	336	0
BRTAP	43	336	1
NMTAP	44	48	1
NMTAP	44	72	3
NMSTR	44	96	0
NMSUL	44	96	0	96	48	4
NMTAP	44	144	6
EXTAP	44	192	0
EXTAP	44	192	2
NMTAP	44	288	3
NMTAP	44	336	2
NMTAP	44	336	4
NMTAP	45	48	2
NMHLD	45	48	3	96
NMTAP	45	96	1
NMTAP	45	144	0
NMTAP	45	192	4
NMTAP	45	192	7
NMSTR	45	240	5
NMSI_	45	240	5	96	48	0
NMTAP	45	288	7
BRTAP	45	336	1
BXTAP	45	336	5
NMTAP	46	48	1
NMTAP	46	72	2
NMHLD	46	96	3	96
NMTAP	46	192	1
NMSTR	46	240	1
NMSCL	46	240	1	96	96	5
NMSTR	46	336	5
NMSCR	46	336	5	96	96	1
NMTAP	47	48	4
NMTAP	47	96	4
NMTAP	47	192	3
NMSTR	47	240	3
NMSI_	47	240	3	96	48	5
NMTAP	47	336	3
NMTAP	47	336	6
NMTAP	48	96	7
NMTAP	48	144	4
NMSTR	48	144	7
NMSI_	48	144	7	96	48	4
NMSTR	48	240	3
NMSI_	48	240	3	96	48	0
NMTAP	48	240	7
NMSTR	48	336	3
NMSI_	48	336	3	96	48	6
NMSTR	49	48	3
NMSCL	49	48	3	96	48	1
NMTAP	49	144	3
NMSTR	49	240	0
NMSI_	49	240	0	96	48	4
NMSTR	49	240	5
NMSI_	49	240	5	96	48	7
BXTAP	49	336	0
BXTAP	49	336	5
NMTAP	50	48	6
NMTAP	50	96	3
NMTAP	50	144	3
NMSTR	50	240	1
NMSLR	50	240	1	96	96	5
NMTAP	50	288	5
BRTAP	50	336	1
BRTAP	50	336	7
NMTAP	51	144	6
NMTAP	51	192	0
NMTAP	51	192	7
NMTAP	51	240	1
NMTAP	51	288	2
NMTAP	51	288	3
NMTAP	51	336	4
NMTAP	51	336	5
NMTAP	52	48	6
NMTAP	52	72	4
NMSTR	52	96	7
NMSUR	52	96	7	96	48	3
NMTAP	52	144	1
EXTAP	52	192	5
EXTAP	52	192	7
NMTAP	52	288	4
BRTAP	52	336	3
BRTAP	52	336	5
NMHLD	53	48	4	96
NMTAP	53	48	5
NMTAP	53	96	6
NMTAP	53	144	7
NMTAP	53	192	0
NMTAP	53	192	3
NMSTR	53	240	2
NMSI_	53	240	2	96	48	7
NMTAP	53	288	0
BXTAP	53	336	2
BRTAP	53	336	7
NMTAP	54	48	6
NMTAP	54	72	5
NMHLD	54	96	4	96
NMTAP	54	192	6
NMSTR	54	240	6
NMSCR	54	240	6	96	96	2
NMSTR	54	336	2
NMSCL	54	336	2	96	96	6
NMTAP	55	48	3
NMTAP	55	96	3
NMTAP	55	192	5
NMSTR	55	240	5
NMSI_	55	240	5	96	48	1
NMTAP	55	336	3
NMTAP	55	336	5
NMTAP	56	96	2
NMTAP	56	144	2
NMTAP	56	144	3
NMTAP	56	240	1
NMTAP	56	240	4
NMSTR	56	336	2
NMSI_	56	336	2	96	48	5
NMTAP	57	48	2
NMSTR	57	48	6
NMSUR	57	48	6	96	48	2
NMSTR	57	144	3
NMSI_	57	144	3	96	48	0
NMTAP	57	144	6
NMTAP	57	240	3
NMTAP	57	240	4
BRTAP	57	336	5
NMSTR	58	48	6
NMSI_	58	48	6	96	48	2
NMSTR	58	48	7
NMSI_	58	48	7	96	48	3
NMTAP	58	96	0
NMTAP	58	96	5
BRTAP	58	144	6
BRTAP	58	144	7
NMSTR	58	240	0
NMSI_	58	240	0	96	48	4
NMSTR	58	240	1
NMSI_	58	240	1	96	48	5
NMTAP	58	288	2
NMTAP	58	288	7
BRTAP	58	336	0
BRTAP	58	336	1
BRTAP	59	48	3
BRTAP	59	48	6
NMTAP	59	144	5
NMTAP	59	192	4
NMSTR	59	240	2
NMSCR	59	240	2	96	96	6
NMTAP	59	240	3
NMTAP	59	288	1
BRTAP	59	336	0
NMTTP	59	336	2	A	1	M1
NMTAP	60	144	2
NMTAP	60	192	3
NMTAP	60	240	4
NMSTR	60	240	5
NMSCL	60	240	5	96	96	1
NMTAP	60	288	6
NMTTP	60	336	5	A	1	M1
BRTAP	60	336	7
NMTAP	61	144	5
NMTAP	61	192	4
NMSTR	61	240	2
NMSCR	61	240	2	96	96	6
NMTAP	61	240	3
NMTAP	61	288	1
BRTAP	61	336	0
NMTTP	61	336	2	A	1	M1
NMTAP	62	144	2
NMTAP	62	192	3
NMTAP	62	240	4
NMSTR	62	240	5
NMSCL	62	240	5	96	96	1
NMTAP	62	288	6
NMTTP	62	336	5	A	1	M1
BRTAP	62	336	7
NMTAP	63	144	5
NMTAP	63	192	4
NMSTR	63	240	1
NMSCR	63	240	1	96	96	5
NMTAP	63	240	3
NMTAP	63	288	0
BRTAP	63	336	0
NMTTP	63	336	1	A	1	M1
NMTAP	64	144	2
NMTAP	64	192	3
NMTAP	64	240	4
NMSTR	64	240	6
NMSCL	64	240	6	96	96	2
NMTAP	64	288	7
NMTTP	64	336	6	A	1	M1
BRTAP	64	336	7
NMTAP	65	144	6
NMTAP	65	192	3
NMTAP	65	192	5
NMTAP	65	240	2
NMTAP	65	240	4
NMTAP	65	288	1
NMTAP	65	288	3
BRTAP	65	336	0
BRTAP	65	336	2
NMTAP	66	48	0
NMTAP	66	72	7
NMTAP	66	96	0
NMTAP	66	144	6
NMTAP	66	168	7
NMTAP	66	192	6
NMTAP	66	240	2
NMTAP	66	240	3
NMTAP	66	288	2
NMTAP	66	288	3
BRTAP	66	336	1
BRTAP	66	336	4
NMTHO	67	144	0	144	C	1	M1
NMTAP	68	0	0
NMHLD	68	48	0	96
NMTAP	68	96	6
NMTAP	68	144	6
NMTTP	68	240	6	E	0	M1
NMTTP	68	288	0	E	0	M1
NMHLD	68	336	5	96
NMTAP	69	48	7
NMTAP	69	96	7
NMSTR	69	144	0
NMSV_	69	144	0	96	48	2
NMHLD	69	144	6	96
CNSCR	69	288	2	0	48	3
NMTAP	70	0	7
NMHLD	70	48	7	96
NMTAP	70	96	1
NMTAP	70	144	1
NMTTP	70	240	2	E	0	M1
NMTTP	70	288	0	E	0	M1
NMHLD	70	336	2	96
NMTAP	71	48	0
NMTAP	71	96	0
NMTAP	71	144	1
NMTAP	71	168	7
NMTAP	71	192	1
EXTAP	71	240	2
EXTAP	71	240	6
EXTAP	71	288	2
EXTAP	71	288	6
NMTAP	72	0	5
NMHLD	72	48	5	96
NMTAP	72	96	3
NMTAP	72	144	3
NMTTP	72	240	5	E	0	M1
NMTTP	72	288	2	E	0	M1
NMHLD	72	336	2	96
NMTAP	73	48	3
NMTAP	73	96	3
NMSTR	73	144	1
NMSCR	73	144	1	96	48	3
NMTAP	73	144	4
CNSV_	73	288	3	0	48	5
BRTAP	74	0	6
NMTTP	74	96	6	E	0	M1
NMTTP	74	144	6	B	0	M1
NMTTP	74	192	7	B	0	M1
NMTTP	74	240	0	B	0	M1
NMTTP	74	288	1	B	0	M1
NMTTP	74	336	2	E	0	M1
EXHLD	75	0	5	0
EXHLD	75	48	4	0
EXHLD	75	96	3	0
EXHLD	75	144	2	0
EXHLD	75	192	1	0
EXHLD	75	240	0	0
EXHLD	75	288	0	0
EXHLD	75	288	7	0
EXHLD	76	0	0	48
EXTAP	76	0	1
NMTAP	76	16	2
NMTAP	76	32	3
NMTAP	76	48	4
EXTAP	76	144	0
EXHLD	76	144	1	48
NMTAP	76	160	7
NMTAP	76	176	6
NMTAP	76	192	5
EXTAP	76	288	6
EXHLD	76	288	7	48
NMTAP	76	304	5
NMTAP	76	320	4
NMTAP	76	336	3
EXHLD	77	48	6	48
EXTAP	77	48	7
NMTAP	77	64	0
NMTAP	77	80	1
NMSTR	77	96	2
NMSV_	77	96	2	96	48	5
NMTAP	77	288	6
BRTAP	78	0	7
EXTAP	78	16	0
EXTAP	78	16	6
EXTAP	78	32	1
EXTAP	78	32	5
EXTAP	78	48	2
EXTAP	78	48	4
BRTAP	78	144	0
EXTAP	78	160	1
EXTAP	78	160	7
EXTAP	78	176	2
EXTAP	78	176	6
EXTAP	78	192	3
EXTAP	78	192	5
BRTAP	78	288	1
BRTAP	78	288	5
BRHLD	78	336	1	2160
BRHLD	78	336	5	2160
NMHLD	84	336	2	288
NMHLD	84	336	4	288
NMHLD	85	336	1	96
NMHLD	85	336	3	96
NMHLD	86	144	2	96
NMHLD	86	144	4	96
NMTAP	86	336	3
NMTAP	86	336	5
NMTAP	87	48	3
NMTAP	87	48	5
NMTAP	87	144	2
NMTAP	87	144	4
NMTAP	87	240	2
NMTAP	87	240	4
NMSTR	87	336	1
NMSCL	87	336	1	96	144	6
NMSTR	87	336	5
NMSCL	87	336	5	96	144	2
NMTTP	88	288	7	E	0	M1
NMTTP	89	0	2	B	0	M1
NMTTP	89	0	3	B	0	M1
NMTTP	89	0	3	E	0	M1
NMTAP	89	144	6
NMTAP	89	192	7
NMTAP	89	240	0
NMSTR	89	240	1
NMSCL	89	240	1	96	96	5
NMTAP	89	288	2
NMTTP	89	336	1	A	1	M1
BRTAP	89	336	3
NMTAP	90	144	1
NMTAP	90	192	0
NMSTR	90	240	6
NMSCR	90	240	6	96	96	2
NMTAP	90	240	7
NMTAP	90	288	5
BRTAP	90	336	4
NMTTP	90	336	6	A	1	M1
NMTAP	91	144	6
NMTAP	91	192	7
NMTAP	91	240	0
NMSTR	91	240	1
NMSCL	91	240	1	96	96	5
NMTAP	91	288	2
NMTTP	91	336	1	A	1	M1
BRTAP	91	336	3
NMTAP	92	144	1
NMTAP	92	192	0
NMSTR	92	240	6
NMSCR	92	240	6	96	96	2
NMTAP	92	240	7
NMTAP	92	288	5
BRTAP	92	336	4
NMTTP	92	336	6	A	1	M1
NMTAP	93	144	6
NMTAP	93	192	7
NMTAP	93	240	0
NMSTR	93	240	2
NMSCL	93	240	2	96	96	6
NMTAP	93	288	3
NMTTP	93	336	2	A	1	M1
BRTAP	93	336	3
NMTAP	94	144	1
NMTAP	94	192	0
NMSTR	94	240	5
NMSCR	94	240	5	96	96	1
NMTAP	94	240	7
NMTAP	94	288	4
BRTAP	94	336	4
NMTTP	94	336	5	A	1	M1
NMTAP	95	144	5
NMTAP	95	192	0
NMTAP	95	192	6
NMTAP	95	240	1
NMTAP	95	240	7
NMTAP	95	288	0
NMTAP	95	288	2
BRTAP	95	336	1
BRTAP	95	336	3
NMTAP	96	48	3
NMTAP	96	72	4
NMTAP	96	96	1
NMTAP	96	144	5
NMTAP	96	168	4
NMTAP	96	192	7
NMSTR	96	240	1
NMSI_	96	240	1	96	48	4
NMSTR	96	240	5
NMSI_	96	240	5	96	48	0
NMTAP	96	288	0
NMTAP	96	288	4
BRTAP	96	336	1
BRTAP	96	336	5
NMSTR	97	336	5
NMSCR	97	336	5	96	48	7
NMTAP	98	48	2
NMTAP	98	96	3
NMHLD	98	144	4	96
NMTAP	98	240	7
NMTAP	98	288	0
NMSTR	98	336	1
NMSCL	98	336	1	96	48	7
NMTAP	99	48	3
NMTAP	99	96	2
NMHLD	99	144	0	96
NMTAP	99	240	3
NMTAP	99	288	4
NMSTR	99	336	6
NMSI_	99	336	6	96	48	3
NMTAP	100	48	7
NMTAP	100	96	7
NMSTR	100	144	1
NMSI_	100	144	1	96	48	4
NMTAP	100	240	0
NMTAP	100	288	0
NMTAP	100	336	5
NMTAP	101	48	6
NMTAP	101	72	7
NMTAP	101	96	5
NMTAP	101	144	1
NMTAP	101	168	0
NMTAP	101	192	2
NMTAP	101	240	3
NMTAP	101	288	4
NMTAP	101	288	5
NMTAP	101	336	3
NMTAP	101	336	6
NMTAP	102	48	1
NMTAP	102	96	2
NMTAP	102	96	3
NMTAP	102	144	6
NMTAP	102	192	4
NMTAP	102	192	5
NMTAP	102	240	1
NMTAP	102	288	2
NMTAP	102	288	3
NMTAP	102	336	7
NMTAP	103	0	4
NMTAP	103	0	5
NMTAP	103	48	0
NMTAP	103	96	2
NMTAP	103	96	3
NMTAP	103	144	7
NMTAP	103	192	4
NMTAP	103	192	6
NMTAP	103	240	0
NMTAP	103	288	1
NMTAP	103	288	3
NMTAP	103	336	3
NMTAP	103	336	4
NMTAP	104	0	5
NMTAP	104	24	4
NMTAP	104	48	6
NMTAP	104	96	2
NMTAP	104	120	3
NMTAP	104	144	1
NMTAP	104	192	6
NMTAP	104	216	4
NMTAP	104	240	7
NMTAP	104	288	1
NMTAP	104	312	3
NMTAP	104	336	0
BRTAP	105	0	1
BRTAP	105	0	6
NMTTP	105	96	7	D	0	M1
NMTTP	105	192	7	A	0	M1
NMTTP	105	288	0	D	0	M1
NMTTP	106	0	0	A	0	M1
NMTTP	106	96	1	D	0	M1
NMTAP	106	192	2
NMTAP	106	192	5
NMTAP	106	240	2
NMTAP	106	240	5
BRTAP	106	336	3
BRSTR	106	336	4
NMSI_	106	336	4	96	48	0
NMSI_	106	336	4	96	48	7
NMTTP	107	96	0	A	0	M1
NMTTP	107	96	0	D	1	M1
NMTTP	107	96	7	A	0	M1

T_REC_TAP	409
T_REC_BRK	59
T_REC_XTP	33
T_REC_BXX	8
T_REC_HLD	47
T_REC_XHO	20
T_REC_BHO	2
T_REC_BXH	0
T_REC_STR	61
T_REC_BST	5
T_REC_XST	3
T_REC_XBS	0
T_REC_TTP	69
T_REC_THO	1
T_REC_SLD	70
T_REC_BSL	0
T_REC_ALL	787
T_NUM_TAP	575
T_NUM_BRK	74
T_NUM_HLD	68
T_NUM_SLD	70
T_NUM_ALL	787
T_JUDGE_TAP	647
T_JUDGE_HLD	235
T_JUDGE_SLD	70
T_JUDGE_ALL	952
TTM_EACHPAIRS	154
TTM_SCR_TAP	287500
TTM_SCR_BRK	192400
TTM_SCR_HLD	68000
TTM_SCR_SLD	105000
TTM_SCR_ALL	652900
TTM_SCR_S	626150
TTM_SCR_SS	645500
TTM_RAT_ACV	10114

