VERSION	0.00.00	1.03.00
FES_MODE	0
BPM_DEF	180.000	180.000	180.000	180.000
MET_DEF	4	4
RESOLUTION	384
CLK_DEF	384
COMPATIBLE_CODE	MA2

BPM	0	0	180.000
MET	0	0	4	4

TAP	2	0	5
TAP	2	48	5
TAP	2	96	3
TAP	2	144	3
TTP	2	240	7	E	0	M1
TTP	2	288	0	B	0	M1
XHO	2	336	5	48
XTP	3	48	5
TAP	3	96	3
TAP	3	144	3
TTP	3	240	7	E	0	M1
TTP	3	288	0	B	0	M1
TAP	4	0	3
TAP	4	48	3
TAP	4	96	5
TAP	4	144	5
TTP	4	240	1	E	0	M1
TTP	4	288	7	B	0	M1
XHO	4	336	3	48
XTP	5	48	3
TAP	5	96	5
TAP	5	144	5
TTP	5	240	1	E	0	M1
TTP	5	288	7	B	0	M1
TAP	6	0	4
TAP	6	0	5
TAP	6	48	5
TAP	6	96	3
TAP	6	144	3
TAP	6	192	3
TAP	6	192	4
TTP	6	240	6	B	0	M1
TTP	6	288	1	B	0	M1
XTP	6	336	4
XHO	6	336	5	48
XTP	7	48	5
TAP	7	96	3
TAP	7	144	3
TAP	7	192	3
TAP	7	192	4
TTP	7	240	6	B	0	M1
TTP	7	288	1	B	0	M1
BRK	8	0	0
BST	8	0	7
SCR	8	0	7	96	480	7
XTP	10	0	0
XTP	10	0	7
XTP	10	12	6
XTP	10	24	5
XTP	10	36	4
XTP	10	144	0
XTP	10	144	7
XTP	10	156	1
XTP	10	168	2
XTP	10	180	3
BRK	10	288	1
BRK	10	288	6
BRK	10	336	1
BRK	10	336	6
HLD	12	0	2	336
HLD	12	336	1	144
HLD	13	96	0	144
TAP	13	240	3
HLD	13	336	1	96
HLD	13	336	4	96
TAP	14	144	2
TAP	14	144	5
TAP	14	240	3
TAP	14	240	6
HLD	14	336	4	96
HLD	14	336	7	192
TAP	15	144	1
TAP	15	240	2
TAP	15	240	6
XTP	16	0	6
XTP	16	12	5
XHO	16	24	4	264
XTP	16	192	1
XTP	16	204	2
XHO	16	216	3	72
TAP	17	0	4
TAP	17	0	5
TAP	17	96	2
TAP	17	96	3
TAP	18	0	0
TAP	18	0	7
TAP	18	48	1
TAP	18	48	6
TAP	18	96	2
TAP	18	96	5
BRK	18	144	3
BRK	18	144	4
BRK	18	240	0
BRK	18	240	7
BRK	18	336	2
BRK	18	336	5
TAP	19	144	4
TAP	19	192	4
STR	19	240	1
SCL	19	240	1	96	144	4
TAP	19	288	1
TAP	19	336	7
TAP	20	144	6
TAP	20	192	6
TAP	20	240	0
TAP	20	288	0
HLD	20	336	7	96
TAP	21	48	5
TAP	21	96	5
TAP	21	192	3
TAP	21	192	4
STR	21	240	2
SI_	21	240	2	96	48	7
TAP	21	288	2
TAP	21	336	3
STR	22	48	3
SI_	22	48	3	96	48	6
TAP	22	96	3
TAP	22	144	2
STR	22	240	2
SI_	22	240	2	96	48	7
TAP	22	288	2
HLD	22	336	3	144
XHO	23	96	4	96
XHO	23	192	5	96
XHO	23	288	6	96
STR	24	0	7
SI_	24	0	7	96	48	4
TAP	24	96	0
STR	24	192	7
SI_	24	192	7	96	48	2
TAP	24	288	6
XTP	25	0	3
XTP	25	0	4
XTP	25	96	0
XTP	25	96	7
TTP	25	192	0	C	1	M1
TTP	25	192	1	B	0	M1
TTP	25	192	2	B	0	M1
TTP	25	192	5	B	0	M1
TTP	25	192	6	B	0	M1
STR	26	0	0
SI_	26	0	0	96	48	3
TAP	26	96	7
STR	26	192	0
SI_	26	192	0	96	48	5
TAP	26	288	1
TAP	27	0	2
TAP	27	48	1
TAP	27	48	3
TAP	27	96	5
TAP	27	144	4
TAP	27	144	6
BRK	27	192	0
BRK	27	192	7
TTP	27	336	5	E	0	M1
TTP	27	336	6	E	0	M1
TTP	27	336	7	E	0	M1
TTP	28	48	0	B	0	M1
TTP	28	96	3	B	0	M1
TTP	28	144	1	E	0	M1
TTP	28	192	3	E	0	M1
TTP	28	240	2	E	0	M1
TTP	28	336	4	B	0	M1
TTP	28	336	6	E	0	M1
TTP	28	336	7	B	0	M1
TTP	29	48	0	B	0	M1
TTP	29	96	3	B	0	M1
TTP	29	144	1	E	0	M1
TTP	29	192	3	E	0	M1
TTP	29	240	2	E	0	M1
TTP	29	336	0	C	1	M1
TTP	29	336	2	B	0	M1
TTP	29	336	4	E	0	M1
TTP	29	336	5	B	0	M1
TAP	30	48	6
TAP	30	72	7
TAP	30	96	6
TAP	30	120	7
TAP	30	144	6
TAP	30	192	1
TAP	30	216	0
TAP	30	240	1
TAP	30	264	0
TAP	30	288	1
XTP	30	336	2
XTP	30	336	3
XTP	31	48	4
XTP	31	48	5
BRK	31	144	1
BRK	31	144	6
TTP	31	336	1	E	0	M1
TTP	31	336	2	E	0	M1
TTP	31	336	3	E	0	M1
TTP	32	48	7	B	0	M1
TTP	32	96	4	B	0	M1
TTP	32	144	7	E	0	M1
TTP	32	192	5	E	0	M1
TTP	32	240	6	E	0	M1
TTP	32	336	0	B	0	M1
TTP	32	336	2	E	0	M1
TTP	32	336	3	B	0	M1
TTP	33	48	7	B	0	M1
TTP	33	96	4	B	0	M1
TTP	33	144	7	E	0	M1
TTP	33	192	5	E	0	M1
TTP	33	240	6	E	0	M1
TTP	33	336	0	C	1	M1
TTP	33	336	2	B	0	M1
TTP	33	336	4	E	0	M1
TTP	33	336	5	B	0	M1
TAP	34	48	1
TAP	34	72	0
TAP	34	96	1
TAP	34	120	0
TAP	34	144	1
TAP	34	192	6
TAP	34	216	7
TAP	34	240	6
TAP	34	264	7
TAP	34	288	6
XTP	34	336	4
XTP	34	336	5
XTP	35	48	2
XTP	35	48	3
BRK	35	144	1
BRK	35	144	6
STR	35	336	7
SCR	35	336	7	96	912	7
TTP	36	192	1	B	0	M1
TTP	36	204	0	C	0	M1
TTP	37	192	3	B	0	M1
TTP	37	204	0	C	0	M1
TTP	38	192	5	B	0	M1
TTP	38	204	0	C	0	M1
HLD	38	336	7	144
TAP	39	48	0
TAP	39	96	0
TAP	39	336	3
TAP	39	336	4
TAP	40	48	2
TAP	40	48	5
TAP	40	96	2
TAP	40	96	5
TAP	40	144	2
TAP	40	144	5
TAP	40	192	1
TAP	40	192	6
TAP	40	240	1
TAP	40	240	6
TAP	40	288	1
TAP	40	288	6
STR	40	336	1
SSL	40	336	1	96	144	5
TAP	40	336	6
TAP	41	336	1
TAP	41	336	6
TAP	42	48	3
TAP	42	48	4
TAP	42	96	3
TAP	42	96	4
TAP	42	192	1
TAP	42	192	3
TAP	42	240	2
TAP	42	288	4
TAP	42	288	6
TAP	42	336	5
BST	43	0	0
SI_	43	0	0	96	96	4
SV_	43	0	0	96	96	3
BRK	43	0	7
TAP	43	336	0
TAP	43	336	7
TAP	44	48	2
TAP	44	72	3
STR	44	96	0
SUL	44	96	0	96	48	3
TAP	44	144	1
TAP	44	192	2
TAP	44	288	0
BRK	44	336	0
BRK	44	336	3
TAP	45	48	1
STR	45	96	1
SI_	45	96	1	96	48	4
TAP	45	192	0
TAP	45	240	0
TAP	45	336	3
TAP	45	336	6
TAP	46	48	5
TAP	46	72	4
STR	46	96	7
SCR	46	96	7	96	72	4
TAP	46	144	6
HLD	46	192	5	96
BRK	46	336	4
BRK	46	336	7
TAP	47	48	6
STR	47	96	6
SI_	47	96	6	96	48	2
TAP	47	192	1
TAP	47	240	1
HLD	47	336	0	96
TAP	47	336	3
TAP	48	48	3
TAP	48	96	4
TAP	48	144	5
TAP	48	144	7
TAP	48	240	0
TAP	48	240	2
XTP	48	336	3
XTP	48	336	4
XTP	49	48	0
XTP	49	48	7
BRK	49	144	1
BRK	49	144	2
BRK	49	240	5
BRK	49	240	6
TAP	49	336	4
STR	49	336	7
SCR	49	336	7	96	48	3
TAP	50	48	6
STR	50	144	0
SCL	50	144	0	96	48	4
TAP	50	240	1
BRK	50	336	0
BRK	50	336	2
BRK	51	48	5
BRK	51	48	7
TTP	51	144	6	E	0	M1
TTP	51	192	2	E	0	M1
TTP	51	240	0	C	0	M1
TAP	51	336	0
TAP	51	336	7
TAP	52	48	5
TAP	52	72	4
STR	52	96	7
SUR	52	96	7	96	48	4
TAP	52	144	6
TAP	52	192	5
TAP	52	288	7
BRK	52	336	4
BRK	52	336	7
TAP	53	48	6
STR	53	96	6
SI_	53	96	6	96	48	3
TAP	53	192	7
TAP	53	240	7
TAP	53	336	1
TAP	53	336	4
TAP	54	48	2
TAP	54	72	3
STR	54	96	0
SCL	54	96	0	96	72	3
TAP	54	144	1
HLD	54	192	2	96
BRK	54	336	0
BRK	54	336	3
TAP	55	48	1
STR	55	96	1
SI_	55	96	1	96	48	5
TAP	55	192	6
TAP	55	240	6
TAP	55	336	4
HLD	55	336	7	96
TAP	56	48	4
TAP	56	96	3
TAP	56	144	0
TAP	56	144	2
STR	56	240	5
SI_	56	240	5	96	48	1
TAP	56	240	7
STR	56	336	0
SI_	56	336	0	96	48	4
XTP	56	336	5
XTP	57	48	0
STR	57	48	6
SI_	57	48	6	96	48	2
STR	57	144	1
SI_	57	144	1	96	48	5
XTP	57	144	6
XTP	57	240	1
XTP	57	240	7
STR	57	336	0
SCL	57	336	0	96	48	4
TAP	58	48	1
STR	58	144	7
SCR	58	144	7	96	48	3
TAP	58	240	6
BRK	58	336	5
BRK	58	336	7
BRK	59	48	0
BRK	59	48	2
TAP	59	144	4
TAP	59	192	4
STR	59	240	0
SUL	59	240	0	96	192	1
TAP	59	288	0
TTP	59	336	0	C	1	M1
TAP	60	144	5
TAP	60	192	5
STR	60	240	1
SUR	60	240	1	96	192	2
TAP	60	288	1
TTP	60	336	0	C	1	M1
TAP	61	144	6
TAP	61	192	6
STR	61	240	2
SUR	61	240	2	96	192	3
TAP	61	288	2
TTP	61	336	0	C	1	M1
TAP	62	144	7
TAP	62	192	7
STR	62	240	3
SUR	62	240	3	96	192	4
TAP	62	288	3
TTP	62	336	0	C	1	M1
TAP	63	144	0
TAP	63	192	0
STR	63	240	4
SUR	63	240	4	96	192	5
TAP	63	288	4
TTP	63	336	0	C	1	M1
TAP	64	144	7
TAP	64	192	7
STR	64	240	5
SUR	64	240	5	96	192	6
TAP	64	288	5
TTP	64	336	0	C	1	M1
TAP	65	144	7
TAP	65	192	7
TAP	65	288	1
TAP	65	288	6
TAP	65	336	1
TAP	65	336	6
TAP	66	48	5
TAP	66	72	4
TAP	66	96	5
TAP	66	144	2
TAP	66	168	3
TAP	66	192	2
TAP	66	240	0
TAP	66	240	7
TAP	66	288	0
TAP	66	288	7
BRK	66	336	2
BRK	66	336	5
TAP	68	0	1
TAP	68	48	1
TAP	68	96	7
TAP	68	144	7
TTP	68	240	3	E	0	M1
TTP	68	288	0	C	0	M1
XHO	68	336	1	48
XTP	69	48	1
TAP	69	96	7
TAP	69	144	7
TTP	69	240	7	B	0	M1
TTP	69	264	6	B	0	M1
TTP	69	288	5	B	0	M1
TTP	69	312	4	B	0	M1
TTP	69	336	3	B	0	M1
TAP	70	0	1
TAP	70	48	1
TAP	70	96	7
TAP	70	144	7
TTP	70	240	3	E	0	M1
TTP	70	288	0	C	0	M1
XHO	70	336	1	48
XTP	71	48	1
TAP	71	96	7
TAP	71	144	7
TTP	71	240	0	B	0	M1
TTP	71	264	1	B	0	M1
TTP	71	288	2	B	0	M1
TTP	71	312	3	B	0	M1
TTP	71	336	4	B	0	M1
TAP	72	0	6
TAP	72	48	6
TAP	72	96	0
TAP	72	144	0
TTP	72	240	5	E	0	M1
TTP	72	288	0	C	0	M1
XHO	72	336	6	48
XTP	73	48	6
TAP	73	96	0
TAP	73	144	0
TTP	73	240	0	B	0	M1
TTP	73	264	1	B	0	M1
TTP	73	288	2	B	0	M1
TTP	73	312	3	B	0	M1
TTP	73	336	4	B	0	M1
BRK	74	0	0
BST	74	0	7
SCR	74	0	7	96	480	7
XTP	76	0	6
XTP	76	0	7
XTP	76	12	5
XTP	76	24	4
XTP	76	36	3
XTP	76	144	6
XTP	76	144	7
XTP	76	156	0
XTP	76	168	1
XTP	76	180	2
XTP	76	288	0
XTP	76	288	1
XTP	76	300	7
XTP	76	312	6
XTP	76	324	5
XTP	77	48	0
XTP	77	48	1
XTP	77	60	2
XTP	77	72	3
XTP	77	84	4
XTP	77	192	7
XTP	77	224	0
XTP	77	256	6
XTP	77	288	1
XTP	78	0	3
XTP	78	0	4
XTP	78	12	5
XTP	78	24	6
XTP	78	36	7
XTP	78	144	3
XTP	78	144	4
XTP	78	156	2
XTP	78	168	1
XTP	78	180	0
BRK	78	288	0
BRK	78	288	7
BST	78	336	0
SSL	78	336	0	96	144	4
BRK	78	336	7
HLD	80	336	5	384
HLD	81	336	4	384
HLD	82	336	3	384
TAP	83	336	2
TTP	84	336	6	E	0	M1
TTP	85	144	2	E	0	M1
TTP	85	336	3	E	0	M1
TTP	85	336	5	E	0	M1
TTP	86	48	2	B	0	M1
TTP	86	48	5	B	0	M1
TTP	86	144	1	B	0	M1
TTP	86	144	6	B	0	M1
TTP	86	240	1	E	0	M1
TTP	86	240	7	E	0	M1
THO	86	336	0	384	C	0	M1
XTP	88	288	7
XTP	89	0	0
TAP	89	144	3
TAP	89	192	3
STR	89	240	7
SUR	89	240	7	96	192	6
TAP	89	288	7
TTP	89	336	0	C	1	M1
TAP	90	144	2
TAP	90	192	2
STR	90	240	6
SUL	90	240	6	96	192	5
TAP	90	288	6
TTP	90	336	0	C	1	M1
TAP	91	144	1
TAP	91	192	1
STR	91	240	5
SUL	91	240	5	96	192	4
TAP	91	288	5
TTP	91	336	0	C	1	M1
TAP	92	144	0
TAP	92	192	0
STR	92	240	4
SUL	92	240	4	96	192	3
TAP	92	288	4
TTP	92	336	0	C	1	M1
TAP	93	144	7
TAP	93	192	7
STR	93	240	3
SUL	93	240	3	96	192	2
TAP	93	288	3
TTP	93	336	0	C	1	M1
TAP	94	144	0
TAP	94	192	0
STR	94	240	2
SUL	94	240	2	96	192	1
TAP	94	288	2
TTP	94	336	0	C	1	M1
TAP	95	144	0
TAP	95	192	0
TAP	95	288	1
TAP	95	288	6
TAP	95	336	1
TAP	95	336	6
TAP	96	48	2
TAP	96	72	3
TAP	96	96	1
TAP	96	144	5
TAP	96	168	4
TAP	96	192	6
TAP	96	240	3
TAP	96	240	4
TAP	96	288	2
TAP	96	288	5
BRK	96	336	1
BRK	96	336	6
TAP	97	336	4
STR	97	336	6
SCR	97	336	6	96	48	1
TAP	98	48	4
TAP	98	96	3
STR	98	144	2
SCR	98	144	2	96	48	5
TAP	98	240	0
TAP	98	288	7
STR	98	336	6
SCR	98	336	6	96	48	1
TAP	99	48	4
TAP	99	96	3
TAP	99	144	2
XTP	99	240	1
XTP	99	240	6
XTP	99	288	1
XTP	99	288	6
STR	99	336	0
SCR	99	336	0	96	48	3
TAP	100	48	4
TAP	100	96	5
STR	100	144	6
SCR	100	144	6	96	48	1
TAP	100	240	2
TAP	100	288	3
HLD	100	336	4	96
XTP	101	48	0
XTP	101	72	7
XTP	101	96	6
XTP	101	144	0
XTP	101	168	1
XTP	101	192	2
TAP	101	240	0
TAP	101	288	1
TAP	101	288	7
TAP	101	336	2
TAP	101	336	6
TAP	102	0	3
TAP	102	0	5
TAP	102	48	6
TAP	102	96	3
TAP	102	96	5
TAP	102	144	6
TAP	102	192	0
TAP	102	192	7
TAP	102	240	1
TAP	102	288	0
TAP	102	288	7
TAP	102	336	1
TAP	103	0	2
TAP	103	0	4
TAP	103	48	5
TAP	103	96	2
TAP	103	96	4
TAP	103	144	5
TAP	103	192	0
TAP	103	192	6
TAP	103	240	1
BRK	103	288	0
BRK	103	288	6
TAP	104	0	2
TAP	104	24	3
TAP	104	48	1
TAP	104	96	5
TAP	104	120	4
TAP	104	144	6
TAP	104	192	2
TAP	104	216	3
TAP	104	240	0
TAP	104	288	5
TAP	104	312	4
TAP	104	336	7
TAP	105	0	1
TAP	105	0	6
TTP	105	96	2	E	0	M1
TTP	105	192	6	E	0	M1
TTP	105	288	0	C	0	M1
TTP	106	0	0	E	0	M1
TTP	106	96	4	E	0	M1
BRK	106	240	1
BRK	106	240	6
BRK	106	336	3
BRK	106	336	4
TTP	107	108	0	E	0	M1

T_REC_TAP	310
T_REC_BRK	52
T_REC_XTP	88
T_REC_HLD	18
T_REC_XHO	11
T_REC_STR	43
T_REC_BST	4
T_REC_XST	0
T_REC_TTP	115
T_REC_THO	1
T_REC_SLD	48
T_REC_ALL	690
T_NUM_TAP	556
T_NUM_BRK	56
T_NUM_HLD	30
T_NUM_SLD	48
T_NUM_ALL	690
T_JUDGE_TAP	612
T_JUDGE_HLD	93
T_JUDGE_SLD	48
T_JUDGE_ALL	753
TTM_EACHPAIRS	110
TTM_SCR_TAP	278000
TTM_SCR_BRK	145600
TTM_SCR_HLD	30000
TTM_SCR_SLD	72000
TTM_SCR_ALL	525600
TTM_SCR_S	504400
TTM_SCR_SS	520000
TTM_RAT_ACV	10107

