VERSION	0.00.00	1.03.00
FES_MODE	0
BPM_DEF	180.000	180.000	180.000	180.000
MET_DEF	4	4
RESOLUTION	384
CLK_DEF	384
COMPATIBLE_CODE	MA2

BPM	0	0	180.000
MET	0	0	4	4

TAP	2	0	2
TAP	2	48	2
TAP	2	96	3
HLD	2	144	1	96
TAP	2	240	2
TAP	2	288	2
STR	2	336	3
SI_	2	336	3	96	96	7
TAP	3	240	0
TAP	3	288	0
TAP	4	0	5
TAP	4	48	5
TAP	4	96	4
HLD	4	144	6	96
TAP	4	240	5
TAP	4	288	5
STR	4	336	4
SI_	4	336	4	96	96	0
TAP	5	240	7
TAP	5	288	7
TAP	6	0	2
TAP	6	48	2
TAP	6	96	3
HLD	6	144	1	96
TAP	6	240	2
TAP	6	288	2
STR	6	336	3
SI_	6	336	3	96	96	7
TAP	7	240	0
TAP	7	288	0
XTP	8	0	1
XTP	8	0	6
TTP	9	0	3	B	0	M1
TTP	9	0	4	B	0	M1
TTP	9	96	3	E	0	M1
TTP	9	96	5	E	0	M1
TTP	9	192	2	E	0	M1
TTP	9	192	6	E	0	M1
TTP	9	288	0	C	0	M1
HLD	10	0	0	96
HLD	10	0	7	96
HLD	10	144	1	96
HLD	10	144	6	96
TAP	10	288	2
TAP	10	288	5
TAP	10	336	2
TAP	10	336	5
STR	11	288	2
SCR	11	288	2	96	192	5
STR	13	288	2
SCR	13	288	2	96	192	5
TAP	15	288	2
TAP	16	0	2
TAP	16	96	3
TAP	16	192	4
TAP	16	288	5
TAP	17	0	5
HLD	17	96	4	192
HLD	17	96	5	192
HLD	18	0	6	96
TAP	18	96	4
TAP	18	144	4
TAP	18	144	6
TAP	18	240	3
TAP	18	240	4
HLD	18	336	1	192
TAP	18	336	3
TAP	19	144	7
TAP	19	192	7
TAP	20	0	2
TAP	20	96	1
TAP	20	96	3
TAP	20	192	0
TAP	20	240	0
TAP	20	288	7
HLD	20	336	7	96
TAP	21	48	4
TAP	21	96	4
TAP	21	192	3
TAP	21	192	5
TAP	21	288	2
HLD	21	288	6	192
TAP	22	0	4
HLD	22	96	1	192
STR	22	192	3
SCR	22	192	3	96	288	2
TAP	23	288	1
TAP	23	288	4
TAP	24	0	3
TAP	24	0	6
TAP	24	96	5
TAP	24	144	5
TAP	24	192	4
TAP	24	288	2
TAP	24	288	3
BRK	25	0	0
BRK	25	0	7
BRK	25	96	3
BRK	25	96	4
BRK	25	192	1
BRK	25	192	6
TAP	25	288	5
TAP	25	336	5
TAP	26	0	4
TAP	26	96	2
TAP	26	144	2
TAP	26	192	3
STR	26	288	5
SXL	26	288	5	96	288	3
XHO	27	336	1	240
TAP	28	192	3
TAP	28	240	4
TAP	28	336	3
HLD	28	336	6	240
TAP	29	192	4
TAP	29	240	3
STR	29	336	0
SCR	29	336	0	96	144	3
TAP	30	288	3
TAP	30	288	5
TAP	30	336	3
TAP	30	336	5
TAP	31	48	2
TAP	31	48	4
HLD	31	144	3	96
HLD	31	144	5	96
TAP	31	336	2
HLD	31	336	6	240
TAP	32	192	4
TAP	32	240	3
HLD	32	336	1	240
TAP	32	336	5
TAP	33	192	3
TAP	33	240	4
STR	33	336	7
SCL	33	336	7	96	144	4
TAP	34	288	2
TAP	34	288	4
TAP	34	336	2
TAP	34	336	4
TAP	35	48	3
TAP	35	48	5
HLD	35	144	2	96
HLD	35	144	4	96
HLD	35	336	3	768
STR	35	336	6
SCR	35	336	6	96	192	1
STR	37	336	6
SCR	37	336	6	96	192	1
TAP	39	192	0
STR	39	240	0
SCR	39	240	0	96	96	3
TAP	40	48	7
STR	40	96	7
SCL	40	96	7	96	96	4
TAP	40	288	0
HLD	40	336	0	240
STR	41	192	4
SCR	41	192	4	96	288	3
TTP	41	288	0	C	1	M1
BRK	43	0	2
BRK	43	0	5
TAP	43	288	0
TAP	43	288	1
TAP	43	336	0
HLD	43	336	1	96
TAP	44	48	3
TAP	44	96	3
TAP	44	192	5
TAP	44	240	5
TAP	44	288	4
HLD	44	336	6	96
TAP	45	48	1
TAP	45	96	1
TAP	45	144	0
TAP	45	192	7
HLD	45	240	6	96
HLD	45	336	4	96
TAP	46	48	3
HLD	46	96	3	96
TAP	46	192	1
HLD	46	240	1	96
STR	46	336	7
SI_	46	336	7	96	96	3
TAP	47	192	2
HLD	47	240	2	96
HLD	47	336	0	96
HLD	48	48	7	96
HLD	48	144	5	96
TAP	48	240	4
TAP	48	336	2
TAP	48	336	3
TAP	49	48	0
TAP	49	48	1
TAP	49	144	6
TAP	49	144	7
TAP	49	240	4
TAP	49	240	5
TAP	49	336	3
TAP	49	336	6
TAP	50	48	2
TAP	50	96	2
TAP	50	144	1
TAP	50	144	3
TAP	50	240	5
TAP	50	288	5
TAP	50	336	4
TAP	50	336	6
STR	51	48	0
SI_	51	48	0	96	96	4
TAP	51	48	7
TAP	51	288	6
HLD	51	336	6	96
TAP	52	48	4
TAP	52	96	4
TAP	52	192	2
TAP	52	240	2
TAP	52	288	3
HLD	52	336	1	96
TAP	53	48	6
TAP	53	96	6
TAP	53	144	7
TAP	53	192	0
HLD	53	240	1	96
HLD	53	336	3	96
TAP	54	48	4
HLD	54	96	4	96
TAP	54	192	6
HLD	54	240	6	96
STR	54	336	0
SI_	54	336	0	96	96	4
TAP	55	192	5
HLD	55	240	5	96
HLD	55	336	7	96
HLD	56	48	0	96
HLD	56	144	2	96
TAP	56	240	3
TAP	56	336	4
TAP	56	336	5
TAP	57	48	6
TAP	57	48	7
TAP	57	144	0
TAP	57	144	1
TAP	57	240	2
TAP	57	240	3
TAP	57	336	1
TAP	57	336	4
TAP	58	48	5
TAP	58	96	5
TAP	58	144	4
TAP	58	144	6
TAP	58	240	2
TAP	58	288	2
TAP	58	336	1
TAP	58	336	3
TAP	59	48	0
TAP	59	48	7
TAP	59	144	0
TAP	59	192	1
TAP	59	240	2
TAP	59	240	3
TTP	59	336	0	C	1	M1
TAP	60	144	7
TAP	60	192	6
TAP	60	240	4
TAP	60	240	5
TTP	60	336	0	C	1	M1
TAP	61	144	0
TAP	61	192	1
TAP	61	240	2
TAP	61	240	3
TTP	61	336	0	C	1	M1
TAP	62	144	7
TAP	62	192	6
TAP	62	240	4
TAP	62	240	5
TTP	62	336	0	C	1	M1
TAP	63	144	0
TAP	63	144	6
TAP	63	192	1
TAP	63	240	2
TAP	63	240	4
TTP	63	336	0	C	1	M1
TAP	64	144	1
TAP	64	144	7
TAP	64	192	6
TAP	64	240	3
TAP	64	240	5
TTP	64	336	0	C	1	M1
TAP	65	144	0
TAP	65	144	7
TAP	65	192	1
TAP	65	240	2
TAP	65	240	4
TTP	65	336	0	C	1	M1
XTP	66	48	7
XTP	66	96	7
XTP	66	144	0
XTP	66	192	0
HLD	66	240	7	96
TTP	66	336	0	C	1	M1
TAP	67	288	3
TAP	67	288	4
TAP	68	0	2
HLD	68	48	2	576
TAP	68	96	3
TAP	68	144	3
TAP	68	240	4
TAP	68	336	3
TAP	69	48	4
TAP	69	144	3
TAP	69	240	7
TAP	69	288	7
TAP	70	0	5
HLD	70	48	5	576
TAP	70	96	4
TAP	70	144	4
TAP	70	240	3
TAP	70	336	4
TAP	71	48	3
TAP	71	144	4
TAP	71	240	0
TAP	71	288	0
HLD	72	0	2	192
HLD	72	192	3	192
HLD	73	0	4	192
TAP	73	192	5
TAP	73	288	4
TAP	73	288	5
BRK	74	0	3
BRK	74	0	6
TTP	74	96	3	E	0	M1
TTP	74	144	5	E	0	M1
TTP	74	192	2	B	0	M1
TTP	74	240	5	B	0	M1
TTP	74	288	1	B	0	M1
TTP	74	336	6	B	0	M1
TTP	75	0	1	E	0	M1
TTP	75	48	7	E	0	M1
TTP	75	96	0	B	0	M1
TTP	75	144	7	B	0	M1
TTP	75	192	0	E	0	M1
HLD	76	0	2	96
HLD	76	0	4	96
HLD	76	144	3	96
HLD	76	144	5	96
HLD	76	288	4	96
HLD	76	288	6	96
TAP	77	48	5
STR	77	48	7
SI_	77	48	7	96	96	4
HLD	78	0	3	96
HLD	78	0	5	96
HLD	78	144	2	96
HLD	78	144	4	96
TAP	78	288	1
TAP	78	288	6
TAP	78	336	1
TAP	78	336	6
TAP	80	288	2
STR	80	336	2
SCR	80	336	2	96	192	5
TAP	82	288	2
STR	82	336	2
SCR	82	336	2	96	192	5
TAP	84	288	2
HLD	84	336	2	384
TTP	85	336	4	E	0	M1
TTP	86	48	5	E	0	M1
TTP	86	144	6	E	0	M1
TTP	86	240	7	E	0	M1
TTP	86	336	0	E	0	M1
THO	87	48	0	288	C	0	M1
TAP	89	144	7
TAP	89	192	6
TAP	89	240	5
TAP	89	288	4
TTP	89	336	0	C	1	M1
TAP	90	48	0
TAP	90	48	7
TAP	90	144	0
TAP	90	192	1
TAP	90	240	2
TAP	90	288	3
TTP	90	336	0	C	1	M1
TAP	91	48	0
TAP	91	48	7
TAP	91	144	7
TAP	91	192	6
TAP	91	240	5
TAP	91	288	4
TTP	91	336	0	C	1	M1
TAP	92	48	0
TAP	92	48	7
TAP	92	144	0
TAP	92	192	1
TAP	92	240	2
TAP	92	288	3
TTP	92	336	0	C	1	M1
TAP	93	48	1
TAP	93	48	7
TAP	93	144	1
TAP	93	144	7
TAP	93	192	6
TAP	93	240	5
TAP	93	288	4
TTP	93	336	0	C	1	M1
TAP	94	48	0
TAP	94	48	6
TAP	94	144	0
TAP	94	144	6
TAP	94	192	1
TAP	94	240	2
TAP	94	288	3
TTP	94	336	0	C	1	M1
TAP	95	48	0
TAP	95	48	7
TAP	95	144	0
TAP	95	144	7
TAP	95	192	6
TAP	95	240	5
TAP	95	288	4
TTP	95	336	0	C	1	M1
XTP	96	48	0
XTP	96	96	0
XTP	96	144	7
XTP	96	192	7
HLD	96	240	0	96
TTP	96	336	0	C	1	M1
XTP	97	240	0
XTP	97	240	7
BRK	97	336	1
BRK	97	336	6
TAP	98	48	2
TAP	98	144	0
TAP	98	144	4
TAP	98	240	5
TAP	98	336	3
TAP	98	336	7
TAP	99	48	2
TAP	99	144	0
TAP	99	144	4
TAP	99	240	5
TAP	99	288	5
TAP	99	336	4
TAP	99	336	6
TAP	100	48	2
TAP	100	96	2
TAP	100	144	1
TAP	100	144	3
TAP	100	240	5
TAP	100	288	5
TAP	100	336	4
TAP	100	336	6
TAP	101	48	1
TAP	101	96	1
TAP	101	144	3
TAP	101	192	3
TAP	101	240	2
TAP	101	240	4
TAP	101	288	2
TAP	101	288	4
TAP	102	0	4
TAP	102	0	5
TAP	102	96	6
TAP	102	96	7
TAP	102	192	0
TAP	102	192	1
TAP	102	288	2
TAP	102	288	3
TAP	103	0	4
TAP	103	0	5
TAP	103	96	6
TAP	103	96	7
TAP	103	192	0
TAP	103	192	1
TAP	103	288	2
TAP	103	288	3
TAP	104	0	4
TAP	104	0	6
TAP	104	96	0
TAP	104	96	7
TAP	104	192	1
TAP	104	192	3
TAP	104	288	3
TAP	104	288	4
HLD	105	0	2	576
TAP	105	0	5
TTP	105	96	3	E	0	M1
TTP	105	192	5	E	0	M1
TTP	105	288	2	B	0	M1
TTP	106	0	5	B	0	M1
TTP	106	96	1	B	0	M1
TAP	106	192	7
STR	106	240	7
SI_	106	240	7	96	96	3
TTP	107	96	0	C	0	M1

T_REC_TAP	321
T_REC_BRK	12
T_REC_XTP	12
T_REC_HLD	62
T_REC_XHO	1
T_REC_STR	21
T_REC_BST	0
T_REC_XST	0
T_REC_TTP	46
T_REC_THO	1
T_REC_SLD	21
T_REC_ALL	497
T_NUM_TAP	400
T_NUM_BRK	12
T_NUM_HLD	64
T_NUM_SLD	21
T_NUM_ALL	497
T_JUDGE_TAP	412
T_JUDGE_HLD	213
T_JUDGE_SLD	21
T_JUDGE_ALL	646
TTM_EACHPAIRS	102
TTM_SCR_TAP	200000
TTM_SCR_BRK	31200
TTM_SCR_HLD	64000
TTM_SCR_SLD	31500
TTM_SCR_ALL	326700
TTM_SCR_S	315750
TTM_SCR_SS	325500
TTM_RAT_ACV	10036

