VERSION	0.00.00	1.03.00
FES_MODE	0
BPM_DEF	180.000	180.000	180.000	180.000
MET_DEF	4	4
RESOLUTION	384
CLK_DEF	384
COMPATIBLE_CODE	MA2

BPM	0	0	180.000
MET	0	0	4	4

XHO	2	0	2	192
TAP	2	192	3
HLD	3	0	5	192
TAP	3	192	4
HLD	4	0	2	192
TAP	4	192	3
HLD	5	0	4	96
HLD	5	0	5	96
TAP	5	192	4
TAP	5	192	5
TAP	6	0	6
TAP	6	96	6
TAP	6	192	6
TAP	6	192	7
TAP	7	0	1
TAP	7	96	1
TAP	7	192	0
TAP	7	192	1
STR	8	0	0
SXL	8	0	0	96	480	3
STR	8	0	7
SXR	8	0	7	96	480	4
XTP	10	0	3
XTP	10	0	4
TAP	10	96	2
TAP	10	96	5
TAP	10	192	1
TAP	10	192	6
BRK	10	288	0
BRK	10	288	7
TTP	12	0	2	B	0	L1
TTP	12	0	3	B	0	L1
TTP	13	0	4	B	0	L1
TTP	13	0	5	B	0	L1
TTP	14	0	2	B	0	L1
TTP	14	0	3	E	0	L1
TTP	15	0	5	B	0	L1
TTP	15	0	5	E	0	L1
TTP	16	0	3	B	0	L1
TTP	16	192	2	B	0	L1
TTP	17	0	1	B	0	L1
TTP	17	192	0	B	0	L1
TTP	18	0	7	B	0	L1
TTP	18	192	6	B	0	L1
TTP	19	0	0	C	0	L1
XTP	20	0	1
TAP	20	96	1
TAP	20	192	0
TAP	20	288	0
TAP	21	0	7
TAP	21	96	7
TAP	21	192	0
TAP	21	192	6
TAP	22	0	6
TAP	22	96	6
TAP	22	192	7
TAP	22	288	7
TAP	23	0	0
TAP	23	96	0
XTP	23	192	1
XTP	23	192	7
TAP	24	0	2
TAP	24	96	2
TAP	24	192	3
TAP	24	288	3
XTP	25	0	4
XTP	25	0	5
XTP	25	96	4
XTP	25	96	5
XTP	25	192	3
XTP	25	192	6
HLD	26	0	6	96
HLD	26	0	7	96
HLD	26	192	0	96
HLD	26	192	1	96
XTP	27	0	0
XTP	27	0	7
XST	27	336	0
SI_	27	336	0	96	192	3
XST	28	336	4
SI_	28	336	4	96	192	7
XST	29	336	0
SCR	29	336	0	96	192	3
XTP	30	336	4
XTP	31	48	4
XTP	31	144	3
XTP	31	144	5
STR	31	336	4
SI_	31	336	4	96	192	7
STR	32	336	0
SI_	32	336	0	96	192	3
STR	33	336	4
SCR	33	336	4	96	192	7
TAP	34	336	0
TAP	35	48	0
TAP	35	144	1
TAP	35	144	7
STR	35	336	0
SCR	35	336	0	96	480	5
STR	37	336	7
SCL	37	336	7	96	480	2
STR	39	336	1
SUL	39	336	1	96	288	3
TAP	42	0	3
TAP	42	96	3
TAP	42	192	4
TAP	42	288	4
TAP	43	0	2
TAP	43	0	5
XHO	43	336	0	144
XHO	43	336	1	144
TAP	44	192	2
TAP	44	288	2
TAP	45	0	3
TAP	45	96	3
TAP	45	192	2
TAP	45	192	3
TAP	45	288	3
TAP	45	288	4
XTP	46	0	5
TAP	46	96	5
TAP	46	192	4
TAP	46	288	4
TAP	47	0	4
TAP	47	0	5
TAP	47	96	4
TAP	47	96	5
XTP	47	192	3
XTP	47	192	6
TAP	48	0	6
TAP	48	96	6
TAP	48	192	7
TAP	48	288	7
TAP	49	0	0
TAP	49	96	0
TAP	49	192	1
TAP	49	288	1
TAP	50	0	2
TAP	50	96	2
TAP	50	192	3
TAP	50	192	4
TAP	50	288	3
TAP	50	288	4
TAP	51	0	2
TAP	51	0	5
XHO	51	336	6	144
XHO	51	336	7	144
TAP	52	192	5
TAP	52	288	5
TAP	53	0	4
TAP	53	96	4
TAP	53	192	4
TAP	53	192	5
TAP	53	288	3
TAP	53	288	4
XTP	54	0	2
TAP	54	96	2
TAP	54	192	3
TAP	54	288	3
TAP	55	0	2
TAP	55	0	3
TAP	55	96	2
TAP	55	96	3
XTP	55	192	1
XTP	55	192	4
TAP	56	0	1
TAP	56	96	1
TAP	56	192	0
TAP	56	288	0
TAP	57	0	7
TAP	57	96	7
TAP	57	192	6
TAP	57	288	6
TAP	58	0	5
TAP	58	96	5
TAP	58	192	3
TAP	58	192	4
TAP	58	288	3
TAP	58	288	4
TAP	59	0	2
TAP	59	0	5
XST	59	336	6
SI_	59	336	6	96	192	3
STR	60	336	2
SI_	60	336	2	96	192	7
STR	61	336	6
SI_	61	336	6	96	192	3
STR	62	336	2
SI_	62	336	2	96	192	7
STR	63	336	6
SCL	63	336	6	96	192	3
STR	64	336	2
SCL	64	336	2	96	192	7
STR	65	336	6
SUR	65	336	6	96	288	4
XHO	68	0	2	192
HLD	68	192	3	192
HLD	69	0	4	192
TAP	69	192	5
HLD	70	0	6	192
HLD	70	192	7	192
HLD	71	0	0	192
TAP	71	192	1
STR	72	0	0
SXL	72	0	0	96	480	3
STR	72	0	7
SXR	72	0	7	96	480	4
STR	74	0	3
SXR	74	0	3	96	480	0
STR	74	0	4
SXL	74	0	4	96	480	7
TAP	76	0	0
TAP	76	96	0
TAP	76	192	7
TAP	76	288	7
TAP	77	0	0
TAP	77	0	7
XTP	77	96	1
XTP	77	96	6
TAP	78	0	2
TAP	78	96	3
TAP	78	192	3
TAP	78	192	4
BST	78	288	2
SLL	78	288	2	96	432	3
BST	78	288	5
SLR	78	288	5	96	432	4
TTP	80	336	0	B	0	L1
TTP	81	336	1	B	0	L1
TTP	82	336	2	B	0	L1
TTP	83	336	3	B	0	L1
TTP	84	336	4	B	0	L1
TTP	85	336	5	B	0	L1
TTP	86	336	6	B	0	L1
THO	87	336	0	240	C	0	L1
XTP	90	0	1
TAP	90	96	1
TAP	90	192	0
TAP	90	192	1
TAP	90	288	2
TAP	90	288	7
TAP	91	0	6
TAP	91	96	6
TAP	91	192	6
TAP	91	192	7
TAP	91	288	0
TAP	91	288	5
XTP	92	0	4
TAP	92	96	5
TAP	92	192	4
TAP	92	192	5
TAP	92	288	3
TAP	92	288	6
XTP	93	0	2
TAP	93	96	2
TAP	93	192	3
TAP	93	192	4
TAP	93	288	2
TAP	93	288	5
XTP	94	0	6
TAP	94	96	6
TAP	94	96	7
TAP	94	192	6
TAP	94	288	6
TAP	94	288	7
TAP	95	0	1
TAP	95	96	0
TAP	95	96	1
TAP	95	192	1
TAP	95	288	0
TAP	95	288	1
XTP	96	0	2
TAP	96	96	3
TAP	96	96	4
TAP	96	192	2
TAP	96	192	5
XTP	96	288	1
XTP	96	288	6
XST	97	336	1
SCR	97	336	1	96	192	4
STR	98	336	5
SCR	98	336	5	96	192	0
STR	99	336	1
SCR	99	336	1	96	192	4
XHO	100	336	5	240
TAP	102	0	6
TAP	102	96	6
TAP	102	192	7
TAP	102	288	7
TAP	103	0	0
TAP	103	96	0
TAP	103	192	1
TAP	103	288	1
TAP	104	0	2
TAP	104	48	2
TAP	104	96	2
TAP	104	192	3
TAP	104	240	3
TAP	104	288	3
XHO	105	0	2	720
XHO	105	0	5	624
TTP	107	96	0	C	0	L1

T_REC_TAP	168
T_REC_BRK	2
T_REC_XTP	32
T_REC_HLD	13
T_REC_XHO	9
T_REC_STR	20
T_REC_BST	2
T_REC_XST	5
T_REC_TTP	23
T_REC_THO	1
T_REC_SLD	27
T_REC_ALL	302
T_NUM_TAP	248
T_NUM_BRK	4
T_NUM_HLD	23
T_NUM_SLD	27
T_NUM_ALL	302
T_JUDGE_TAP	252
T_JUDGE_HLD	98
T_JUDGE_SLD	27
T_JUDGE_ALL	377
TTM_EACHPAIRS	60
TTM_SCR_TAP	124000
TTM_SCR_BRK	10400
TTM_SCR_HLD	23000
TTM_SCR_SLD	40500
TTM_SCR_ALL	197900
TTM_SCR_S	191600
TTM_SCR_SS	197500
TTM_RAT_ACV	10020

