VERSION	0.00.00	1.03.00
FES_MODE	0
BPM_DEF	180.000	180.000	180.000	180.000
MET_DEF	4	4
RESOLUTION	384
CLK_DEF	384
COMPATIBLE_CODE	MA2

BPM	0	0	180.000
MET	0	0	4	4

TAP	2	0	0
TAP	4	0	0
TAP	6	0	7
BRK	8	0	7
HLD	10	0	0	288
HLD	10	0	7	288
TTP	12	0	0	B	0	L1
TTP	13	0	7	B	0	L1
TTP	14	0	1	B	0	L1
TTP	15	0	6	B	0	L1
TTP	16	0	2	B	0	L1
TTP	17	0	5	B	0	L1
THO	18	0	0	336	C	0	L1
TAP	20	0	0
TAP	20	192	0
TAP	21	0	1
TAP	22	0	2
TAP	22	192	2
TAP	23	0	3
TAP	24	0	4
TAP	24	192	4
TAP	25	0	5
TAP	26	0	6
TAP	26	192	6
XHO	27	0	7	336
XTP	28	336	7
XTP	29	336	6
XTP	30	336	5
XTP	31	336	3
XTP	31	336	4
XTP	32	336	2
XTP	33	336	1
XTP	34	336	0
XTP	35	336	0
XTP	35	336	1
XTP	36	336	2
XTP	36	336	3
XTP	37	336	4
XTP	37	336	5
XTP	38	336	4
XTP	38	336	5
XTP	39	336	2
XTP	39	336	3
XTP	40	336	0
XTP	40	336	1
XHO	41	336	0	432
XHO	41	336	7	432
XTP	44	0	0
TAP	44	192	0
TAP	45	0	1
TAP	45	96	1
TAP	45	192	1
TAP	46	0	2
TAP	46	192	2
TAP	47	0	3
TAP	47	96	3
TAP	47	192	3
TAP	47	192	4
TAP	48	0	4
TAP	48	96	4
TAP	48	192	4
TAP	49	0	5
TAP	49	96	5
TAP	49	192	5
TAP	50	0	6
TAP	50	96	6
TAP	50	192	6
TAP	51	0	7
TAP	51	96	7
TAP	51	192	0
TAP	51	192	7
XTP	52	0	7
TAP	52	192	7
TAP	53	0	6
TAP	53	96	6
TAP	53	192	6
TAP	54	0	5
TAP	54	192	5
TAP	55	0	4
TAP	55	96	4
TAP	55	192	3
TAP	55	192	4
TAP	56	0	3
TAP	56	96	3
TAP	56	192	3
TAP	57	0	2
TAP	57	96	2
TAP	57	192	2
TAP	58	0	1
TAP	58	96	1
TAP	58	192	1
TAP	59	0	0
TAP	59	0	7
TAP	60	0	0
TAP	60	192	0
TAP	61	0	1
TAP	61	192	1
TAP	62	0	2
TAP	62	192	2
TAP	63	0	2
TAP	63	0	3
TAP	63	192	2
TAP	63	192	3
TAP	64	0	4
TAP	64	192	4
TAP	65	0	5
TAP	65	192	5
HLD	66	0	6	336
HLD	66	0	7	336
STR	68	0	7
SI_	68	0	7	96	288	4
STR	70	0	0
SI_	70	0	0	96	288	3
STR	72	0	7
SI_	72	0	7	96	288	3
STR	74	0	0
SI_	74	0	0	96	288	4
XHO	76	0	4	288
XHO	76	0	5	288
XHO	78	0	2	288
XHO	78	0	3	288
TTP	81	0	3	B	0	L1
TTP	82	0	2	B	0	L1
TTP	83	0	1	B	0	L1
TTP	84	0	0	B	0	L1
TTP	85	0	7	B	0	L1
TTP	86	0	6	B	0	L1
TTP	87	0	5	B	0	L1
THO	88	0	0	720	C	1	L1
TAP	92	0	0
TAP	92	192	1
TAP	93	0	2
TAP	93	192	3
TAP	94	0	4
TAP	94	192	5
TAP	95	0	6
TAP	95	192	7
HLD	96	0	0	336
HLD	96	0	7	336
XTP	98	0	7
TAP	98	96	7
TAP	98	192	7
TAP	99	0	6
TAP	99	96	6
TAP	99	192	6
TAP	100	0	5
TAP	100	96	5
TAP	100	192	5
TAP	101	0	4
TAP	101	96	4
TAP	101	192	3
TAP	101	192	4
TAP	102	0	3
TAP	102	96	3
TAP	102	192	2
TAP	102	288	2
TAP	103	0	1
TAP	103	96	1
TAP	103	192	0
TAP	103	192	1
TAP	104	0	7
TAP	104	96	7
TAP	104	192	0
TAP	104	288	0
HLD	105	0	0	384
HLD	105	0	7	384
XTP	106	240	1
XTP	106	240	6
XTP	106	336	1
XTP	106	336	6

T_REC_TAP	104
T_REC_BRK	1
T_REC_XTP	27
T_REC_HLD	8
T_REC_XHO	7
T_REC_STR	4
T_REC_BST	0
T_REC_XST	0
T_REC_TTP	13
T_REC_THO	2
T_REC_SLD	4
T_REC_ALL	170
T_NUM_TAP	148
T_NUM_BRK	1
T_NUM_HLD	17
T_NUM_SLD	4
T_NUM_ALL	170
T_JUDGE_TAP	149
T_JUDGE_HLD	127
T_JUDGE_SLD	4
T_JUDGE_ALL	280
TTM_EACHPAIRS	24
TTM_SCR_TAP	74000
TTM_SCR_BRK	2600
TTM_SCR_HLD	17000
TTM_SCR_SLD	6000
TTM_SCR_ALL	99600
TTM_SCR_S	96550
TTM_SCR_SS	99500
TTM_RAT_ACV	10010

