VERSION	0.00.00	1.03.00
FES_MODE	0
BPM_DEF	170.000	170.000	170.000	170.000
MET_DEF	4	4
RESOLUTION	384
CLK_DEF	384
COMPATIBLE_CODE	MA2

BPM	0	0	170.000
MET	0	0	4	4

TAP	2	0	1
TAP	2	0	6
TAP	2	72	0
TAP	2	72	7
TAP	2	144	3
TAP	2	144	4
STR	2	192	2
SI_	2	192	2	96	48	4
STR	2	192	5
SI_	2	192	5	96	48	3
TAP	3	0	2
TAP	3	0	6
TAP	3	48	7
TAP	3	96	7
TAP	3	144	4
TAP	3	192	3
TAP	3	240	3
TAP	3	264	5
TAP	3	312	5
TAP	3	336	4
TAP	4	0	2
TAP	4	24	3
TAP	4	72	6
TAP	4	96	4
TAP	4	144	1
TAP	4	168	3
TAP	4	216	6
TAP	4	240	4
TAP	4	288	3
TAP	4	288	7
TAP	5	0	1
TAP	5	0	5
TAP	5	48	0
TAP	5	96	0
TAP	5	144	3
TAP	5	192	4
TAP	5	240	4
TAP	5	264	2
TAP	5	312	2
TAP	5	336	3
TAP	6	0	5
TAP	6	24	4
TAP	6	72	2
TAP	6	96	3
TAP	6	144	6
TAP	6	168	4
TAP	6	216	1
TAP	6	240	3
TAP	6	288	0
TAP	6	288	4
TAP	7	0	2
TAP	7	24	2
TAP	7	48	3
TAP	7	72	1
TAP	7	120	5
TAP	7	144	4
TAP	7	192	6
TAP	7	216	7
TAP	7	264	1
TAP	7	288	3
TAP	7	312	2
TAP	7	336	4
TAP	7	360	3
TAP	8	0	5
TAP	8	24	5
TAP	8	48	4
TAP	8	72	6
TAP	8	120	2
TAP	8	144	3
TAP	8	192	1
TAP	8	216	0
TAP	8	264	6
TAP	8	288	4
TAP	8	312	5
TAP	8	336	3
TAP	8	360	4
TAP	9	0	2
TAP	9	24	2
TAP	9	48	3
TAP	9	72	1
TAP	9	120	5
TAP	9	144	4
TAP	9	192	6
TAP	9	216	7
TAP	9	264	1
TAP	9	288	3
TAP	9	336	3
TAP	9	336	4
TAP	10	0	3
TAP	10	0	4
TAP	10	72	4
TAP	10	72	6
TAP	10	144	0
TAP	10	144	7
TAP	10	192	2
TAP	10	216	2
STR	10	240	3
SI_	10	240	3	96	48	7
TAP	10	264	1
TAP	10	336	3
TAP	10	336	4
TAP	11	0	5
TAP	11	48	5
TAP	11	240	4
TAP	11	264	4
TAP	11	288	3
TAP	12	0	2
TAP	12	0	6
TAP	12	48	5
TAP	12	96	4
TAP	12	144	3
TAP	12	192	3
TAP	12	240	4
TTP	12	288	3	E	0	M1
TTP	12	288	5	E	0	M1
TTP	12	336	2	B	0	M1
TTP	12	336	5	B	0	M1
TTP	13	0	1	B	0	M1
TTP	13	0	6	B	0	M1
TTP	13	48	1	E	0	M1
TTP	13	48	7	E	0	M1
STR	13	96	0
SV_	13	96	0	96	48	3
TAP	13	144	0
STR	13	192	7
SV_	13	192	7	96	48	4
TAP	13	240	7
TAP	13	288	3
TAP	13	336	3
TAP	14	0	5
TAP	14	48	5
TAP	14	96	2
TAP	14	144	2
STR	14	192	4
SSL	14	192	4	96	192	0
TAP	14	240	4
TAP	14	288	5
TAP	14	336	5
XTP	15	0	6
XTP	15	48	6
TAP	15	96	7
TAP	15	144	7
TAP	15	192	0
TAP	15	240	0
STR	15	288	1
SCL	15	288	1	96	48	6
TAP	15	336	1
TAP	16	0	5
TAP	16	48	5
TAP	16	96	4
TAP	16	144	3
STR	16	192	2
SI_	16	192	2	96	48	7
TAP	16	240	2
STR	16	288	3
SI_	16	288	3	96	48	7
TAP	16	336	3
TAP	17	0	0
TAP	17	48	0
TAP	17	96	7
TAP	17	144	7
TAP	17	192	5
TAP	17	240	4
STR	17	288	6
SLL	17	288	6	96	96	0
TAP	17	336	6
TAP	18	0	3
TAP	18	48	2
STR	18	96	1
SLR	18	96	1	96	96	7
TAP	18	144	1
TAP	18	192	4
TAP	18	240	5
TAP	18	288	6
TAP	18	336	6
TAP	19	0	3
TAP	19	0	5
TAP	19	48	2
TAP	19	96	2
TAP	19	96	4
TAP	19	144	5
TAP	19	192	3
TAP	19	192	5
TAP	19	240	2
TAP	19	288	1
TAP	19	288	4
TAP	19	336	5
TAP	20	0	3
TAP	20	0	6
TAP	20	72	1
TAP	20	72	4
TAP	20	144	4
TAP	20	144	6
TAP	20	216	1
TAP	20	216	3
STR	20	288	4
SI_	20	288	4	96	48	1
TAP	20	336	5
TAP	21	0	4
TAP	21	0	6
TAP	21	48	7
TAP	21	96	7
TAP	21	144	3
TAP	21	192	2
TAP	21	216	2
TAP	21	240	3
TAP	21	264	1
TAP	21	312	5
TAP	21	336	4
TAP	21	360	6
TAP	22	0	0
TAP	22	24	7
TAP	22	72	2
TAP	22	72	6
TAP	22	120	5
TAP	22	144	4
TAP	22	168	5
TAP	22	192	6
TAP	22	216	5
TAP	22	264	0
TAP	22	312	2
TAP	22	336	3
TAP	23	0	2
TAP	23	0	4
TAP	23	72	3
TAP	23	72	5
TAP	23	144	4
STR	23	144	6
SI_	23	144	6	96	48	4
TAP	23	192	4
STR	23	192	6
SI_	23	192	6	96	48	0
TAP	24	0	1
TAP	24	0	7
TAP	24	72	0
TAP	24	72	2
STR	24	144	1
SI_	24	144	1	96	48	3
TAP	24	144	3
STR	24	192	1
SI_	24	192	1	96	48	7
TAP	24	192	3
TAP	25	0	3
TAP	25	48	2
TAP	25	72	3
TAP	25	120	5
TAP	25	144	4
STR	25	192	7
SI_	25	192	7	96	48	3
TAP	25	240	7
TAP	25	288	0
TAP	25	336	0
TAP	26	0	4
TAP	26	48	5
TAP	26	72	4
TAP	26	120	2
TAP	26	144	3
STR	26	192	0
SI_	26	192	0	96	48	4
TAP	26	240	0
TAP	26	288	7
TAP	26	336	7
TAP	27	0	3
TAP	27	48	2
TAP	27	72	3
TAP	27	96	1
TAP	27	120	3
TAP	27	144	2
TAP	27	192	0
TAP	27	192	4
TAP	27	240	5
TAP	27	264	4
TAP	27	288	6
TAP	27	312	4
TAP	27	336	5
TAP	28	0	3
TAP	28	0	7
STR	28	72	1
SI_	28	72	1	96	48	5
TAP	28	72	5
STR	28	288	0
SCR	28	288	0	96	48	3
STR	28	288	7
SCL	28	288	7	96	48	4
XTP	29	0	0
XTP	29	0	7
STR	29	96	0
SCL	29	96	0	96	48	6
TAP	29	144	4
STR	29	192	0
SCR	29	192	0	96	48	2
TAP	29	240	4
STR	29	288	0
SI_	29	288	0	96	48	6
TAP	29	336	4
STR	30	0	0
SI_	30	0	0	96	48	2
TAP	30	48	4
TAP	30	96	0
TAP	30	144	4
STR	30	192	3
SI_	30	192	3	96	48	7
TAP	30	240	3
STR	30	288	4
SI_	30	288	4	96	48	0
TAP	30	336	4
XTP	31	0	2
XTP	31	48	2
TAP	31	96	3
TAP	31	144	4
TAP	31	192	4
STR	31	240	1
SI_	31	240	1	96	48	6
STR	31	240	5
SI_	31	240	5	96	48	2
TAP	31	288	2
TAP	31	288	6
BRK	31	336	1
BRK	31	336	5
BRK	32	48	0
BRK	32	48	4
STR	32	144	5
SI_	32	144	5	96	48	3
STR	32	192	1
SI_	32	192	1	96	48	3
STR	32	240	5
SI_	32	240	5	96	48	0
STR	32	288	1
SI_	32	288	1	96	48	4
TAP	32	336	5
TAP	33	0	1
TAP	33	48	6
TAP	33	96	6
TAP	33	144	7
STR	33	192	0
SI_	33	192	0	96	48	3
TAP	33	240	0
STR	33	288	7
SI_	33	288	7	96	48	4
TAP	33	336	7
STR	34	0	3
SI_	34	0	3	96	48	0
TAP	34	48	3
STR	34	96	4
SI_	34	96	4	96	48	7
TAP	34	144	4
TAP	34	192	0
TAP	34	288	2
STR	34	288	3
SCR	34	288	3	96	96	7
STR	35	96	4
SCL	35	96	4	96	96	0
STR	35	288	3
SCR	35	288	3	96	96	7
TAP	36	96	0
TTP	36	144	1	B	0	M1
TTP	36	156	2	B	0	M1
TTP	36	168	3	E	0	M1
TTP	36	192	6	B	0	M1
TTP	36	204	5	B	0	M1
TTP	36	216	5	E	0	M1
TAP	36	264	0
STR	36	336	7
SCL	36	336	7	96	144	0
TTP	37	48	0	C	1	M1
TTP	37	48	3	B	0	M1
TTP	37	48	4	B	0	M1
BRK	37	288	0
STR	38	0	6
SI_	38	0	6	96	48	3
TAP	38	48	6
STR	38	96	2
SI_	38	96	2	96	48	7
TAP	38	144	2
TAP	38	192	5
TAP	38	240	5
TAP	38	264	4
TAP	38	312	4
TAP	38	336	6
STR	39	0	1
SI_	39	0	1	96	48	4
TAP	39	48	1
STR	39	96	5
SI_	39	96	5	96	48	0
TAP	39	144	5
TAP	39	192	2
TAP	39	240	2
TAP	39	264	3
TAP	39	312	3
TAP	39	336	1
TAP	40	0	2
TAP	40	0	4
TAP	40	72	3
TAP	40	72	5
TAP	40	144	2
TAP	40	144	6
TTP	40	192	3	B	0	M1
TTP	40	216	4	B	0	M1
TTP	40	240	2	E	0	M1
TTP	40	264	6	E	0	M1
TTP	40	288	1	E	0	M1
TTP	40	312	7	E	0	M1
TTP	40	336	3	E	0	M1
TAP	41	0	6
TAP	41	24	4
TAP	41	48	6
TAP	41	72	4
TAP	41	120	0
TAP	41	144	3
TAP	41	192	7
TAP	41	216	4
TAP	41	264	0
TAP	41	288	3
TAP	41	336	1
TAP	42	0	1
TAP	42	24	3
TAP	42	48	1
TAP	42	72	3
TAP	42	120	7
TAP	42	144	4
TAP	42	192	0
TAP	42	216	3
TAP	42	264	7
TAP	42	288	4
TAP	42	336	6
TAP	43	0	6
TAP	43	24	4
TAP	43	48	6
TAP	43	72	4
TAP	43	120	0
TAP	43	144	3
TAP	43	192	7
TAP	43	216	4
TAP	43	264	0
TAP	43	288	3
TAP	43	336	1
HLD	44	0	1	72
HLD	44	72	2	72
TAP	44	144	3
HLD	44	192	6	72
HLD	44	264	5	72
TAP	44	336	4
TAP	45	0	3
TAP	45	0	6
TAP	45	48	3
HLD	45	48	6	3216
TTP	46	0	0	E	0	M1
TTP	46	48	0	B	0	M1
TTP	46	96	2	B	0	M1
TTP	46	144	3	E	0	M1
TAP	46	192	4
TAP	46	240	4
TAP	46	288	4
TAP	46	336	4
TTP	47	0	0	E	0	M1
TTP	47	48	7	B	0	M1
TTP	47	96	2	B	0	M1
TTP	47	144	3	E	0	M1
TAP	47	192	4
TAP	47	240	4
TAP	47	288	4
TAP	47	336	4
TTP	48	0	0	E	0	M1
TTP	48	48	0	B	0	M1
TTP	48	96	2	B	0	M1
TTP	48	144	3	E	0	M1
TAP	48	192	4
TAP	48	240	4
TAP	48	288	4
TAP	48	336	4
TTP	49	0	0	E	0	M1
TTP	49	48	0	B	0	M1
TTP	49	96	2	B	0	M1
TTP	49	144	3	E	0	M1
TAP	49	192	4
TAP	49	240	4
TAP	49	288	4
TAP	49	336	4
TTP	50	0	7	E	0	M1
TTP	50	48	6	B	0	M1
TTP	50	96	2	B	0	M1
TTP	50	144	3	E	0	M1
TAP	50	192	4
TAP	50	240	4
TAP	50	288	4
TAP	50	336	4
TTP	51	0	0	E	0	M1
TTP	51	48	7	B	0	M1
TTP	51	96	2	B	0	M1
TTP	51	144	3	E	0	M1
TAP	51	192	4
TAP	51	240	4
TAP	51	288	4
TAP	51	336	4
TTP	52	0	7	E	0	M1
TTP	52	48	6	B	0	M1
TTP	52	96	2	B	0	M1
TTP	52	144	3	E	0	M1
TAP	52	192	4
TAP	52	240	4
TAP	52	288	4
TAP	52	336	4
TTP	53	0	0	E	0	M1
TTP	53	48	7	B	0	M1
TTP	53	96	2	B	0	M1
TTP	53	144	3	E	0	M1
TAP	53	192	4
TAP	53	240	4
TAP	53	288	4
TAP	53	336	4
TAP	54	0	3
TAP	54	0	5
TAP	54	72	1
TAP	54	72	3
TAP	54	144	4
TAP	54	144	6
TAP	54	216	0
TAP	54	216	7
STR	54	288	4
SI_	54	288	4	96	48	1
STR	54	288	5
SUL	54	288	5	96	48	1
TAP	54	336	3
TAP	54	336	6
TAP	55	96	0
TAP	55	144	0
TAP	55	192	5
TAP	55	216	5
TAP	55	240	4
TAP	55	264	6
TAP	55	312	2
TAP	55	336	3
TAP	55	360	1
TAP	56	0	7
TAP	56	24	0
TAP	56	72	1
TAP	56	72	5
TAP	56	120	2
TAP	56	144	3
TAP	56	168	2
TAP	56	192	1
TAP	56	216	2
TAP	56	264	7
TAP	56	312	5
TAP	56	336	4
TAP	57	0	3
TAP	57	0	5
TAP	57	72	2
TAP	57	72	4
STR	57	144	1
SI_	57	144	1	96	48	3
TAP	57	144	3
STR	57	192	1
SI_	57	192	1	96	48	7
TAP	57	192	3
TAP	58	0	0
TAP	58	0	6
TAP	58	72	5
TAP	58	72	7
TAP	58	144	4
STR	58	144	6
SI_	58	144	6	96	48	4
TAP	58	192	4
STR	58	192	6
SI_	58	192	6	96	48	0
TAP	59	0	4
TAP	59	48	5
TAP	59	72	4
TAP	59	120	2
TAP	59	144	3
STR	59	192	0
SI_	59	192	0	96	48	4
TAP	59	240	0
TAP	59	288	7
TAP	59	336	7
TAP	60	0	3
TAP	60	48	2
TAP	60	72	3
TAP	60	120	5
TAP	60	144	4
STR	60	192	7
SI_	60	192	7	96	48	3
TAP	60	240	7
TAP	60	288	0
TAP	60	336	0
TAP	61	0	4
TAP	61	48	5
TAP	61	72	4
TAP	61	120	2
TAP	61	144	3
TAP	61	192	0
TAP	61	240	0
TAP	61	288	7
TAP	61	336	1
XTP	62	0	2
XTP	62	0	4
XTP	62	72	3
XTP	62	72	6
XTP	62	144	2
XTP	62	144	5
TAP	62	192	0
TAP	62	216	7
TAP	62	240	2
TAP	62	264	5
TAP	62	288	1
TAP	62	312	6
TAP	62	336	3
TAP	62	360	4
XTP	63	0	0
TAP	63	24	1
TAP	63	48	2
TAP	63	72	3
XTP	63	96	0
TAP	63	120	1
TAP	63	144	2
TAP	63	168	3
XTP	63	192	7
TAP	63	216	6
TAP	63	240	5
TAP	63	264	4
TAP	63	288	3
XTP	64	0	7
TAP	64	24	6
TAP	64	48	5
TAP	64	72	4
XTP	64	96	7
TAP	64	120	6
TAP	64	144	5
TAP	64	168	4
XTP	64	192	0
TAP	64	216	1
TAP	64	240	2
TAP	64	264	3
XTP	64	288	0
TAP	64	312	1
TAP	64	336	2
TAP	64	360	3
XTP	65	0	7
TAP	65	24	6
TAP	65	48	5
TAP	65	72	4
XTP	65	96	7
TAP	65	120	6
TAP	65	144	5
TAP	65	168	4
XTP	65	192	0
TAP	65	216	0
TAP	65	240	1
TAP	65	264	1
TAP	65	288	2
TAP	65	312	2
TAP	65	336	3
TAP	66	0	2
TAP	66	0	4
TAP	66	72	3
TAP	66	72	5
TAP	66	144	3
TAP	66	144	4
STR	66	192	3
SCL	66	192	3	96	48	0
STR	66	192	4
SCR	66	192	4	96	48	7
XTP	66	288	3
XTP	66	288	4
BRK	67	0	1
BRK	67	0	6
STR	67	96	7
SCR	67	96	7	96	48	1
TAP	67	144	3
STR	67	192	7
SCL	67	192	7	96	48	5
TAP	67	240	3
STR	67	288	7
SI_	67	288	7	96	48	1
TAP	67	336	3
STR	68	0	7
SI_	68	0	7	96	48	5
TAP	68	48	3
TAP	68	96	7
TAP	68	144	3
STR	68	192	4
SI_	68	192	4	96	48	0
TAP	68	240	4
STR	68	288	3
SI_	68	288	3	96	48	7
TAP	68	336	3
XTP	69	0	5
XTP	69	48	5
TAP	69	96	4
TAP	69	144	3
TAP	69	192	3
STR	69	240	2
SI_	69	240	2	96	48	5
STR	69	240	6
SI_	69	240	6	96	48	1
TAP	69	288	1
TAP	69	288	5
BRK	69	336	2
BRK	69	336	6
BRK	70	48	3
BRK	70	48	7
STR	70	144	2
SI_	70	144	2	96	48	4
STR	70	192	6
SI_	70	192	6	96	48	4
STR	70	240	2
SI_	70	240	2	96	48	7
STR	70	288	6
SI_	70	288	6	96	48	3
TAP	70	336	2
TAP	71	0	6
TAP	71	48	1
TAP	71	96	1
TAP	71	144	0
STR	71	192	7
SI_	71	192	7	96	48	4
TAP	71	240	7
STR	71	288	0
SI_	71	288	0	96	48	3
TAP	71	336	0
STR	72	0	4
SI_	72	0	4	96	48	7
TAP	72	48	4
STR	72	96	3
SI_	72	96	3	96	48	0
TAP	72	144	3
TAP	72	192	7
STR	72	288	4
SCL	72	288	4	96	96	0
TAP	72	288	5
STR	73	96	3
SCR	73	96	3	96	96	7
STR	73	288	4
SCL	73	288	4	96	96	0
TAP	74	96	7
TTP	74	144	6	B	0	M1
TTP	74	156	5	B	0	M1
TTP	74	168	5	E	0	M1
TTP	74	192	1	B	0	M1
TTP	74	204	2	B	0	M1
TTP	74	216	3	E	0	M1
TAP	74	264	7
BRK	74	336	0
BRK	75	48	2
BRK	75	48	5
TAP	75	192	3
TAP	75	192	5
TAP	75	240	7
TAP	75	288	2
TAP	75	288	4
TAP	75	336	0
TAP	76	0	3
TAP	76	0	5
TAP	76	48	1
TAP	76	48	6
TAP	76	96	0
TAP	76	96	7
TAP	76	144	1
TAP	76	144	6
TTP	76	192	3	B	0	M1
TTP	76	192	3	E	0	M1
TTP	76	192	4	B	0	M1
TTP	76	192	5	E	0	M1
TAP	76	240	0
TAP	76	240	7
TTP	76	288	2	B	0	M1
TTP	76	288	2	E	0	M1
TTP	76	288	5	B	0	M1
TTP	76	288	6	E	0	M1
TAP	76	336	0
TAP	76	336	7
TAP	77	0	6
TAP	77	48	3
TAP	77	48	5
TAP	77	96	2
TAP	77	96	4
TAP	77	144	1
TAP	77	144	6
TTP	77	192	3	B	0	M1
TTP	77	192	3	E	0	M1
TTP	77	192	4	B	0	M1
TTP	77	192	5	E	0	M1
TAP	77	240	0
TAP	77	240	7
TTP	77	288	2	B	0	M1
TTP	77	288	2	E	0	M1
TTP	77	288	5	B	0	M1
TTP	77	288	6	E	0	M1
TAP	77	336	0
TAP	77	336	7
TAP	78	0	1
TAP	78	48	6
TAP	78	96	0
TAP	78	96	7
TAP	78	144	1
TAP	78	144	6
TTP	78	192	3	B	0	M1
TTP	78	192	3	E	0	M1
TTP	78	192	4	B	0	M1
TTP	78	192	5	E	0	M1
TAP	78	240	0
TAP	78	240	7
TTP	78	288	2	B	0	M1
TTP	78	288	2	E	0	M1
TTP	78	288	5	B	0	M1
TTP	78	288	6	E	0	M1
TAP	78	336	0
TAP	78	336	7
TAP	79	0	3
TAP	79	24	4
TAP	79	48	3
TAP	79	72	4
TAP	79	96	2
TAP	79	120	5
TAP	79	144	2
TAP	79	168	5
TAP	79	192	3
TAP	79	216	4
TAP	79	240	1
TAP	79	264	6
TAP	79	288	2
TAP	79	312	5
TAP	79	336	0
TAP	79	360	0
XTP	80	0	7
TAP	80	16	6
TAP	80	32	5
TAP	80	48	4
TAP	80	64	3
TAP	80	80	2
XTP	80	96	0
TAP	80	112	7
TAP	80	128	6
TAP	80	144	5
TAP	80	160	4
TAP	80	176	3
STR	80	192	2
SI_	80	192	2	96	48	6
TAP	80	240	2
TAP	80	288	5
TAP	80	336	4
TAP	81	0	3
TAP	81	24	3
TAP	81	48	4
TAP	81	72	4
TAP	81	96	2
TAP	81	120	2
TAP	81	144	5
TAP	81	168	5
TAP	81	192	1
TAP	81	216	1
TAP	81	240	6
TAP	81	264	6
TAP	81	288	0
TAP	81	312	0
TAP	81	336	7
TAP	81	360	7
TTP	82	0	2	E	0	M1
TTP	82	16	2	B	0	M1
TTP	82	32	3	B	0	M1
TTP	82	48	6	E	0	M1
TTP	82	64	5	B	0	M1
TTP	82	80	4	B	0	M1
TTP	82	96	1	E	0	M1
TTP	82	112	1	B	0	M1
TTP	82	128	2	B	0	M1
TTP	82	144	7	E	0	M1
TTP	82	160	6	B	0	M1
TTP	82	176	5	B	0	M1
TAP	82	192	0
TAP	82	216	7
TAP	82	240	0
TAP	82	264	7
BRK	82	288	0
BRK	83	0	1
BRK	83	0	5
TAP	83	32	0
TAP	83	64	7
BRK	83	96	2
BRK	83	96	6
TAP	83	128	3
TAP	83	160	4
BRK	83	192	1
BRK	83	192	5

T_REC_TAP	582
T_REC_BRK	21
T_REC_XTP	28
T_REC_HLD	5
T_REC_XHO	0
T_REC_STR	75
T_REC_BST	0
T_REC_XST	0
T_REC_TTP	98
T_REC_THO	0
T_REC_SLD	75
T_REC_ALL	884
T_NUM_TAP	783
T_NUM_BRK	21
T_NUM_HLD	5
T_NUM_SLD	75
T_NUM_ALL	884
T_JUDGE_TAP	804
T_JUDGE_HLD	75
T_JUDGE_SLD	75
T_JUDGE_ALL	954
TTM_EACHPAIRS	97
TTM_SCR_TAP	391500
TTM_SCR_BRK	54600
TTM_SCR_HLD	5000
TTM_SCR_SLD	112500
TTM_SCR_ALL	563600
TTM_SCR_S	544700
TTM_SCR_SS	561500
TTM_RAT_ACV	10037

