VERSION	0.00.00	1.03.00
FES_MODE	0
BPM_DEF	170.000	170.000	170.000	170.000
MET_DEF	4	4
RESOLUTION	384
CLK_DEF	384
COMPATIBLE_CODE	MA2

BPM	0	0	170.000
MET	0	0	4	4

XTP	2	0	2
XTP	2	0	3
XTP	2	72	4
XTP	2	72	5
XST	2	144	3
SI_	2	144	3	96	72	0
XST	2	144	4
SI_	2	144	4	96	72	7
XTP	2	192	3
XTP	2	192	4
TAP	3	0	1
TAP	3	0	6
TAP	3	96	2
TAP	3	192	3
TAP	3	288	2
TAP	3	288	4
TAP	4	0	5
TAP	4	48	5
TAP	4	96	4
TAP	4	192	3
TAP	4	192	6
TAP	4	288	1
TAP	4	288	5
TAP	5	0	3
TAP	5	0	6
TAP	5	96	5
TAP	5	192	4
TAP	5	288	3
TAP	5	288	5
TAP	6	0	2
TAP	6	48	2
TAP	6	96	3
TAP	6	192	1
TAP	6	192	4
TAP	6	288	2
TAP	6	288	6
TAP	7	0	3
TAP	7	48	3
HLD	7	96	5	96
TAP	7	192	4
TAP	7	288	3
TAP	7	288	6
TAP	8	0	4
TAP	8	48	4
HLD	8	96	2	96
TAP	8	192	3
TAP	8	288	1
TAP	8	288	4
TAP	9	0	3
TAP	9	48	3
HLD	9	96	4	96
TAP	9	192	3
TAP	9	288	1
TAP	9	288	6
TAP	10	0	3
TAP	10	0	4
TAP	10	72	3
TAP	10	72	4
XST	10	144	1
SCR	10	144	1	96	48	3
XST	10	144	6
SCL	10	144	6	96	48	4
XTP	10	192	1
XTP	10	192	6
BRK	11	0	1
BRK	11	0	6
BRK	11	48	1
BRK	11	48	6
TTP	11	288	0	B	0	M1
TTP	11	288	1	E	0	M1
TTP	11	288	7	B	0	M1
TTP	11	288	7	E	0	M1
HLD	12	0	3	96
HLD	12	0	4	96
HLD	12	192	2	96
TAP	12	288	3
TAP	13	0	1
TAP	13	0	4
TAP	13	48	1
TAP	13	48	4
HLD	13	192	5	96
TAP	13	288	4
TAP	14	0	3
TAP	14	0	6
TAP	14	48	3
TAP	14	48	6
HLD	14	192	0	96
TAP	14	288	7
TAP	15	0	1
TAP	15	0	6
TAP	15	48	1
TAP	15	48	6
TAP	15	192	2
STR	15	192	5
SI_	15	192	5	96	48	3
STR	15	288	1
SI_	15	288	1	96	48	5
XTP	16	0	7
HLD	16	192	5	96
TAP	16	288	4
TAP	17	0	3
TAP	17	0	6
TAP	17	48	3
TAP	17	48	6
HLD	17	192	2	96
TAP	17	288	3
TAP	18	0	1
STR	18	0	4
SCR	18	0	4	96	72	7
STR	18	192	3
SCL	18	192	3	96	72	0
HLD	19	0	7	96
TAP	19	96	0
STR	19	192	2
SI_	19	192	2	96	48	4
TAP	19	192	5
STR	19	288	6
SI_	19	288	6	96	48	2
XTP	20	0	0
XTP	20	72	0
XTP	20	144	1
XTP	20	144	7
XTP	20	216	1
XTP	20	216	7
XST	20	288	2
SCR	20	288	2	96	72	5
XTP	20	288	6
TAP	21	96	6
TAP	21	192	6
TAP	21	192	7
TAP	21	288	0
TAP	21	288	1
STR	22	0	3
SUR	22	0	3	96	192	4
TAP	22	0	4
TAP	23	0	4
TAP	23	0	5
TAP	23	72	4
TAP	23	72	5
HLD	23	144	3	144
HLD	23	144	6	144
TAP	24	0	2
TAP	24	0	3
TAP	24	72	2
TAP	24	72	3
HLD	24	144	1	144
HLD	24	144	4	144
HLD	25	0	6	144
STR	25	96	4
SCL	25	96	4	96	96	1
TAP	25	144	4
HLD	26	0	1	144
STR	26	96	3
SCR	26	96	3	96	96	6
TAP	26	144	3
XHO	27	0	0	96
XHO	27	0	7	96
XTP	27	144	1
XTP	27	144	6
XHO	27	192	1	96
XHO	27	192	6	96
XTP	27	336	2
XTP	27	336	5
XTP	28	0	2
XTP	28	0	5
TTP	28	144	0	C	1	M1
TTP	28	144	1	B	0	M1
TTP	28	144	2	B	0	M1
TTP	28	144	5	B	0	M1
TTP	28	144	6	B	0	M1
BST	29	0	0
SI_	29	0	0	96	48	4
BRK	29	0	7
TAP	29	96	5
TAP	29	192	6
TAP	29	240	6
TAP	29	288	3
STR	29	336	3
SCL	29	336	3	96	48	0
XTP	30	0	7
XTP	30	48	7
TAP	30	144	5
TAP	30	192	5
TAP	30	240	0
TAP	30	288	6
TAP	30	336	6
XTP	31	0	1
XTP	31	48	1
XTP	31	48	7
XTP	31	144	2
XTP	31	144	3
XTP	31	192	2
XTP	31	192	3
XTP	31	288	0
XTP	31	288	5
XST	31	336	0
SI_	31	336	0	96	48	4
XST	31	336	5
SI_	31	336	5	96	48	7
TAP	32	144	2
TAP	32	192	2
TAP	32	240	4
TAP	32	288	1
STR	32	336	1
SCR	32	336	1	96	48	4
TAP	33	48	7
TAP	33	144	5
TAP	33	192	5
TAP	33	240	3
TAP	33	288	6
STR	33	336	6
SCL	33	336	6	96	48	3
TAP	34	48	0
TAP	34	144	2
TAP	34	192	2
TAP	34	192	3
TAP	34	288	1
TAP	34	288	5
STR	35	0	2
SI_	35	0	2	96	48	7
STR	35	0	6
SI_	35	0	6	96	48	3
STR	35	192	0
SI_	35	192	0	96	48	3
STR	35	192	4
SI_	35	192	4	96	48	7
HLD	36	0	6	72
HLD	36	72	0	72
STR	36	144	7
SI_	36	144	7	96	72	3
XTP	36	192	7
XST	37	0	0
SCR	37	0	0	96	576	5
XTP	37	0	6
TAP	37	96	6
TAP	37	192	6
TAP	37	288	6
TAP	38	0	7
TAP	38	96	7
TAP	38	192	7
TAP	38	288	7
TAP	39	0	6
TAP	39	0	7
TAP	39	96	4
TAP	39	96	5
TAP	39	192	2
TAP	39	192	3
TAP	39	288	0
TAP	39	288	1
TAP	40	0	3
TAP	40	0	4
TAP	40	96	1
TAP	40	96	6
XHO	40	192	0	24
XHO	40	240	7	24
XHO	40	288	0	24
XHO	40	336	7	24
TAP	41	0	0
TAP	41	48	0
HLD	41	96	6	96
TAP	41	192	7
TAP	41	288	0
TAP	41	288	5
TAP	42	0	7
TAP	42	48	7
HLD	42	96	1	96
TAP	42	192	0
TAP	42	288	2
TAP	42	288	7
TAP	43	0	0
TAP	43	48	0
HLD	43	96	7	96
TAP	43	192	0
TAP	43	288	1
TAP	43	288	6
TAP	44	0	3
TAP	44	0	4
TAP	44	72	3
TAP	44	72	4
XST	44	144	1
SI_	44	144	1	96	72	4
XST	44	144	6
SI_	44	144	6	96	72	3
XTP	44	192	1
XTP	44	192	6
BRK	45	0	0
BRK	45	0	7
BRK	45	48	0
BRK	45	48	7
HLD	46	0	1	384
HLD	47	0	2	384
HLD	48	0	3	384
HLD	49	0	4	384
HLD	50	0	5	384
HLD	51	0	6	384
HLD	52	0	3	192
HLD	52	192	4	192
STR	53	0	2
SCL	53	0	2	96	192	5
TAP	54	0	4
TAP	54	0	5
TAP	54	72	2
TAP	54	72	3
TAP	54	144	4
TAP	54	144	6
TAP	54	216	1
TAP	54	216	3
STR	54	288	0
SI_	54	288	0	96	72	4
STR	54	288	7
SI_	54	288	7	96	72	3
TAP	54	336	0
TAP	54	336	7
TAP	55	192	2
TAP	55	192	5
TAP	55	288	1
TAP	55	288	6
TAP	56	0	0
STR	56	0	7
SUR	56	0	7	96	192	0
TAP	57	0	0
TAP	57	0	1
TAP	57	72	0
TAP	57	72	1
HLD	57	144	2	144
HLD	57	144	7	144
TAP	58	0	6
TAP	58	0	7
TAP	58	72	6
TAP	58	72	7
HLD	58	144	0	144
HLD	58	144	5	144
TAP	59	0	0
TAP	59	0	1
TAP	59	96	4
TAP	59	96	6
HLD	59	192	2	120
HLD	59	192	3	96
TAP	60	0	6
TAP	60	0	7
TAP	60	96	1
TAP	60	96	3
HLD	60	192	4	96
HLD	60	192	5	120
TAP	61	0	0
TAP	61	0	2
TAP	61	96	5
TAP	61	96	7
HLD	61	192	3	120
HLD	61	192	4	96
THO	62	0	0	192	C	1	M1
TTP	62	0	1	B	0	M1
TTP	62	0	2	B	0	M1
TTP	62	0	5	B	0	M1
TTP	62	0	6	B	0	M1
TAP	63	0	2
TAP	63	0	3
TAP	63	48	2
TAP	63	48	3
TAP	63	96	2
TAP	63	96	3
HLD	63	192	0	72
HLD	63	192	5	96
TAP	64	0	4
TAP	64	0	5
TAP	64	48	4
TAP	64	48	5
TAP	64	96	4
TAP	64	96	5
HLD	64	192	2	96
HLD	64	192	7	72
TAP	65	0	1
TAP	65	48	1
TAP	65	96	6
TAP	65	144	6
XHO	65	192	0	24
XHO	65	240	7	24
XHO	65	288	0	24
XHO	65	336	7	24
THO	66	0	0	192	C	1	M1
BRK	67	0	1
BST	67	0	6
SI_	67	0	6	96	48	2
TAP	67	96	0
TAP	67	192	1
TAP	67	240	1
TAP	67	288	4
STR	67	336	4
SCR	67	336	4	96	48	7
XTP	68	0	0
XTP	68	48	0
TAP	68	144	2
TAP	68	192	2
TAP	68	240	7
TAP	68	288	1
TAP	68	336	1
XTP	69	0	6
XTP	69	48	0
XTP	69	48	6
XTP	69	144	4
XTP	69	144	5
XTP	69	192	4
XTP	69	192	5
XTP	69	288	2
XTP	69	288	7
XST	69	336	2
SI_	69	336	2	96	48	0
XST	69	336	7
SI_	69	336	7	96	48	3
TAP	70	144	6
TAP	70	192	6
TAP	70	240	4
TAP	70	288	5
STR	70	336	5
SCR	70	336	5	96	48	0
TAP	71	48	3
TAP	71	144	1
TAP	71	192	1
TAP	71	240	3
TAP	71	288	2
STR	71	336	2
SCL	71	336	2	96	48	7
TAP	72	48	4
TAP	72	144	6
STR	72	192	6
SI_	72	192	6	96	48	4
STR	72	192	7
SI_	72	192	7	96	48	3
STR	73	0	0
SI_	73	0	0	96	48	4
STR	73	0	1
SI_	73	0	1	96	48	3
STR	73	192	0
SCR	73	192	0	96	48	3
STR	73	192	7
SCL	73	192	7	96	48	4
HLD	74	0	1	72
HLD	74	72	7	72
STR	74	144	0
SI_	74	144	0	96	72	4
XTP	74	192	0
STR	75	0	2
SI_	75	0	2	96	48	7
STR	75	0	6
SI_	75	0	6	96	48	3
HLD	75	192	1	48
HLD	75	288	0	48
HLD	75	288	2	48
HLD	76	0	5	48
HLD	76	96	4	48
HLD	76	96	6	48
HLD	76	192	2	48
HLD	76	288	1	48
HLD	76	288	3	48
TAP	77	0	7
TAP	77	48	7
TAP	77	96	1
TAP	77	144	1
TAP	77	192	5
TAP	77	240	5
TAP	77	288	3
TAP	77	336	3
TAP	78	0	4
TAP	78	48	5
TAP	78	96	6
TAP	78	144	7
TAP	78	192	0
TAP	78	240	1
TAP	78	288	2
TAP	78	336	3
STR	79	0	4
SCR	79	0	4	96	48	7
TAP	79	96	1
STR	79	192	3
SCL	79	192	3	96	48	0
TAP	79	288	6
STR	80	0	5
SI_	80	0	5	96	48	3
STR	80	96	1
SI_	80	96	1	96	48	7
STR	80	192	6
SI_	80	192	6	96	48	2
TAP	81	0	1
TAP	81	48	1
TAP	81	96	3
TAP	81	144	3
TAP	81	192	4
TAP	81	240	4
TAP	81	288	6
TAP	81	336	6
XHO	82	0	0	24
XHO	82	48	7	24
XHO	82	96	0	24
XHO	82	144	7	24
XHO	82	192	1	24
XHO	82	240	6	24
XHO	82	288	1	24
XHO	82	336	6	24
TTP	83	0	2	B	0	M1
TTP	83	0	3	B	0	M1
TTP	83	0	3	E	0	M1
TTP	83	96	6	B	0	M1
TTP	83	96	7	B	0	M1
TTP	83	96	7	E	0	M1
TTP	83	192	0	C	1	M1
TTP	83	192	1	E	0	M1
TTP	83	192	5	E	0	M1

T_REC_TAP	245
T_REC_BRK	10
T_REC_XTP	49
T_REC_HLD	55
T_REC_XHO	20
T_REC_STR	38
T_REC_BST	2
T_REC_XST	12
T_REC_TTP	22
T_REC_THO	2
T_REC_SLD	52
T_REC_ALL	507
T_NUM_TAP	366
T_NUM_BRK	12
T_NUM_HLD	77
T_NUM_SLD	52
T_NUM_ALL	507
T_JUDGE_TAP	378
T_JUDGE_HLD	186
T_JUDGE_SLD	52
T_JUDGE_ALL	616
TTM_EACHPAIRS	121
TTM_SCR_TAP	183000
TTM_SCR_BRK	31200
TTM_SCR_HLD	77000
TTM_SCR_SLD	78000
TTM_SCR_ALL	369200
TTM_SCR_S	357000
TTM_SCR_SS	368000
TTM_RAT_ACV	10032

