VERSION	0.00.00	1.03.00
FES_MODE	0
BPM_DEF	170.000	170.000	170.000	170.000
MET_DEF	4	4
RESOLUTION	384
CLK_DEF	384
COMPATIBLE_CODE	MA2

BPM	0	0	170.000
MET	0	0	4	4

XTP	2	0	3
XTP	2	0	4
XTP	2	96	3
XTP	2	96	4
XTP	2	192	2
XTP	2	192	5
TAP	3	0	1
TAP	3	96	1
TAP	3	192	0
TAP	3	288	0
TAP	4	0	7
TAP	4	96	7
XTP	4	192	0
XTP	4	192	6
TAP	5	0	6
TAP	5	96	6
TAP	5	192	7
TAP	5	288	7
TAP	6	0	0
TAP	6	96	0
TAP	6	192	1
TAP	6	192	7
TAP	7	0	2
TAP	7	96	2
TAP	7	192	3
TAP	7	288	3
TAP	8	0	4
TAP	8	96	4
TAP	8	192	3
TAP	8	192	5
TAP	9	0	5
TAP	9	96	5
TAP	9	192	4
TAP	9	288	4
TAP	10	0	3
TAP	10	0	4
TAP	10	96	3
TAP	10	96	4
TAP	10	192	2
TAP	10	192	5
BRK	11	0	1
BRK	11	0	6
HLD	12	0	2	96
TAP	12	96	3
TAP	12	192	3
HLD	13	0	5	96
TAP	13	96	4
TAP	13	192	4
HLD	14	0	2	96
TAP	14	96	3
TAP	14	192	3
HLD	15	0	4	96
HLD	15	0	5	96
TAP	15	192	4
TAP	15	192	5
HLD	16	0	6	96
TAP	16	96	7
TAP	16	192	7
HLD	17	0	1	96
TAP	17	96	0
TAP	17	192	0
HLD	18	0	6	96
TAP	18	96	7
TAP	18	192	7
HLD	19	0	0	96
HLD	19	0	1	96
TAP	19	192	0
TAP	19	192	1
TAP	20	0	7
TAP	20	96	7
TAP	20	192	0
TAP	20	288	0
BST	21	0	1
SI_	21	0	1	96	144	4
BST	21	0	6
SI_	21	0	6	96	144	3
XTP	22	0	2
XTP	22	0	5
XTP	22	96	1
XTP	22	96	6
XTP	22	192	0
XTP	22	192	7
STR	23	0	6
SCL	23	0	6	96	144	3
STR	24	0	2
SCL	24	0	2	96	144	7
STR	25	0	6
SCL	25	0	6	96	144	3
STR	26	0	2
SCL	26	0	2	96	144	7
TAP	27	0	6
TAP	27	96	6
TAP	27	192	7
TAP	27	288	7
XTP	28	0	0
XTP	28	0	7
BRK	29	0	1
TAP	29	96	0
TAP	29	96	1
TAP	29	192	6
TAP	29	288	6
TAP	29	288	7
TAP	30	0	5
TAP	30	96	4
TAP	30	96	5
TAP	30	192	2
TAP	30	288	2
TAP	30	288	3
TAP	31	0	1
TAP	31	96	1
TAP	31	192	0
TAP	31	288	0
TAP	32	0	7
TAP	32	96	7
TAP	32	192	0
TAP	32	192	6
TAP	33	0	5
TAP	33	96	4
TAP	33	96	5
TAP	33	192	2
TAP	33	288	2
TAP	33	288	3
TAP	34	0	1
TAP	34	96	0
TAP	34	96	1
TAP	34	192	6
TAP	34	288	6
TAP	34	288	7
TAP	35	0	5
TAP	35	96	5
TAP	35	192	4
TAP	35	288	4
TAP	36	0	3
TAP	36	96	3
TAP	36	192	3
TAP	36	192	4
TAP	36	288	3
TAP	36	288	4
BST	37	0	2
SLL	37	0	2	96	384	4
BST	37	0	5
SLR	37	0	5	96	384	3
TAP	39	0	2
TAP	39	96	2
TAP	39	192	3
TAP	39	288	3
TAP	40	0	4
TAP	40	96	4
TAP	40	192	3
TAP	40	192	5
TAP	41	0	6
TAP	41	96	6
TAP	41	192	7
TAP	41	288	7
TAP	42	0	0
TAP	42	96	0
TAP	42	192	1
TAP	42	192	7
TAP	43	0	2
TAP	43	96	2
TAP	43	192	3
TAP	43	288	3
TAP	44	0	3
TAP	44	0	4
TAP	44	96	3
TAP	44	96	4
XTP	44	192	2
XTP	44	192	5
TTP	45	0	0	C	1	L1
TTP	46	0	0	B	0	L1
TTP	46	0	1	B	0	L1
TTP	47	0	2	B	0	L1
TTP	47	0	3	B	0	L1
TTP	48	0	4	B	0	L1
TTP	48	0	5	B	0	L1
TTP	49	0	6	B	0	L1
TTP	49	0	7	B	0	L1
TTP	50	0	0	B	0	L1
TTP	50	192	1	B	0	L1
TTP	51	0	2	B	0	L1
TTP	51	192	3	B	0	L1
TTP	52	0	4	B	0	L1
TTP	52	192	5	B	0	L1
TTP	53	0	6	B	0	L1
TTP	53	192	7	B	0	L1
TTP	54	0	0	C	1	L1
TTP	54	0	1	B	0	L1
TTP	54	0	6	B	0	L1
XTP	55	0	0
TAP	55	96	0
TAP	55	192	7
TAP	55	288	7
TAP	56	0	0
TAP	56	0	7
TAP	56	96	0
TAP	56	96	7
XTP	56	192	1
XTP	56	192	6
STR	57	0	6
SI_	57	0	6	96	144	3
STR	57	0	7
SI_	57	0	7	96	144	2
STR	58	0	0
SI_	58	0	0	96	144	5
STR	58	0	1
SI_	58	0	1	96	144	4
XTP	59	0	3
XTP	59	0	6
STR	60	0	6
SV_	60	0	6	96	192	3
STR	61	0	2
SV_	61	0	2	96	192	7
XTP	62	0	6
TAP	62	96	0
TAP	62	96	7
XTP	62	192	1
XTP	62	192	6
TTP	63	0	3	E	0	L1
TTP	63	96	2	B	0	L1
TTP	63	192	1	B	0	L1
TTP	64	0	5	E	0	L1
TTP	64	96	5	B	0	L1
TTP	64	192	6	B	0	L1
TTP	65	0	2	B	0	L1
TTP	65	96	3	B	0	L1
TTP	65	192	4	B	0	L1
TTP	65	288	5	B	0	L1
TTP	66	0	0	C	1	L1
XTP	67	0	6
TAP	67	96	6
TAP	67	96	7
TAP	67	192	1
TAP	67	288	0
TAP	67	288	1
TAP	68	0	2
TAP	68	96	2
TAP	68	96	3
TAP	68	192	5
TAP	68	288	4
TAP	68	288	5
TAP	69	0	6
TAP	69	96	6
TAP	69	192	7
TAP	69	288	7
TAP	70	0	6
TAP	70	0	7
TAP	70	96	6
TAP	70	96	7
XTP	70	192	0
XTP	70	192	5
TAP	71	0	1
TAP	71	96	0
TAP	71	96	1
TAP	71	192	6
TAP	71	288	6
TAP	71	288	7
TAP	72	0	5
TAP	72	96	4
TAP	72	96	5
TAP	72	192	2
TAP	72	288	2
TAP	72	288	3
TAP	73	0	1
TAP	73	96	1
TAP	73	192	0
TAP	73	288	0
TAP	74	0	0
TAP	74	0	7
TAP	74	96	0
TAP	74	96	7
TAP	74	192	1
TAP	74	192	6
TAP	74	288	1
TAP	74	288	6
XHO	75	0	5	192
HLD	75	192	4	192
HLD	76	0	3	192
TAP	76	192	2
HLD	77	0	1	192
HLD	77	192	0	192
HLD	78	0	7	192
TAP	78	192	6
XTP	79	0	5
TAP	79	96	5
TAP	79	192	4
TAP	79	288	4
TAP	80	0	3
TAP	80	96	3
TAP	80	192	2
TAP	80	288	2
TAP	81	0	1
TAP	81	96	1
TAP	81	192	0
TAP	81	288	0
TAP	82	0	7
TAP	82	96	7
TAP	82	192	6
TAP	82	288	6
XTP	83	0	3
XTP	83	0	5
XTP	83	96	2
XTP	83	96	4
BRK	83	192	1
BRK	83	192	6

T_REC_TAP	190
T_REC_BRK	5
T_REC_XTP	34
T_REC_HLD	15
T_REC_XHO	1
T_REC_STR	10
T_REC_BST	4
T_REC_XST	0
T_REC_TTP	31
T_REC_THO	0
T_REC_SLD	14
T_REC_ALL	304
T_NUM_TAP	265
T_NUM_BRK	9
T_NUM_HLD	16
T_NUM_SLD	14
T_NUM_ALL	304
T_JUDGE_TAP	274
T_JUDGE_HLD	44
T_JUDGE_SLD	14
T_JUDGE_ALL	332
TTM_EACHPAIRS	62
TTM_SCR_TAP	132500
TTM_SCR_BRK	23400
TTM_SCR_HLD	16000
TTM_SCR_SLD	21000
TTM_SCR_ALL	192900
TTM_SCR_S	186250
TTM_SCR_SS	192000
TTM_RAT_ACV	10046

