VERSION	0.00.00	1.03.00
FES_MODE	0
BPM_DEF	170.000	170.000	170.000	170.000
MET_DEF	4	4
RESOLUTION	384
CLK_DEF	384
COMPATIBLE_CODE	MA2

BPM	0	0	170.000
MET	0	0	4	4

TAP	3	0	0
TAP	5	0	0
TAP	7	0	7
TAP	9	0	7
XTP	11	0	0
XTP	11	0	7
TAP	12	0	0
TAP	12	192	0
TAP	13	0	0
TAP	14	0	1
TAP	14	192	1
TAP	15	0	1
TAP	16	0	2
TAP	16	192	2
TAP	17	0	2
TAP	18	0	3
TAP	18	192	3
TAP	19	0	3
TAP	19	0	4
HLD	20	0	3	384
HLD	20	0	4	384
XTP	22	0	3
XTP	22	0	4
TTP	23	0	4	B	0	L1
TTP	24	0	3	B	0	L1
TTP	25	0	5	B	0	L1
TTP	26	0	2	B	0	L1
TTP	27	0	6	B	0	L1
TTP	28	0	0	C	1	L1
XTP	29	0	7
TAP	29	192	7
TAP	30	0	6
TAP	30	96	6
TAP	30	192	6
TAP	31	0	5
TAP	31	192	5
TAP	32	0	4
TAP	32	96	4
TAP	32	192	3
TAP	32	192	4
TAP	33	0	3
TAP	33	192	3
TAP	34	0	2
TAP	34	96	2
TAP	34	192	2
TAP	35	0	1
TAP	35	192	1
TAP	36	0	0
TAP	36	96	0
TAP	36	192	0
TAP	36	192	7
STR	37	0	7
SI_	37	0	7	96	288	4
STR	39	0	0
SI_	39	0	0	96	288	3
STR	41	0	4
SI_	41	0	4	96	288	7
STR	43	0	0
SI_	43	0	0	96	288	3
XTP	45	0	3
XTP	45	0	4
HLD	46	0	4	384
HLD	46	0	5	384
HLD	48	0	2	384
HLD	48	0	3	384
HLD	50	0	0	384
HLD	50	0	1	384
HLD	52	0	6	384
HLD	52	0	7	384
TAP	54	0	0
TAP	54	192	0
HLD	55	0	0	384
HLD	55	0	7	384
STR	57	0	0
SI_	57	0	0	96	288	4
STR	59	0	7
SI_	59	0	7	96	288	3
STR	61	0	1
SI_	61	0	1	96	288	4
TTP	63	0	5	B	0	L1
TTP	63	0	5	E	0	L1
TTP	64	0	2	B	0	L1
TTP	64	0	3	E	0	L1
THO	65	0	0	384	C	0	L1
XTP	67	0	0
TAP	67	96	0
TAP	67	192	0
TAP	68	0	1
TAP	68	96	1
TAP	68	192	1
TAP	69	0	2
TAP	69	96	2
TAP	69	192	2
TAP	70	0	3
TAP	70	96	3
TAP	70	192	3
TAP	70	192	4
TAP	71	0	4
TAP	71	96	4
TAP	71	192	4
TAP	72	0	5
TAP	72	96	5
TAP	72	192	5
TAP	73	0	6
TAP	73	96	6
TAP	73	192	6
TAP	74	0	7
TAP	74	96	7
XTP	74	192	0
XTP	74	192	7
TAP	75	0	7
TAP	75	96	7
TAP	75	192	6
TAP	75	288	6
TAP	76	0	5
TAP	76	96	5
TAP	76	192	4
TAP	76	192	5
TAP	77	0	3
TAP	77	96	3
TAP	77	192	2
TAP	77	288	2
TAP	78	0	1
TAP	78	96	1
TAP	78	192	0
TAP	78	192	1
TAP	79	0	7
TAP	79	96	7
TAP	79	192	6
TAP	79	192	7
TAP	80	0	0
TAP	80	96	0
TAP	80	192	0
TAP	80	192	1
TAP	81	0	2
TAP	81	96	2
TAP	81	192	2
TAP	81	192	3
TAP	82	0	4
TAP	82	96	4
TAP	82	192	4
TAP	82	192	5
TAP	83	0	3
TAP	83	0	4
TAP	83	96	3
TAP	83	96	4
BRK	83	192	2
BRK	83	192	5

T_REC_TAP	99
T_REC_BRK	2
T_REC_XTP	10
T_REC_HLD	12
T_REC_XHO	0
T_REC_STR	7
T_REC_BST	0
T_REC_XST	0
T_REC_TTP	10
T_REC_THO	1
T_REC_SLD	7
T_REC_ALL	148
T_NUM_TAP	126
T_NUM_BRK	2
T_NUM_HLD	13
T_NUM_SLD	7
T_NUM_ALL	148
T_JUDGE_TAP	128
T_JUDGE_HLD	104
T_JUDGE_SLD	7
T_JUDGE_ALL	239
TTM_EACHPAIRS	23
TTM_SCR_TAP	63000
TTM_SCR_BRK	5200
TTM_SCR_HLD	13000
TTM_SCR_SLD	10500
TTM_SCR_ALL	91700
TTM_SCR_S	88800
TTM_SCR_SS	91500
TTM_RAT_ACV	10021

