VERSION	0.00.00	1.03.00
FES_MODE	0
BPM_DEF	135.000	135.000	135.000	135.000
MET_DEF	4	4
RESOLUTION	384
CLK_DEF	384
COMPATIBLE_CODE	MA2

BPM	0	0	135.000
MET	0	0	4	4

HLD	2	0	5	72
TAP	2	72	4
TAP	2	192	3
TAP	2	240	3
TAP	2	288	4
HLD	3	0	4	72
TAP	3	72	3
HLD	3	192	2	72
TAP	3	192	3
TAP	3	264	3
HLD	4	0	2	72
TAP	4	72	3
TAP	4	192	4
TAP	4	240	4
TAP	4	288	3
HLD	5	0	3	72
TAP	5	72	4
TAP	5	192	4
HLD	5	192	5	72
TAP	5	264	4
TAP	6	0	3
TAP	6	0	5
TAP	6	72	3
HLD	6	72	5	216
TAP	6	192	4
TAP	6	240	4
TAP	6	288	3
HLD	7	0	4	72
TAP	7	72	3
HLD	7	192	2	72
TAP	7	192	3
TAP	7	264	3
TAP	8	0	2
TAP	8	0	4
HLD	8	72	2	216
TAP	8	72	4
TAP	8	192	3
TAP	8	240	3
TAP	8	288	4
HLD	9	0	3	72
TAP	9	72	4
TAP	9	192	2
TAP	9	192	5
TAP	9	240	2
TAP	9	240	5
STR	9	288	3
SI_	9	288	3	96	36	0
STR	9	288	4
SI_	9	288	4	96	36	7
TAP	9	336	3
TAP	9	336	4
TTP	10	0	4	E	0	M1
TTP	10	12	0	C	1	M1
TTP	10	24	0	E	0	M1
STR	10	96	6
SI_	10	96	6	96	48	3
TAP	10	144	6
STR	10	192	1
SI_	10	192	1	96	48	5
TAP	10	240	1
STR	10	288	0
SI_	10	288	0	96	48	3
TAP	10	336	0
STR	11	0	1
SI_	11	0	1	96	48	5
TAP	11	48	1
STR	11	96	6
SI_	11	96	6	96	48	3
TAP	11	144	6
STR	11	192	1
SI_	11	192	1	96	48	5
TAP	11	240	1
TAP	11	288	7
STR	12	0	6
SI_	12	0	6	96	48	2
TAP	12	48	6
STR	12	96	3
SI_	12	96	3	96	48	0
TAP	12	144	3
STR	12	192	6
SI_	12	192	6	96	48	2
TAP	12	240	6
STR	12	288	5
SI_	12	288	5	96	48	0
TAP	12	336	5
STR	13	0	6
SI_	13	0	6	96	48	2
TAP	13	48	6
STR	13	96	3
SI_	13	96	3	96	48	0
TAP	13	144	3
TAP	13	192	7
TAP	13	240	7
XTP	13	288	1
XTP	13	288	6
BRK	13	336	0
STR	14	0	6
SI_	14	0	6	96	48	2
TAP	14	48	6
STR	14	96	1
SI_	14	96	1	96	48	4
TAP	14	144	1
STR	14	192	6
SI_	14	192	6	96	48	2
TAP	14	240	6
STR	14	288	7
SI_	14	288	7	96	48	4
TAP	14	336	7
STR	15	0	6
SI_	15	0	6	96	48	2
TAP	15	48	6
STR	15	96	1
SI_	15	96	1	96	48	4
TAP	15	144	1
STR	15	192	6
SI_	15	192	6	96	48	2
TAP	15	240	6
TAP	15	288	0
STR	16	0	5
SI_	16	0	5	96	48	1
SI_	16	0	5	96	48	7
TAP	16	48	5
XTP	16	96	5
STR	16	192	2
SI_	16	192	2	96	48	0
SI_	16	192	2	96	48	6
TAP	16	240	2
XTP	16	288	2
STR	17	0	1
SXL	17	0	1	96	48	3
STR	17	0	5
SXR	17	0	5	96	48	3
TAP	17	48	1
TAP	17	48	5
XTP	17	96	1
XTP	17	96	5
STR	17	192	1
SI_	17	192	1	96	48	5
STR	17	192	7
SI_	17	192	7	96	48	3
TAP	17	240	1
TAP	17	240	7
XTP	17	288	1
XTP	17	288	7
BRK	18	0	2
BRK	18	0	6
TAP	18	48	1
TAP	18	72	3
TAP	18	96	2
TAP	18	120	3
TAP	18	144	2
TAP	18	168	3
TAP	18	192	1
TAP	18	216	3
TAP	18	240	2
TAP	18	264	3
XTP	18	288	0
XTP	18	336	1
XTP	18	336	7
XTP	19	0	7
XTP	19	48	0
XTP	19	48	6
TAP	19	96	5
TAP	19	120	4
TAP	19	144	5
TAP	19	168	4
XTP	19	192	7
XTP	19	240	0
XTP	19	240	6
TAP	19	288	1
TAP	19	288	5
TAP	19	336	1
TAP	19	360	3
TAP	20	0	2
TAP	20	24	5
TAP	20	48	4
TAP	20	72	6
TAP	20	96	1
TAP	20	120	3
HLD	20	144	2	48
XTP	20	192	0
TAP	20	288	6
TAP	20	312	3
TAP	20	336	5
TAP	20	360	4
TAP	21	0	7
TAP	21	24	0
TAP	21	48	6
TAP	21	72	1
TAP	21	96	3
TAP	21	120	2
TAP	21	144	4
TAP	21	168	1
TAP	21	192	5
TAP	21	216	4
TAP	21	240	6
TAP	21	264	3
TAP	21	288	7
HLD	21	312	0	48
TAP	21	360	3
TAP	22	24	1
TAP	22	48	0
XTP	22	96	2
XTP	22	96	7
TAP	22	144	1
TAP	22	168	3
TAP	22	192	2
TAP	22	216	3
XTP	22	240	1
XTP	22	288	1
XTP	22	288	7
TAP	22	336	6
TAP	22	360	4
TAP	23	0	5
TAP	23	24	3
TAP	23	48	4
TAP	23	72	2
TAP	23	96	3
TAP	23	120	1
TAP	23	144	3
XTP	23	192	6
XTP	23	192	7
XTP	23	240	0
XTP	23	240	7
TAP	23	288	1
TAP	23	312	3
TAP	23	336	2
TAP	23	360	4
TAP	24	0	3
TAP	24	24	5
TAP	24	48	4
TAP	24	72	6
HLD	24	96	4	48
TAP	24	144	0
XTP	24	192	0
XTP	24	192	1
XTP	24	240	0
XTP	24	240	7
TAP	24	288	6
TAP	24	312	4
TAP	24	336	5
TAP	24	360	1
TAP	25	0	3
TAP	25	24	2
TAP	25	48	7
TAP	25	72	5
TAP	25	96	6
TAP	25	120	0
TAP	25	144	2
TAP	25	168	1
TAP	25	192	6
TAP	25	216	4
HLD	25	240	5	48
BRK	25	288	0
BRK	25	336	1
BRK	25	336	6
STR	26	0	4
SCR	26	0	4	96	96	7
STR	26	192	3
SCL	26	192	3	96	96	0
STR	27	0	4
SUL	27	0	4	96	144	3
XTP	27	288	0
STR	28	0	4
SI_	28	0	4	96	96	7
STR	28	192	3
SI_	28	192	3	96	96	0
STR	29	0	4
SV_	29	0	4	96	72	3
TAP	29	192	1
TAP	29	224	3
TAP	29	256	2
TAP	29	288	6
TAP	29	320	4
TAP	29	352	5
TAP	30	0	0
STR	30	0	4
SCR	30	0	4	96	192	7
TTP	30	96	0	E	0	M1
TTP	30	192	1	E	0	M1
TTP	30	288	2	E	0	M1
STR	31	0	3
SCL	31	0	3	96	192	0
TAP	31	0	7
TTP	31	96	0	E	0	M1
TTP	31	192	7	E	0	M1
TTP	31	288	6	E	0	M1
TTP	32	0	3	B	0	M1
TTP	32	0	4	E	0	M1
TTP	32	48	0	E	0	M1
TTP	32	48	7	B	0	M1
TTP	32	96	5	B	0	M1
TTP	32	96	6	E	0	M1
TTP	32	144	1	B	0	M1
TTP	32	144	2	E	0	M1
TTP	32	192	6	B	0	M1
TTP	32	192	7	E	0	M1
TTP	32	240	0	B	0	M1
TTP	32	240	1	E	0	M1
TTP	32	288	4	B	0	M1
TTP	32	288	5	E	0	M1
TTP	32	336	2	B	0	M1
TTP	32	336	3	E	0	M1
TTP	33	0	6	B	0	M1
TTP	33	24	0	B	0	M1
TTP	33	48	4	B	0	M1
TTP	33	72	2	B	0	M1
TTP	33	96	7	B	0	M1
TTP	33	120	1	B	0	M1
TTP	33	144	5	B	0	M1
TTP	33	168	3	B	0	M1
TTP	33	192	0	C	1	M1
STR	33	288	0
SI_	33	288	0	96	36	5
STR	34	0	0
SI_	34	0	0	96	36	3
TAP	34	0	2
TAP	34	96	0
TAP	34	96	6
TAP	34	192	6
TAP	34	216	7
TAP	34	264	1
TAP	34	288	0
TAP	34	336	2
TAP	34	336	3
STR	35	0	4
SCR	35	0	4	96	96	2
TAP	35	0	5
TAP	35	48	6
HLD	35	96	7	72
TAP	35	240	7
TAP	35	288	1
TAP	35	288	5
STR	36	0	7
SCL	36	0	7	96	36	4
STR	36	48	7
SCR	36	48	7	96	36	2
XTP	36	96	7
XTP	36	144	7
STR	36	192	3
SF_	36	192	3	96	36	7
TAP	36	240	3
XTP	36	288	3
XTP	37	0	0
XTP	37	0	7
XTP	37	12	1
XTP	37	24	2
XHO	37	36	3	60
XTP	37	96	0
XTP	37	108	1
XTP	37	120	2
XHO	37	132	3	60
XTP	37	192	0
XTP	37	204	1
XTP	37	216	2
XHO	37	228	3	60
STR	37	288	7
SI_	37	288	7	96	36	2
TAP	38	0	5
STR	38	0	7
SI_	38	0	7	96	36	4
TAP	38	96	1
TAP	38	96	7
TAP	38	192	2
TAP	38	216	3
TAP	38	264	5
TAP	38	288	4
TAP	38	336	6
TAP	38	336	7
TAP	39	0	0
TAP	39	48	1
HLD	39	48	3	144
TTP	39	96	3	E	0	M1
TTP	39	108	4	E	0	M1
TTP	39	120	5	E	0	M1
TTP	39	132	6	E	0	M1
TTP	39	144	7	E	0	M1
TTP	39	156	0	E	0	M1
TTP	39	168	1	E	0	M1
TTP	39	180	2	E	0	M1
TTP	39	192	3	E	0	M1
TAP	39	240	0
TAP	39	288	2
TAP	39	288	6
TAP	40	0	1
TAP	40	0	4
TAP	40	48	2
TAP	40	72	3
TAP	40	120	3
TAP	40	144	0
TAP	40	192	3
TAP	40	192	6
TAP	40	240	5
TAP	40	264	4
TAP	40	312	4
TAP	40	336	7
XTP	41	0	0
XTP	41	0	7
XTP	41	12	6
XTP	41	24	5
XHO	41	36	4	60
XTP	41	96	7
XTP	41	108	6
XTP	41	120	5
XHO	41	132	4	60
XTP	41	192	7
XTP	41	204	6
XTP	41	216	5
XHO	41	228	4	60
BST	41	288	0
SCL	41	288	0	96	36	5
STR	42	0	0
SCR	42	0	0	96	36	3
TAP	42	0	2
TAP	42	96	0
TAP	42	96	6
TAP	42	192	1
TAP	42	216	0
TAP	42	264	6
TAP	42	288	7
TAP	42	336	4
TAP	42	336	5
TAP	43	0	2
STR	43	0	3
SCL	43	0	3	96	96	5
TAP	43	48	1
HLD	43	96	0	72
TAP	43	240	0
TAP	43	288	2
TAP	43	288	6
TAP	44	0	1
TAP	44	24	3
TAP	44	48	2
TAP	44	96	6
TAP	44	96	7
TAP	44	144	0
TAP	44	144	1
TAP	44	192	2
TAP	44	192	7
TAP	44	240	5
TAP	44	264	4
TAP	44	288	3
TAP	44	288	6
BRK	44	336	0
BRK	44	336	7
XTP	45	0	0
XTP	45	0	7
XTP	45	12	1
XTP	45	24	2
XHO	45	36	3	60
XTP	45	96	0
XTP	45	108	1
XTP	45	120	2
XHO	45	132	3	60
XTP	45	192	0
XTP	45	204	1
XTP	45	216	2
XHO	45	228	3	60
STR	45	288	7
SCR	45	288	7	96	36	2
TAP	46	0	5
STR	46	0	7
SCL	46	0	7	96	36	4
TAP	46	96	1
TAP	46	96	7
TAP	46	192	6
TAP	46	216	7
TAP	46	264	1
TAP	46	288	0
TAP	46	336	2
TAP	46	336	3
STR	47	0	4
SCR	47	0	4	96	72	2
TAP	47	0	5
TAP	47	48	6
HLD	47	96	7	192
TTP	47	192	4	E	0	M1
TTP	47	204	5	E	0	M1
TTP	47	216	6	E	0	M1
TTP	47	228	7	E	0	M1
TTP	47	240	0	E	0	M1
TTP	47	252	1	E	0	M1
TTP	47	264	2	E	0	M1
TTP	47	276	3	E	0	M1
TTP	47	288	4	E	0	M1
STR	48	0	2
SI_	48	0	2	96	36	7
STR	48	0	6
SI_	48	0	6	96	36	3
TAP	48	96	2
TAP	48	96	6
STR	48	192	1
SI_	48	192	1	96	36	4
STR	48	192	5
SI_	48	192	5	96	36	0
STR	48	288	1
SCL	48	288	1	96	192	2
STR	48	288	5
SUL	48	288	5	96	192	2
BRK	49	288	0
STR	50	0	4
SCR	50	0	4	96	72	6
STR	50	192	3
SCL	50	192	3	96	72	1
STR	51	0	6
SUL	51	0	6	96	192	4
STR	52	0	2
SCR	52	0	2	96	96	5
STR	52	192	6
SUL	52	192	6	96	96	1
TTP	53	0	0	E	0	M1
TTP	53	96	4	E	0	M1
TTP	53	192	0	C	0	M1
STR	54	0	3
SCL	54	0	3	96	72	1
STR	54	192	4
SCR	54	192	4	96	72	6
STR	55	0	1
SUR	55	0	1	96	192	3
STR	56	0	5
SCL	56	0	5	96	96	2
STR	56	192	1
SUR	56	192	1	96	96	6
STR	57	0	7
SCL	57	0	7	96	192	1
BRK	57	240	0
BRK	57	288	0
STR	58	0	5
SLL	58	0	5	96	192	6
TTP	58	96	1	E	0	M1
TTP	58	192	0	C	0	M1
TTP	58	288	5	E	0	M1
STR	59	0	2
SLR	59	0	2	96	192	1
TTP	59	96	7	E	0	M1
TTP	59	192	0	C	0	M1
TTP	59	288	3	E	0	M1
STR	60	0	5
SCL	60	0	5	96	96	2
TTP	60	96	4	E	0	M1
STR	60	192	1
SUR	60	192	1	96	96	6
TTP	60	288	0	C	0	M1
TTP	61	0	0	E	0	M1
TTP	61	96	4	E	0	M1
TTP	61	192	0	C	0	M1
BRK	61	288	7
STR	62	0	2
SLR	62	0	2	96	192	1
TTP	62	96	7	E	0	M1
TTP	62	192	0	C	0	M1
TTP	62	288	3	E	0	M1
STR	63	0	5
SLL	63	0	5	96	192	6
TTP	63	96	1	E	0	M1
TTP	63	192	0	C	0	M1
TTP	63	288	5	E	0	M1
BRK	64	0	2
HLD	64	0	6	96
XTP	64	96	2
BRK	64	192	1
HLD	64	192	5	96
XTP	64	288	1
BRK	65	0	0
TAP	65	0	4
XST	65	96	0
SI_	65	96	0	96	36	3
STR	65	96	4
SI_	65	96	4	96	36	7
BRK	65	192	0
BRK	65	192	4
TAP	65	288	2
TAP	65	288	6
TAP	66	0	3
HLD	66	0	4	96
BRK	66	96	0
TAP	66	192	5
TAP	66	216	4
TAP	66	264	2
TAP	66	288	3
TAP	66	336	0
TAP	66	336	1
TAP	67	0	2
STR	67	0	3
SCL	67	0	3	96	72	5
TAP	67	48	4
TAP	67	48	6
HLD	67	96	7	72
TAP	67	240	7
BRK	67	288	1
BRK	67	288	5
STR	68	0	0
SCR	68	0	0	96	36	3
STR	68	48	0
SCL	68	48	0	96	36	5
XTP	68	96	0
XTP	68	144	0
STR	68	192	4
SF_	68	192	4	96	36	0
TAP	68	240	4
XTP	68	288	4
XTP	69	0	2
XTP	69	0	7
XTP	69	12	3
XTP	69	24	4
XTP	69	96	2
XTP	69	96	7
XTP	69	108	3
XTP	69	120	4
XTP	69	192	2
XTP	69	192	7
XTP	69	204	3
XTP	69	216	4
BST	69	288	1
SCL	69	288	1	96	36	7
BST	69	288	5
SCL	69	288	5	96	36	3
STR	70	0	1
SUR	70	0	1	96	36	5
STR	70	0	5
SUR	70	0	5	96	36	1
TAP	70	96	1
TAP	70	96	5
TAP	70	192	5
TAP	70	216	4
TAP	70	264	2
TAP	70	288	3
TAP	70	336	0
TAP	70	336	1
TAP	71	0	2
TAP	71	0	3
TAP	71	48	4
HLD	71	48	6	144
TTP	71	96	3	E	0	M1
TTP	71	108	2	E	0	M1
TTP	71	120	1	E	0	M1
TTP	71	132	0	E	0	M1
TTP	71	144	7	E	0	M1
TTP	71	156	6	E	0	M1
TTP	71	168	5	E	0	M1
TTP	71	180	4	E	0	M1
TTP	71	192	3	E	0	M1
TAP	71	240	7
BRK	71	288	1
BRK	71	288	5
TAP	72	0	3
TAP	72	0	6
TAP	72	48	5
TAP	72	72	4
TAP	72	120	4
TAP	72	144	7
TAP	72	192	1
TAP	72	192	4
TAP	72	240	2
TAP	72	264	3
TAP	72	312	3
TAP	72	336	0
XTP	73	0	0
XTP	73	0	5
XTP	73	12	4
XTP	73	24	3
XTP	73	96	0
XTP	73	96	5
XTP	73	108	4
XTP	73	120	3
XTP	73	192	0
XTP	73	192	5
XTP	73	204	4
XTP	73	216	3
BST	73	288	3
SCL	73	288	3	96	36	1
BST	73	288	7
SCL	73	288	7	96	36	5
STR	74	0	3
SUR	74	0	3	96	36	7
STR	74	0	7
SUR	74	0	7	96	36	3
TAP	74	96	3
TAP	74	96	7
TAP	74	192	1
TAP	74	216	0
TAP	74	264	6
TAP	74	288	7
TAP	74	336	0
TAP	74	336	5
STR	75	0	2
SCL	75	0	2	96	72	5
TAP	75	0	3
TAP	75	48	4
TAP	75	48	6
HLD	75	96	7	72
XTP	75	240	7
BRK	75	288	1
BRK	75	288	5
TAP	76	0	6
TAP	76	24	4
TAP	76	48	5
TAP	76	96	0
TAP	76	96	1
TAP	76	144	6
TAP	76	144	7
TAP	76	192	0
TAP	76	192	5
TAP	76	240	2
TAP	76	264	3
TAP	76	288	1
TAP	76	288	4
BRK	76	336	0
BRK	76	336	7
XTP	77	0	2
XTP	77	0	7
XTP	77	12	3
XTP	77	24	4
XTP	77	96	2
XTP	77	96	7
XTP	77	108	3
XTP	77	120	4
XTP	77	192	2
XTP	77	192	7
XTP	77	204	3
XTP	77	216	4
BST	77	288	2
SCR	77	288	2	96	36	4
BST	77	288	6
SCR	77	288	6	96	36	0
STR	78	0	2
SUL	78	0	2	96	36	6
STR	78	0	6
SUL	78	0	6	96	36	2
TAP	78	96	2
TAP	78	96	6
TAP	78	192	6
TAP	78	216	7
TAP	78	264	1
TAP	78	288	0
TAP	78	336	2
TAP	78	336	7
TAP	79	0	4
STR	79	0	5
SCR	79	0	5	96	72	2
TAP	79	48	1
TAP	79	48	3
HLD	79	96	0	192
TTP	79	192	4	E	0	M1
TTP	79	204	5	E	0	M1
TTP	79	216	6	E	0	M1
TTP	79	228	7	E	0	M1
TTP	79	240	0	E	0	M1
TTP	79	252	1	E	0	M1
TTP	79	264	2	E	0	M1
TTP	79	276	3	E	0	M1
TTP	79	288	4	E	0	M1
STR	80	0	1
SI_	80	0	1	96	36	4
STR	80	0	5
SI_	80	0	5	96	36	0
TAP	80	96	1
TAP	80	96	5
STR	80	192	2
SI_	80	192	2	96	36	7
STR	80	192	6
SI_	80	192	6	96	36	3
STR	80	288	2
SUR	80	288	2	96	192	5
STR	80	288	6
SCR	80	288	6	96	192	5
BRK	81	288	0
TTP	82	96	2	B	0	M1
TTP	82	96	2	E	0	M1
TTP	82	96	6	B	0	M1
TTP	82	96	7	E	0	M1

T_REC_TAP	310
T_REC_BRK	27
T_REC_XTP	107
T_REC_HLD	26
T_REC_XHO	9
T_REC_STR	90
T_REC_BST	7
T_REC_XST	1
T_REC_TTP	94
T_REC_THO	0
T_REC_SLD	100
T_REC_ALL	771
T_NUM_TAP	602
T_NUM_BRK	34
T_NUM_HLD	35
T_NUM_SLD	100
T_NUM_ALL	771
T_JUDGE_TAP	636
T_JUDGE_HLD	78
T_JUDGE_SLD	100
T_JUDGE_ALL	814
TTM_EACHPAIRS	116
TTM_SCR_TAP	301000
TTM_SCR_BRK	88400
TTM_SCR_HLD	35000
TTM_SCR_SLD	150000
TTM_SCR_ALL	574400
TTM_SCR_S	553900
TTM_SCR_SS	571000
TTM_RAT_ACV	10059

