VERSION	0.00.00	1.03.00
FES_MODE	0
BPM_DEF	135.000	135.000	135.000	135.000
MET_DEF	4	4
RESOLUTION	384
CLK_DEF	384
COMPATIBLE_CODE	MA2

BPM	0	0	135.000
MET	0	0	4	4

XTP	2	0	2
XHO	2	72	2	600
TAP	2	288	3
TAP	3	96	3
TAP	3	288	3
XTP	4	0	5
XHO	4	72	5	600
TAP	4	288	4
TAP	5	96	4
TAP	5	288	3
XTP	6	0	2
XHO	6	72	2	600
TAP	6	288	3
TAP	7	96	3
TAP	7	288	3
XTP	8	0	5
XHO	8	72	5	408
TAP	8	288	4
HLD	9	96	3	192
TAP	9	288	4
TTP	10	0	0	C	1	M1
TTP	10	0	1	B	0	M1
TTP	10	0	6	B	0	M1
TAP	10	192	0
HLD	10	192	1	1248
TAP	10	288	0
TAP	11	0	3
TAP	11	96	0
TAP	11	192	3
TAP	11	288	3
BRK	12	0	7
TAP	12	96	7
TAP	12	192	2
TAP	12	288	4
TAP	13	0	2
TAP	13	96	3
BRK	13	192	0
TAP	13	288	0
HLD	14	0	2	1440
XTP	14	0	3
TAP	14	96	4
TAP	14	192	3
TAP	14	288	1
TAP	15	0	3
TAP	15	96	3
TAP	15	192	1
TAP	15	288	3
XTP	16	0	7
TAP	16	96	3
XTP	16	192	0
TAP	16	288	4
XTP	17	0	7
TAP	17	96	3
XTP	17	192	0
TAP	17	288	4
BRK	18	0	4
XHO	18	0	5	2208
TAP	18	96	4
TAP	18	192	3
TAP	18	288	6
TAP	19	0	4
TAP	19	96	4
TAP	19	192	6
TAP	19	288	4
TAP	20	0	3
TAP	20	96	4
XTP	20	192	7
TAP	20	288	0
TAP	21	0	4
TAP	21	96	4
TAP	21	192	3
TAP	21	288	4
TAP	22	0	7
XTP	22	96	3
TAP	22	192	0
XTP	22	288	4
TAP	23	0	6
TAP	23	96	6
XTP	23	192	0
TAP	23	288	4
HLD	24	0	6	576
TAP	24	0	7
TAP	24	96	0
XTP	24	192	4
TAP	24	288	3
TAP	25	0	4
TAP	25	96	3
STR	25	192	5
SI_	25	192	5	96	48	0
STR	26	0	6
SCL	26	0	6	96	192	3
TAP	26	192	2
XTP	27	0	1
XTP	27	72	1
XHO	27	144	1	144
XTP	27	144	3
TTP	27	288	0	C	0	M1
STR	28	0	1
SCR	28	0	1	96	192	4
TAP	28	192	5
XTP	29	0	6
XTP	29	72	6
XTP	29	144	4
XHO	29	144	6	144
TTP	29	288	0	C	0	M1
TTP	30	0	4	B	0	M1
TTP	30	96	6	B	0	M1
TTP	30	96	6	E	0	M1
TTP	30	192	3	B	0	M1
TTP	30	288	1	B	0	M1
TTP	30	288	2	E	0	M1
TTP	31	0	5	B	0	M1
TTP	31	96	7	B	0	M1
TTP	31	96	7	E	0	M1
TTP	31	192	2	B	0	M1
TTP	31	288	0	B	0	M1
TTP	31	288	1	E	0	M1
TAP	32	0	7
TAP	32	48	7
TAP	32	96	1
TAP	32	144	1
TAP	32	192	5
TAP	32	240	5
TAP	32	288	4
TAP	32	336	4
TAP	33	0	6
TAP	33	48	6
TAP	33	96	3
TAP	33	144	3
BRK	33	192	7
STR	33	288	1
SI_	33	288	1	96	48	4
TAP	33	288	5
BST	34	0	7
SI_	34	0	7	96	48	3
STR	34	96	0
SI_	34	96	0	96	48	4
STR	34	192	6
SI_	34	192	6	96	48	3
STR	34	288	2
SCL	34	288	2	96	144	5
XTP	35	192	7
XTP	35	240	7
XTP	35	288	0
XTP	35	288	6
TAP	36	0	1
TAP	36	48	1
TAP	36	96	0
TAP	36	144	2
TAP	36	192	3
TAP	36	240	3
TAP	36	288	0
TAP	36	336	0
XTP	37	0	1
XTP	37	0	3
XTP	37	96	2
XTP	37	96	7
XTP	37	192	4
XTP	37	192	6
BST	37	288	0
SI_	37	288	0	96	48	4
BRK	37	288	5
STR	38	0	6
SI_	38	0	6	96	48	3
STR	38	96	1
SI_	38	96	1	96	48	4
STR	38	192	7
SI_	38	192	7	96	48	3
STR	38	288	1
SCR	38	288	1	96	144	6
XTP	39	192	7
XTP	39	240	7
XTP	39	288	0
XTP	39	288	6
HLD	40	0	1	72
HLD	40	72	2	72
TAP	40	144	3
HLD	40	192	5	72
HLD	40	264	6	72
TAP	40	336	7
STR	41	0	7
SI_	41	0	7	96	48	2
SI_	41	0	7	96	48	4
XTP	41	192	2
XTP	41	192	4
BST	41	288	0
SI_	41	288	0	96	48	4
BRK	41	288	5
STR	42	0	6
SI_	42	0	6	96	48	3
STR	42	96	2
SI_	42	96	2	96	48	7
STR	42	192	5
SI_	42	192	5	96	48	1
STR	42	288	0
SCR	42	288	0	96	144	5
XTP	43	192	6
XTP	43	240	6
BRK	43	288	6
BRK	43	288	7
TAP	44	0	1
TAP	44	48	1
TAP	44	96	0
TAP	44	144	2
TAP	44	192	3
TAP	44	240	3
TAP	44	288	0
TAP	44	336	1
TAP	44	336	7
XTP	45	0	2
XTP	45	0	6
XTP	45	96	0
XTP	45	96	4
XTP	45	192	3
XTP	45	192	7
BRK	45	288	1
BRK	45	288	5
TAP	46	0	3
STR	46	0	4
SI_	46	0	4	96	48	0
TAP	46	96	1
TAP	46	192	2
TAP	46	192	6
TAP	46	288	6
TAP	46	288	7
TAP	46	336	0
TAP	46	336	5
STR	47	0	1
SUR	47	0	1	96	144	4
TAP	47	0	4
BRK	47	288	0
BRK	47	288	6
HLD	48	0	1	72
TAP	48	72	0
TAP	48	144	2
TAP	48	144	7
HLD	48	192	6	72
TAP	48	264	7
TAP	48	336	0
TAP	48	336	5
STR	49	0	0
SF_	49	0	0	96	96	4
TAP	49	0	5
BRK	49	288	2
BRK	49	288	6
TAP	50	0	3
HLD	50	0	5	1344
TTP	50	192	4	B	0	M1
TTP	51	0	6	E	0	M1
TTP	51	192	7	B	0	M1
TTP	52	0	1	B	0	M1
TTP	52	0	2	B	0	M1
TTP	52	192	5	B	0	M1
TTP	52	192	6	B	0	M1
TTP	53	0	0	E	0	M1
TTP	53	96	0	C	0	M1
TTP	53	192	4	E	0	M1
HLD	54	0	2	1440
TAP	54	0	4
TTP	54	192	3	E	0	M1
TTP	55	0	1	E	0	M1
TTP	55	96	0	C	0	M1
TTP	55	192	5	E	0	M1
THO	56	0	0	384	C	0	M1
BRK	57	240	7
BRK	57	288	7
HLD	58	0	6	192
TAP	58	192	4
TAP	58	288	4
TAP	58	288	5
XHO	59	0	2	120
XTP	59	72	3
XTP	59	120	3
XTP	59	192	1
XTP	59	192	4
TAP	60	0	2
HLD	60	0	3	192
TAP	60	144	2
TAP	60	192	2
TAP	60	288	3
TAP	60	288	4
XHO	61	0	5	120
XTP	61	72	4
XTP	61	120	4
XTP	61	192	3
XTP	61	192	6
BRK	61	288	7
HLD	62	0	4	192
TAP	62	0	6
TAP	62	144	5
TAP	62	192	5
TAP	62	288	3
TAP	62	288	4
TAP	63	0	1
HLD	63	0	3	192
TAP	63	144	2
TAP	63	192	2
TAP	63	288	3
TAP	63	288	4
XTP	64	0	2
TAP	64	48	2
XTP	64	96	4
TAP	64	144	5
XTP	64	192	1
TAP	64	240	1
XTP	64	288	5
TAP	64	336	6
XTP	65	0	0
TAP	65	24	7
TAP	65	48	0
TAP	65	72	7
XTP	65	96	0
TAP	65	120	7
TAP	65	144	0
TAP	65	168	7
BRK	65	192	0
STR	65	288	1
SI_	65	288	1	96	48	4
STR	65	288	6
SI_	65	288	6	96	48	3
BRK	66	96	1
BRK	66	96	5
TAP	66	192	6
TAP	66	192	7
TAP	66	288	0
STR	66	288	5
SCR	66	288	5	96	144	3
XTP	67	192	0
XTP	67	240	1
BRK	67	288	2
BRK	67	288	7
TAP	68	0	6
TAP	68	48	6
TAP	68	96	7
TAP	68	144	5
TAP	68	192	4
TAP	68	240	4
TAP	68	288	7
TAP	68	336	7
XTP	69	0	5
XTP	69	0	6
XTP	69	96	0
XTP	69	96	4
XTP	69	192	1
XTP	69	192	2
BST	69	288	3
SI_	69	288	3	96	48	7
BRK	69	288	7
STR	70	0	5
SI_	70	0	5	96	48	0
STR	70	96	1
SI_	70	96	1	96	48	4
STR	70	192	6
SI_	70	192	6	96	48	2
STR	70	288	1
SCL	70	288	1	96	144	4
XTP	71	192	6
XTP	71	240	6
XTP	71	288	0
XTP	71	288	5
HLD	72	0	6	72
HLD	72	72	5	72
TAP	72	144	4
HLD	72	192	1	72
HLD	72	264	2	72
TAP	72	336	3
STR	73	0	3
SI_	73	0	3	96	48	0
SI_	73	0	3	96	48	6
XTP	73	192	0
XTP	73	192	6
BRK	73	288	1
BST	73	288	7
SI_	73	288	7	96	48	3
XST	74	0	2
SI_	74	0	2	96	48	7
STR	74	96	6
SI_	74	96	6	96	48	2
STR	74	192	0
SI_	74	192	0	96	48	4
STR	74	288	5
SUL	74	288	5	96	144	3
XTP	75	192	1
XTP	75	240	1
BRK	75	288	0
BRK	75	288	1
TAP	76	0	2
TAP	76	48	2
TAP	76	96	3
TAP	76	144	1
TAP	76	192	0
TAP	76	240	0
TAP	76	288	3
TAP	76	336	2
TAP	76	336	4
XTP	77	0	1
XTP	77	0	5
XTP	77	96	3
XTP	77	96	7
XTP	77	192	0
XTP	77	192	4
BRK	77	288	2
BRK	77	288	6
TAP	78	0	0
STR	78	0	7
SI_	78	0	7	96	48	3
TAP	78	96	2
TAP	78	192	1
TAP	78	192	5
TAP	78	288	4
TAP	78	288	5
TAP	78	336	3
TAP	78	336	6
TAP	79	0	2
STR	79	0	7
SXR	79	0	7	96	144	2
BRK	79	288	1
BRK	79	288	7
HLD	80	0	5	72
TAP	80	72	4
TAP	80	144	3
TAP	80	144	6
HLD	80	192	2	72
TAP	80	264	3
TAP	80	336	1
TAP	80	336	4
STR	81	0	1
SCL	81	0	1	96	192	3
TAP	81	0	4
HLD	81	288	7	192
BRK	82	96	0

T_REC_TAP	176
T_REC_BRK	31
T_REC_XTP	80
T_REC_HLD	23
T_REC_XHO	9
T_REC_STR	33
T_REC_BST	5
T_REC_XST	1
T_REC_TTP	31
T_REC_THO	1
T_REC_SLD	41
T_REC_ALL	431
T_NUM_TAP	321
T_NUM_BRK	36
T_NUM_HLD	33
T_NUM_SLD	41
T_NUM_ALL	431
T_JUDGE_TAP	357
T_JUDGE_HLD	288
T_JUDGE_SLD	41
T_JUDGE_ALL	686
TTM_EACHPAIRS	69
TTM_SCR_TAP	160500
TTM_SCR_BRK	93600
TTM_SCR_HLD	33000
TTM_SCR_SLD	61500
TTM_SCR_ALL	348600
TTM_SCR_S	334650
TTM_SCR_SS	345000
TTM_RAT_ACV	10104

