VERSION	0.00.00	1.03.00
FES_MODE	0
BPM_DEF	135.000	135.000	135.000	135.000
MET_DEF	4	4
RESOLUTION	384
CLK_DEF	384
COMPATIBLE_CODE	MA2

BPM	0	0	135.000
MET	0	0	4	4

HLD	2	0	2	192
TAP	2	192	3
HLD	3	0	5	192
TAP	3	192	4
HLD	4	0	2	192
TAP	4	192	3
HLD	5	0	4	96
HLD	5	0	5	96
TAP	5	192	4
TAP	5	192	5
HLD	6	0	6	192
TAP	6	192	7
HLD	7	0	1	192
TAP	7	192	0
HLD	8	0	6	192
TAP	8	192	7
TAP	9	0	0
TAP	9	0	7
TAP	9	96	0
TAP	9	96	7
TAP	9	192	1
TAP	9	192	6
XTP	10	0	5
TAP	10	96	5
TAP	10	192	4
TAP	10	288	4
TAP	11	0	3
TAP	11	96	3
TAP	11	192	2
TAP	11	192	4
TAP	12	0	1
TAP	12	96	1
TAP	12	192	0
TAP	12	288	0
TAP	13	0	7
TAP	13	96	7
TAP	13	192	0
TAP	13	192	7
TAP	14	0	6
TAP	14	96	6
TAP	14	192	7
TAP	14	288	7
TAP	15	0	0
TAP	15	96	0
TAP	15	192	1
TAP	15	192	7
TAP	16	0	2
TAP	16	96	2
TAP	16	192	3
TAP	16	288	3
XTP	17	0	3
XTP	17	0	4
XTP	17	96	3
XTP	17	96	4
XTP	17	192	2
XTP	17	192	5
STR	18	0	6
SCL	18	0	6	96	192	2
TAP	19	0	1
TAP	19	96	1
TAP	19	192	0
TAP	19	192	1
STR	20	0	1
SCR	20	0	1	96	192	5
TAP	21	0	6
TAP	21	96	6
TAP	21	192	7
TAP	21	288	7
XTP	22	0	0
XTP	22	0	7
XTP	22	96	0
XTP	22	96	7
XTP	22	192	1
XTP	22	192	6
TAP	23	0	1
TAP	23	96	1
TAP	23	192	0
TAP	23	192	1
TAP	24	0	7
TAP	24	96	7
TAP	24	192	0
TAP	24	288	0
TAP	25	0	0
TAP	25	0	7
TAP	25	96	0
TAP	25	96	7
BRK	25	192	1
BRK	25	192	6
TTP	26	0	3	B	0	L1
TTP	26	0	3	E	0	L1
TTP	26	192	1	B	0	L1
TTP	26	192	2	B	0	L1
TTP	27	0	0	B	0	L1
TTP	27	0	1	E	0	L1
TTP	28	0	4	B	0	L1
TTP	28	0	5	E	0	L1
TTP	28	192	5	B	0	L1
TTP	28	192	6	B	0	L1
TTP	29	0	7	B	0	L1
TTP	29	0	7	E	0	L1
TTP	30	0	1	E	0	L1
TTP	30	96	1	B	0	L1
TTP	30	192	2	B	0	L1
TTP	31	0	7	E	0	L1
TTP	31	96	6	B	0	L1
TTP	31	192	5	B	0	L1
TTP	32	0	2	B	0	L1
TTP	32	96	3	B	0	L1
TTP	32	192	4	B	0	L1
TTP	32	288	5	B	0	L1
TTP	33	0	0	C	1	L1
TAP	34	0	6
TAP	34	96	6
TAP	34	96	7
TAP	34	192	1
TAP	34	288	0
TAP	34	288	1
TAP	35	0	2
TAP	35	48	2
TAP	35	96	2
TAP	35	192	2
TAP	35	192	3
HLD	36	0	5	96
TAP	36	96	4
HLD	36	192	2	96
TAP	36	288	3
XTP	37	0	1
XTP	37	96	0
XTP	37	96	1
XTP	37	192	0
XTP	37	192	7
XTP	37	288	1
XTP	37	288	6
TAP	38	0	5
TAP	38	96	4
TAP	38	96	5
TAP	38	192	2
TAP	38	288	2
TAP	38	288	3
TAP	39	0	1
TAP	39	48	1
TAP	39	96	1
TAP	39	192	0
TAP	39	192	1
TAP	40	0	7
TAP	40	96	7
TAP	40	192	0
TAP	40	288	0
XTP	41	0	0
XTP	41	0	7
XTP	41	96	1
XTP	41	96	6
XTP	41	192	2
XTP	41	192	5
BRK	41	288	3
BRK	41	288	4
TAP	42	0	5
TAP	42	96	5
TAP	42	192	4
TAP	42	192	5
TAP	42	288	3
TAP	42	288	6
TAP	43	0	7
TAP	43	48	7
TAP	43	96	7
TAP	43	192	0
TAP	43	192	6
HLD	44	0	1	96
TAP	44	96	0
HLD	44	192	6	96
TAP	44	288	7
XTP	45	0	5
XTP	45	96	4
XTP	45	96	5
XTP	45	192	3
XTP	45	192	4
XTP	45	288	2
XTP	45	288	5
TAP	46	0	1
TAP	46	96	1
TAP	46	192	0
TAP	46	192	1
TAP	46	288	2
TAP	46	288	7
TAP	47	0	3
TAP	47	48	3
TAP	47	96	3
XTP	47	192	2
XTP	47	192	4
HLD	48	0	5	192
HLD	48	192	3	192
TAP	49	0	4
TAP	49	96	4
TAP	49	192	3
TAP	49	192	4
BRK	49	288	2
BRK	49	288	5
STR	50	0	6
SCL	50	0	6	96	144	3
STR	51	0	1
SUR	51	0	1	96	144	5
STR	52	0	6
SUL	52	0	6	96	144	2
XTP	53	0	1
XTP	53	96	1
XTP	53	96	6
XTP	53	192	2
XTP	53	192	5
STR	54	0	4
SCR	54	0	4	96	144	7
STR	55	0	0
SCR	55	0	0	96	144	3
STR	56	0	4
SCR	56	0	4	96	384	3
XTP	57	288	2
XTP	57	288	5
HLD	58	0	2	192
HLD	58	192	3	192
HLD	59	0	4	192
XTP	59	192	5
HLD	60	0	6	192
HLD	60	192	7	192
HLD	61	0	0	192
TAP	61	192	1
STR	62	0	2
SCL	62	0	2	96	144	7
STR	63	0	6
SCL	63	0	6	96	144	3
XTP	64	0	2
XTP	64	192	1
XTP	65	0	0
XTP	65	96	0
XTP	65	96	7
BRK	65	192	1
BRK	65	192	6
TAP	66	0	2
TAP	66	0	3
BRK	66	96	2
BRK	66	96	3
TAP	66	192	5
TAP	66	288	4
TAP	66	288	5
TAP	67	0	6
TAP	67	48	6
TAP	67	96	6
XTP	67	192	0
XTP	67	192	7
TAP	68	0	1
TAP	68	48	1
TAP	68	96	1
TAP	68	192	2
TAP	68	240	2
TAP	68	288	2
XTP	69	0	3
XTP	69	0	4
XTP	69	96	2
XTP	69	96	5
XTP	69	192	1
XTP	69	192	6
XTP	69	288	0
XTP	69	288	7
TAP	70	0	1
TAP	70	96	0
TAP	70	96	1
TAP	70	192	6
TAP	70	288	6
TAP	70	288	7
TAP	71	0	5
TAP	71	48	5
TAP	71	96	5
TAP	71	192	4
TAP	71	192	6
TAP	72	0	3
TAP	72	96	3
TAP	72	192	4
TAP	72	288	4
XTP	73	0	3
XTP	73	0	4
XTP	73	96	2
XTP	73	96	5
XTP	73	192	1
XTP	73	192	6
BRK	73	288	0
BRK	73	288	7
TAP	74	0	1
TAP	74	96	0
TAP	74	192	0
TAP	74	192	1
TAP	74	288	2
TAP	74	288	7
TAP	75	0	3
TAP	75	48	3
TAP	75	96	3
TAP	75	192	2
TAP	75	192	4
TAP	76	0	5
TAP	76	48	5
TAP	76	96	5
TAP	76	192	6
TAP	76	240	6
TAP	76	288	6
XTP	77	0	0
XTP	77	0	7
XTP	77	96	1
XTP	77	96	6
XTP	77	192	2
XTP	77	192	5
XTP	77	288	3
XTP	77	288	4
TAP	78	0	5
TAP	78	96	5
TAP	78	192	4
TAP	78	192	5
TAP	78	288	3
TAP	78	288	6
TAP	79	0	7
TAP	79	48	7
TAP	79	96	7
XTP	79	192	1
XTP	79	192	6
STR	80	0	2
SLL	80	0	2	96	384	3
STR	80	0	5
SLR	80	0	5	96	384	4
TTP	81	288	0	C	1	L1

T_REC_TAP	171
T_REC_BRK	12
T_REC_XTP	74
T_REC_HLD	20
T_REC_XHO	0
T_REC_STR	12
T_REC_BST	0
T_REC_XST	0
T_REC_TTP	24
T_REC_THO	0
T_REC_SLD	12
T_REC_ALL	325
T_NUM_TAP	281
T_NUM_BRK	12
T_NUM_HLD	20
T_NUM_SLD	12
T_NUM_ALL	325
T_JUDGE_TAP	293
T_JUDGE_HLD	68
T_JUDGE_SLD	12
T_JUDGE_ALL	373
TTM_EACHPAIRS	74
TTM_SCR_TAP	140500
TTM_SCR_BRK	31200
TTM_SCR_HLD	20000
TTM_SCR_SLD	18000
TTM_SCR_ALL	209700
TTM_SCR_S	202250
TTM_SCR_SS	208500
TTM_RAT_ACV	10057

