VERSION	0.00.00	1.03.00
FES_MODE	0
BPM_DEF	135.000	135.000	135.000	135.000
MET_DEF	4	4
RESOLUTION	384
CLK_DEF	384
COMPATIBLE_CODE	MA2

BPM	0	0	135.000
MET	0	0	4	4

TAP	2	0	0
TAP	3	0	0
TAP	4	0	7
TAP	5	0	7
HLD	6	0	0	384
HLD	8	0	7	384
BRK	10	0	0
TAP	10	192	0
TAP	11	0	1
TAP	11	192	1
TAP	12	0	2
TAP	12	192	2
TAP	13	0	3
TAP	13	192	3
TAP	14	0	4
TAP	14	192	4
TAP	15	0	5
TAP	15	192	5
TAP	16	0	6
TAP	16	192	6
TAP	17	0	7
TAP	17	192	0
TAP	17	192	7
HLD	18	0	7	192
HLD	19	0	6	192
HLD	20	0	5	192
TAP	21	0	4
TAP	21	192	3
TAP	21	192	4
HLD	22	0	3	192
HLD	23	0	2	192
HLD	24	0	1	192
TAP	25	0	0
TAP	25	192	0
TAP	25	192	7
STR	26	0	0
SI_	26	0	0	96	288	3
STR	28	0	7
SI_	28	0	7	96	288	4
STR	30	0	0
SI_	30	0	0	96	288	4
STR	32	0	7
SI_	32	0	7	96	288	3
BRK	34	0	0
TAP	34	96	0
TAP	34	192	0
TAP	35	0	1
TAP	35	192	1
TAP	36	0	2
TAP	36	96	2
TAP	36	192	2
TAP	37	0	3
TAP	37	0	4
XTP	37	192	3
XTP	37	192	4
TAP	38	0	4
TAP	38	96	4
TAP	38	192	4
TAP	39	0	5
TAP	39	192	5
TAP	40	0	6
TAP	40	96	6
TAP	40	192	6
TAP	41	0	0
TAP	41	0	7
XTP	41	192	0
XTP	41	192	7
TAP	42	0	7
TAP	42	96	7
TAP	42	192	7
TAP	43	0	6
TAP	43	192	6
TAP	44	0	5
TAP	44	96	5
TAP	44	192	5
TAP	45	0	3
TAP	45	0	4
TAP	45	192	3
TAP	45	192	4
TAP	46	0	3
TAP	46	96	3
TAP	46	192	3
TAP	47	0	2
XTP	47	192	2
TAP	48	0	1
TAP	48	96	1
TAP	48	192	1
HLD	49	0	0	192
HLD	49	0	7	192
TTP	50	0	0	E	0	L1
TTP	51	0	7	E	0	L1
TTP	52	0	1	E	0	L1
TTP	53	0	0	C	0	L1
TTP	54	0	4	B	0	L1
TTP	54	0	5	B	0	L1
TTP	55	0	2	B	0	L1
TTP	55	0	3	B	0	L1
THO	56	0	0	384	C	0	L1
STR	58	0	7
SI_	58	0	7	96	288	4
STR	60	0	3
SI_	60	0	3	96	288	0
STR	62	0	7
SI_	62	0	7	96	288	3
XTP	64	0	2
XTP	64	192	1
XTP	65	0	0
BRK	65	192	0
BRK	65	192	7
TAP	66	0	7
TAP	66	96	7
TAP	66	192	7
TAP	67	0	6
TAP	67	96	6
TAP	67	192	6
TAP	68	0	5
TAP	68	96	5
TAP	68	192	5
TAP	69	0	4
TAP	69	96	4
TAP	69	192	3
TAP	69	192	4
TAP	70	0	3
TAP	70	96	3
TAP	70	192	3
TAP	71	0	2
TAP	71	96	2
TAP	71	192	2
TAP	72	0	1
TAP	72	96	1
TAP	72	192	1
TAP	73	0	0
TAP	73	96	0
XTP	73	192	0
XTP	73	192	7
TAP	74	0	0
TAP	74	96	0
TAP	74	192	1
TAP	75	0	2
TAP	75	96	2
TAP	75	192	3
TAP	76	0	4
TAP	76	96	4
TAP	76	192	5
TAP	77	0	6
TAP	77	96	6
XTP	77	192	6
XTP	77	192	7
TAP	78	0	6
TAP	78	96	6
TAP	78	192	5
TAP	79	0	4
TAP	79	96	4
TAP	79	192	3
TAP	80	0	3
TAP	80	0	4
TAP	80	192	3
TAP	80	192	4
HLD	81	0	3	288
HLD	81	0	4	288

T_REC_TAP	109
T_REC_BRK	4
T_REC_XTP	12
T_REC_HLD	12
T_REC_XHO	0
T_REC_STR	7
T_REC_BST	0
T_REC_XST	0
T_REC_TTP	8
T_REC_THO	1
T_REC_SLD	7
T_REC_ALL	160
T_NUM_TAP	136
T_NUM_BRK	4
T_NUM_HLD	13
T_NUM_SLD	7
T_NUM_ALL	160
T_JUDGE_TAP	140
T_JUDGE_HLD	68
T_JUDGE_SLD	7
T_JUDGE_ALL	215
TTM_EACHPAIRS	17
TTM_SCR_TAP	68000
TTM_SCR_BRK	10400
TTM_SCR_HLD	13000
TTM_SCR_SLD	10500
TTM_SCR_ALL	101900
TTM_SCR_S	98500
TTM_SCR_SS	101500
TTM_RAT_ACV	10039

