VERSION	0.00.00	1.03.00
FES_MODE	0
BPM_DEF	234.000	234.000	234.000	234.000
MET_DEF	4	4
RESOLUTION	384
CLK_DEF	384
COMPATIBLE_CODE	MA2

BPM	0	0	234.000
MET	0	0	4	4

BRK	1	336	0
TAP	1	352	1
TAP	1	352	7
STR	1	368	2
SXR	1	368	2	96	1312	4
STR	1	368	6
SXR	1	368	6	96	1312	0
TAP	2	0	3
TAP	2	0	5
TAP	2	16	4
TAP	6	0	2
TAP	6	0	3
TAP	6	96	2
TAP	6	96	3
HLD	6	192	1	96
TAP	6	192	4
TAP	6	288	0
HLD	6	336	0	96
TAP	7	48	2
HLD	7	96	2	96
TAP	7	192	3
TAP	7	288	1
TAP	7	288	4
TAP	8	0	5
TAP	8	96	4
TAP	8	96	5
TAP	8	192	3
HLD	8	192	6	96
TAP	8	288	7
HLD	8	336	7	96
TAP	9	48	5
HLD	9	96	5	96
TAP	9	192	0
TAP	9	216	1
TAP	9	240	2
TAP	9	264	3
TAP	9	288	7
TAP	9	312	6
TAP	9	336	5
TAP	9	360	4
BST	10	0	1
SI_	10	0	1	96	48	3
STR	10	96	6
SI_	10	96	6	96	48	4
STR	10	192	0
SI_	10	192	0	96	48	2
TAP	10	288	5
TAP	10	336	5
STR	11	0	3
SI_	11	0	3	96	48	1
STR	11	96	4
SI_	11	96	4	96	48	6
STR	11	192	2
SI_	11	192	2	96	48	0
TAP	11	288	5
TAP	11	336	5
STR	12	0	1
SI_	12	0	1	96	48	3
STR	12	96	6
SI_	12	96	6	96	48	4
STR	12	192	0
SI_	12	192	0	96	48	2
TAP	12	288	5
TAP	12	336	5
TAP	13	0	3
TAP	13	0	6
TAP	13	96	1
TAP	13	96	4
TAP	13	192	3
TAP	13	240	3
TAP	13	288	4
TAP	13	336	4
BRK	14	0	2
BRK	14	0	5
HLD	14	96	4	24
HLD	14	144	4	24
HLD	14	192	4	24
HLD	14	240	4	24
HLD	14	288	4	24
HLD	14	336	4	24
HLD	15	0	3	24
HLD	15	0	4	24
HLD	15	48	3	24
HLD	15	48	4	24
HLD	15	96	2	24
HLD	15	96	5	24
XTP	15	144	2
XTP	15	144	5
TAP	15	240	3
TAP	15	240	4
TAP	15	288	3
STR	15	288	4
SCR	15	288	4	96	144	3
TTP	16	0	0	C	1	M1
TAP	16	288	0
STR	17	0	2
SUR	17	0	2	96	120	5
BRK	17	288	1
BRK	17	288	6
TAP	18	0	4
TAP	18	48	4
TAP	18	96	1
TAP	18	144	1
HLD	18	192	3	72
HLD	18	264	0	72
HLD	18	336	7	48
TAP	19	0	3
TAP	19	48	3
TAP	19	96	6
TAP	19	144	6
HLD	19	192	4	72
HLD	19	264	7	72
HLD	19	336	0	48
TAP	20	0	4
TAP	20	48	4
TAP	20	96	1
TAP	20	144	1
HLD	20	192	3	72
HLD	20	264	0	72
TAP	20	336	7
TAP	21	0	3
TAP	21	48	3
TAP	21	96	6
TAP	21	144	6
TAP	21	192	1
TAP	21	192	5
TAP	21	240	1
TAP	21	240	5
TAP	21	288	0
TAP	21	288	4
TAP	21	336	0
TAP	21	336	4
BRK	22	0	0
BRK	22	0	4
TAP	22	96	2
TAP	22	120	3
TAP	22	144	2
TAP	22	192	5
TAP	22	216	4
TAP	22	240	5
TAP	22	288	2
TAP	22	312	3
TAP	22	336	2
TAP	23	0	4
TAP	23	24	3
TAP	23	48	4
TAP	23	72	3
TAP	23	96	4
XTP	23	144	2
XTP	23	144	5
TAP	23	240	0
TAP	23	288	7
TAP	23	336	6
BRK	24	0	1
BRK	24	0	5
BST	24	48	1
SI_	24	48	1	96	96	4
BST	24	48	5
SI_	24	48	5	96	96	0
TTP	25	0	5	B	0	M1
TTP	25	32	5	E	0	M1
TTP	25	96	1	E	0	M1
TTP	25	128	1	B	0	M1
TTP	25	192	7	E	0	M1
TTP	25	224	6	B	0	M1
TTP	25	288	2	B	0	M1
TTP	25	320	3	E	0	M1
XTP	26	0	5
TAP	26	96	5
TAP	26	192	3
TAP	26	288	3
TAP	27	0	4
TAP	27	96	4
TAP	27	192	2
HLD	27	288	2	64
TAP	27	352	3
TAP	28	0	2
TAP	28	96	2
TAP	28	192	4
TAP	28	288	4
TAP	29	0	3
TAP	29	96	3
TAP	29	192	5
HLD	29	288	5	64
TAP	29	352	4
TAP	30	0	5
TAP	30	96	3
TAP	30	96	4
HLD	30	192	2	64
TAP	30	256	3
TAP	30	288	2
HLD	31	0	5	64
TAP	31	64	4
TAP	31	96	5
HLD	31	192	2	64
TAP	31	256	3
TAP	31	288	2
TAP	32	0	3
TAP	32	0	4
TAP	32	64	4
TAP	32	96	3
TAP	32	160	3
TAP	32	192	4
TAP	32	256	4
HLD	32	288	3	96
TAP	33	0	4
TAP	33	96	2
TAP	33	96	5
TAP	33	192	1
TAP	33	192	6
BRK	34	0	2
BRK	34	0	4
TAP	34	64	2
TAP	34	96	4
TAP	34	160	4
TAP	34	192	3
TAP	34	256	3
TAP	34	288	5
TAP	34	352	5
TAP	35	0	2
TAP	35	64	2
TAP	35	96	4
TAP	35	160	4
TAP	35	192	3
TAP	35	256	3
TAP	35	288	5
TAP	35	352	5
TAP	36	0	1
TAP	36	64	1
TAP	36	96	3
TAP	36	160	3
TAP	36	192	4
TAP	36	256	4
TAP	36	288	6
TAP	36	352	6
TAP	37	0	0
TAP	37	64	0
TAP	37	96	7
TAP	37	160	7
TAP	37	192	1
TAP	37	256	1
TAP	37	288	6
BRK	38	0	4
HLD	38	0	5	192
STR	38	96	6
SLL	38	96	6	96	96	0
TAP	38	288	7
HLD	39	0	2	192
BRK	39	0	3
STR	39	96	1
SLR	39	96	1	96	96	7
TAP	39	288	0
BRK	40	0	1
BRK	40	0	6
TAP	40	96	5
TAP	40	144	5
TAP	40	192	1
TAP	40	240	1
TAP	40	288	6
TAP	40	336	6
TAP	41	0	0
TAP	41	24	7
TAP	41	48	0
TAP	41	72	7
TAP	41	96	0
TAP	41	120	7
TAP	41	144	0
TAP	41	168	7
TAP	41	192	0
TAP	41	216	7
TAP	41	240	0
TAP	41	264	7
TAP	41	288	0
TAP	41	312	7
TAP	41	336	0
TAP	41	360	7
BRK	42	0	0
TAP	42	24	1
TAP	42	48	2
TAP	42	72	3
TAP	42	96	4
TAP	42	120	5
TAP	42	144	6
TAP	42	168	7
TAP	42	192	0
TAP	42	216	1
TAP	42	240	2
TAP	42	264	3
TAP	42	288	4
TAP	42	312	5
TAP	42	336	6
TAP	42	360	7
TAP	43	0	0
TAP	43	24	1
TAP	43	48	2
TAP	43	72	3
TAP	43	96	4
TAP	43	120	5
TAP	43	144	6
TAP	43	168	7
TAP	43	192	0
TAP	43	216	1
TAP	43	240	2
TAP	43	264	3
TAP	43	288	4
TAP	43	312	5
TAP	43	336	6
TAP	43	360	7
BST	44	0	0
SI_	44	0	0	96	48	4
BRK	44	0	4
TAP	44	192	5
TAP	44	240	5
XTP	44	288	1
XTP	44	336	1
TTP	45	0	4	B	0	M1
TTP	45	0	5	E	0	M1
TTP	45	48	1	B	0	M1
TTP	45	48	1	E	0	M1
TTP	45	96	6	B	0	M1
TTP	45	96	7	E	0	M1
TTP	45	144	3	B	0	M1
TTP	45	144	3	E	0	M1
THO	45	192	0	96	C	0	M1
BRK	45	288	0
STR	46	0	7
SSR	46	0	7	96	96	3
TAP	46	48	7
TAP	46	144	2
TAP	46	192	2
STR	46	288	1
SCR	46	288	1	96	144	7
XHO	47	0	4	192
TAP	47	288	0
TAP	47	336	0
BST	48	0	1
SV_	48	0	1	96	48	4
BST	48	0	7
SV_	48	0	7	96	48	4
HLD	48	192	3	48
HLD	48	192	6	48
HLD	48	264	1	48
HLD	48	264	4	48
TAP	48	336	2
STR	48	336	5
SCR	48	336	5	96	48	0
TAP	49	48	0
TAP	49	48	5
TAP	49	64	1
TAP	49	80	2
STR	49	96	3
SUL	49	96	3	96	96	1
TTP	49	192	0	C	1	M1
XST	50	0	6
SI_	50	0	6	96	48	3
STR	50	96	2
SI_	50	96	2	96	48	7
STR	50	192	5
SLR	50	192	5	96	96	3
TAP	50	288	2
TAP	50	336	2
TAP	51	48	1
TAP	51	48	5
TAP	51	96	1
TAP	51	96	5
STR	51	192	2
SI_	51	192	2	96	48	7
STR	51	192	6
SI_	51	192	6	96	48	3
XTP	51	288	2
XTP	51	288	6
BRK	52	0	0
BRK	52	0	4
TAP	52	96	1
TAP	52	96	5
TAP	52	192	2
TAP	52	240	2
XTP	52	288	6
XTP	52	336	6
TTP	53	0	3	B	0	M1
TTP	53	0	3	E	0	M1
TTP	53	48	6	B	0	M1
TTP	53	48	7	E	0	M1
TTP	53	96	1	B	0	M1
TTP	53	96	1	E	0	M1
TTP	53	144	4	B	0	M1
TTP	53	144	5	E	0	M1
THO	53	192	0	96	C	0	M1
BRK	53	288	7
STR	54	0	0
SSL	54	0	0	96	96	4
TAP	54	48	0
TAP	54	144	5
TAP	54	192	5
STR	54	288	6
SCL	54	288	6	96	144	0
XHO	55	0	3	192
TAP	55	288	5
TAP	55	336	5
BST	56	0	2
SI_	56	0	2	96	48	7
BST	56	0	6
SI_	56	0	6	96	48	3
HLD	56	192	0	48
HLD	56	192	4	48
HLD	56	264	1	48
HLD	56	264	5	48
STR	56	336	2
SCL	56	336	2	96	48	7
TAP	56	336	6
TAP	57	48	2
TAP	57	48	7
TAP	57	64	6
TAP	57	80	5
STR	57	96	4
SUR	57	96	4	96	96	6
TTP	57	192	0	C	1	M1
XST	58	0	1
SI_	58	0	1	96	24	4
XST	58	72	6
SI_	58	72	6	96	24	3
XST	58	144	0
SI_	58	144	0	96	24	4
XST	58	216	7
SI_	58	216	7	96	24	3
XTP	58	288	1
XTP	58	336	1
XST	59	0	2
SI_	59	0	2	96	24	7
XST	59	72	5
SI_	59	72	5	96	24	0
XST	59	144	3
SI_	59	144	3	96	24	7
XST	59	216	4
SI_	59	216	4	96	24	0
XTP	59	288	2
XTP	59	336	2
TTP	60	0	0	C	1	M1
TAP	60	96	0
TAP	60	96	7
TAP	60	144	0
TAP	60	144	7
TAP	60	240	2
TAP	60	288	3
TAP	60	336	4
TAP	61	0	5
TAP	61	96	6
TAP	61	96	7
TAP	61	144	6
TAP	61	144	7
TAP	61	240	4
TAP	61	240	5
TAP	61	336	3
HLD	61	336	6	144
TAP	62	96	1
TAP	62	120	2
TAP	62	144	3
TAP	62	168	4
TAP	62	192	7
TAP	62	216	6
TAP	62	240	5
TAP	62	264	4
TAP	62	288	0
TAP	62	312	1
TAP	62	336	2
TAP	62	360	3
TAP	63	0	6
TAP	63	24	5
TAP	63	48	4
TAP	63	72	3
TAP	63	96	2
TAP	63	120	1
TAP	63	144	0
TAP	63	168	7
TAP	63	192	1
TAP	63	192	6
TAP	63	216	2
TAP	63	240	3
TAP	63	264	4
TAP	63	288	5
TAP	63	312	6
TAP	63	336	7
TAP	63	360	0
TAP	64	0	1
TAP	64	0	5
TAP	64	96	2
TAP	64	96	6
TAP	64	192	7
TAP	64	216	6
TAP	64	240	5
TAP	64	264	4
TAP	64	288	7
TAP	64	312	0
TAP	64	336	1
TAP	64	360	2
TAP	65	0	3
TAP	65	0	7
TAP	65	96	1
TAP	65	96	5
TAP	65	192	0
TAP	65	216	1
TAP	65	240	2
TAP	65	264	3
TAP	65	288	0
TAP	65	312	7
TAP	65	336	6
TAP	65	360	5
STR	66	0	0
SI_	66	0	0	96	48	2
STR	66	0	4
SI_	66	0	4	96	48	6
TAP	66	96	0
TAP	66	96	4
STR	66	192	3
SI_	66	192	3	96	48	1
STR	66	192	7
SI_	66	192	7	96	48	5
TAP	66	288	3
TAP	66	288	7
TAP	67	0	0
TAP	67	0	4
TAP	67	96	2
TAP	67	96	6
HLD	67	144	2	96
HLD	67	144	6	96
TTP	67	288	0	C	0	M1
TAP	68	0	1
TAP	68	0	5
TAP	68	72	0
HLD	68	96	0	96
TAP	68	144	2
TAP	68	168	3
TAP	68	192	4
TAP	68	216	5
TAP	68	240	6
TAP	68	264	7
TAP	68	288	0
TAP	68	312	1
TAP	68	336	2
TAP	68	360	3
TAP	69	0	0
TAP	69	0	4
TAP	69	96	3
TAP	69	96	6
TAP	69	144	3
TAP	69	144	6
TAP	69	240	1
TAP	69	240	4
TAP	69	288	1
TAP	69	288	4
TAP	70	0	2
TAP	70	0	6
TAP	70	72	7
HLD	70	96	7	96
TAP	70	144	5
TAP	70	168	4
TAP	70	192	3
TAP	70	216	2
TAP	70	240	1
TAP	70	264	0
TAP	70	288	7
TAP	70	312	6
TAP	70	336	5
TAP	70	360	4
TAP	71	0	3
TAP	71	0	7
TAP	71	96	1
TAP	71	96	4
TAP	71	144	1
TAP	71	144	4
TAP	71	240	3
TAP	71	240	6
TAP	71	288	3
TAP	71	288	6
TAP	72	0	1
TAP	72	0	5
TAP	72	72	4
HLD	72	96	4	96
TAP	72	144	6
TAP	72	168	7
TAP	72	192	0
TAP	72	216	1
TAP	72	240	2
TAP	72	264	3
TAP	72	288	4
TAP	72	312	5
TAP	72	336	6
TAP	72	360	7
TAP	73	0	0
TAP	73	0	4
TAP	73	96	2
TAP	73	96	7
TAP	73	144	2
TAP	73	144	7
TAP	73	240	1
TAP	73	240	5
TAP	73	288	1
TAP	73	288	5
HLD	74	0	4	72
HLD	74	0	6	72
HLD	74	96	1	72
HLD	74	96	3	72
HLD	74	192	6	72
HLD	74	192	7	72
TAP	74	288	0
TAP	74	288	4
BRK	75	0	1
TAP	75	32	3
TAP	75	64	2
TAP	75	96	6
TAP	75	128	4
TAP	75	160	5
BRK	75	192	0
STR	75	288	7
SCL	75	288	7	96	144	0
TTP	76	0	0	C	1	M1
TAP	77	0	1
TAP	77	64	1
TAP	77	96	7
TAP	77	160	7
TAP	77	192	0
TAP	77	256	0
TAP	77	288	6
TAP	77	352	6
TAP	78	0	1
TAP	78	64	1
TAP	78	96	7
TAP	78	160	7
TAP	78	192	0
TAP	78	256	0
TAP	78	288	6
TAP	78	352	6
TAP	79	0	2
TAP	79	64	2
TAP	79	96	0
TAP	79	160	0
TAP	79	192	7
TAP	79	256	7
TAP	79	288	5
TAP	79	352	5
TAP	80	0	4
TAP	80	64	4
TAP	80	96	7
TAP	80	160	7
TAP	80	192	4
TAP	80	224	6
TAP	80	256	3
TAP	80	288	5
TAP	80	320	2
TAP	80	352	4
STR	81	0	3
SF_	81	0	3	96	48	7
BRK	81	96	3
STR	81	192	4
SF_	81	192	4	96	48	0
BRK	81	288	4
TAP	82	0	2
TAP	82	32	3
TAP	82	64	2
BRK	82	96	1
BRK	82	96	4
TAP	82	192	3
TAP	82	192	6
BRK	82	288	0
BRK	82	288	7
TAP	83	0	1
TAP	83	0	6
TAP	83	64	1
TAP	83	96	3
TAP	83	160	3
TAP	83	192	4
TAP	83	256	4
TAP	83	288	6
TAP	83	352	6
STR	84	0	0
SF_	84	0	0	96	48	4
TAP	84	96	0
BRK	84	192	2
BRK	84	192	6
TAP	85	0	6
TAP	85	64	6
STR	85	96	1
SI_	85	96	1	96	48	5
TAP	85	160	1
STR	85	192	4
SI_	85	192	4	96	56	7
TAP	85	256	4
STR	85	288	0
SI_	85	288	0	96	48	3
TAP	85	352	0
STR	86	0	6
SI_	86	0	6	96	56	2
TAP	86	64	6
STR	86	96	4
SI_	86	96	4	96	48	1
TAP	86	160	4
STR	86	192	7
SI_	86	192	7	96	56	2
TAP	86	256	7
STR	86	288	0
SI_	86	288	0	96	48	5
TAP	86	352	0
STR	87	0	3
SI_	87	0	3	96	56	7
TAP	87	64	3
STR	87	96	1
SI_	87	96	1	96	48	4
TAP	87	160	1
STR	87	192	5
SI_	87	192	5	96	56	0
TAP	87	256	5
STR	87	288	2
SI_	87	288	2	96	48	7
TAP	87	352	2
STR	88	0	6
SI_	88	0	6	96	56	3
TAP	88	64	6
TAP	88	96	1
TAP	88	160	1
TAP	88	192	7
TAP	88	224	7
TAP	88	256	0
BRK	88	288	1
BRK	88	288	6
TAP	89	0	7
TAP	89	24	4
TAP	89	48	7
TAP	89	72	4
TAP	89	96	7
TAP	89	120	4
TAP	89	144	7
TAP	89	168	4
TAP	89	192	7
TAP	89	216	4
TAP	89	240	7
TAP	89	264	4
BRK	89	288	6
TAP	90	0	0
TAP	90	24	3
TAP	90	48	0
TAP	90	72	3
TAP	90	96	0
TAP	90	120	3
TAP	90	144	0
TAP	90	168	3
TAP	90	192	0
TAP	90	216	3
TAP	90	240	0
TAP	90	264	3
BST	90	288	1
SI_	90	288	1	96	48	5
XTP	91	0	1
XTP	91	0	5
TTP	91	6	0	C	1	M1
TAP	91	96	6
TAP	91	144	6
TAP	91	192	0
TAP	91	240	0
TAP	91	288	5
TAP	91	336	5
TAP	92	0	2
TAP	92	48	2
XTP	92	96	1
XTP	92	96	5
BRK	92	192	0
BRK	92	192	6
TAP	92	288	7
TAP	92	312	7
TAP	92	336	7
TAP	92	360	7
TAP	93	0	7
TAP	93	24	7
TAP	93	48	7
TAP	93	72	7
TAP	93	96	7
TAP	93	120	7
HLD	93	144	7	0
HLD	93	168	7	0
HLD	93	192	7	0
HLD	93	216	7	0
HLD	93	240	7	0
HLD	93	264	7	0
HLD	93	288	7	0
HLD	93	312	7	0
HLD	93	336	7	0
HLD	93	360	7	0
BRK	94	0	7
TAP	94	24	6
TAP	94	48	5
TAP	94	72	4
TAP	94	96	3
TAP	94	120	2
TAP	94	144	1
TAP	94	168	0
TAP	94	192	7
TAP	94	216	6
TAP	94	240	5
TAP	94	264	4
TAP	94	288	3
TAP	94	312	2
TAP	94	336	1
TAP	94	360	0
XHO	95	0	3	288
XHO	95	0	7	672
TTP	96	96	5	E	0	M1
TTP	96	192	4	E	0	M1
TTP	96	288	3	E	0	M1
BRK	97	0	0
BRK	97	0	1
HLD	97	48	2	240
TAP	97	48	7
TAP	97	288	3
TAP	98	0	4
TAP	98	0	5
TAP	98	48	3
HLD	98	48	6	240
TAP	98	288	7
TAP	99	0	0
TAP	99	0	1
HLD	99	48	2	240
TAP	99	48	7
TAP	99	288	3
TAP	100	0	1
TAP	100	0	5
TAP	100	48	1
TAP	100	48	5
TAP	100	192	2
TAP	100	192	4
TAP	100	288	3
TAP	100	288	5
BRK	101	0	1
BRK	101	0	4
TAP	101	48	1
TAP	101	48	4
TAP	101	144	3
TAP	101	144	6
TAP	101	192	3
TAP	101	192	6
TAP	101	288	0
TAP	101	288	5
TAP	101	336	0
TAP	101	336	5
TAP	102	48	2
TAP	102	48	7
TAP	102	96	2
TAP	102	96	7
HLD	102	192	1	48
HLD	102	192	3	48
HLD	102	264	4	48
HLD	102	264	6	48
TAP	102	336	2
TAP	102	336	5
BRK	103	0	0
BRK	103	0	1
TTP	103	48	4	B	0	M1
TTP	103	48	5	B	0	M1
TTP	103	48	6	E	0	M1
XTP	103	144	6
XTP	103	144	7
TTP	103	192	2	B	0	M1
TTP	103	192	2	E	0	M1
TTP	103	192	3	B	0	M1
XTP	103	288	0
XTP	103	288	7
XTP	103	336	1
XTP	103	336	6
TAP	104	48	2
TAP	104	48	5
TAP	104	144	3
TAP	104	144	6
HLD	104	192	3	48
HLD	104	192	6	48
HLD	104	264	1	48
HLD	104	264	4	48
BRK	104	336	3
BRK	104	336	7
TAP	105	96	6
TAP	105	120	5
TAP	105	144	1
TAP	105	168	2
TAP	105	192	7
TAP	105	216	6
TAP	105	240	0
TAP	105	264	1
TAP	105	288	6
TAP	105	312	5
TAP	105	336	1
TAP	105	360	2
XTP	106	0	7
TAP	106	24	6
TAP	106	48	5
TAP	106	72	4
XTP	106	96	6
TAP	106	120	5
TAP	106	144	4
TAP	106	168	3
XTP	106	192	5
TAP	106	216	4
TAP	106	240	3
TAP	106	264	2
XTP	106	288	4
TAP	106	312	3
TAP	106	336	2
TAP	106	360	1
XTP	107	0	0
XTP	107	0	4
TAP	107	96	1
TAP	107	120	2
TAP	107	144	6
TAP	107	168	5
TAP	107	192	0
TAP	107	216	1
TAP	107	240	7
TAP	107	264	6
TAP	107	288	1
TAP	107	312	2
TAP	107	336	6
TAP	107	360	5
XTP	108	0	0
TAP	108	24	1
TAP	108	48	2
TAP	108	72	3
XTP	108	96	1
TAP	108	120	2
TAP	108	144	3
TAP	108	168	4
XTP	108	192	2
TAP	108	216	3
TAP	108	240	4
TAP	108	264	5
XTP	108	288	3
TAP	108	312	4
TAP	108	336	5
TAP	108	360	6
BRK	109	0	3
BRK	109	0	7
XTP	109	96	5
XTP	109	120	4
XTP	109	144	5
XTP	109	168	4
XTP	109	192	5
XTP	109	216	4
XTP	109	240	5
XTP	109	264	4
XTP	109	288	7
BRK	110	0	1
BRK	110	0	6
XTP	110	96	2
XTP	110	120	3
XTP	110	144	2
XTP	110	168	3
XTP	110	192	2
XTP	110	216	3
XTP	110	240	2
XTP	110	264	3
XTP	110	288	0
BRK	111	0	3
BRK	111	0	6
TAP	111	48	5
TAP	111	72	4
TAP	111	96	5
TAP	111	144	6
TAP	111	192	2
TAP	111	216	3
TAP	111	240	2
TAP	111	288	1
TAP	111	336	4
BRK	112	0	2
BRK	112	0	5
TAP	112	48	6
TAP	112	72	7
TAP	112	96	6
TAP	112	144	5
TAP	112	192	1
TAP	112	216	0
TAP	112	240	1
TAP	112	288	2
TAP	112	336	7
BRK	113	0	2
TAP	113	16	3
TAP	113	32	4
TAP	113	48	5
TAP	113	64	6
TAP	113	80	7
TAP	113	96	0
TAP	113	112	1
TAP	113	128	2
TAP	113	144	3
TAP	113	160	4
TAP	113	176	5
TAP	113	192	6
TAP	113	208	7
TAP	113	224	0
TAP	113	240	1
TAP	113	256	2
TAP	113	272	3
TAP	113	288	4
TAP	113	304	5
TAP	113	320	6
TAP	113	336	7
TAP	113	352	0
TAP	113	368	1
XTP	114	0	2
BRK	114	0	7
TAP	114	12	6
TAP	114	24	5
TAP	114	36	4
TAP	114	48	3
TAP	114	60	2
TAP	114	72	1
TAP	114	84	0
TAP	114	96	7
TAP	114	108	6
TAP	114	120	5
TAP	114	132	4
TAP	114	144	3
TAP	114	156	2
TAP	114	168	1
TAP	114	180	0
TAP	114	192	7
TAP	114	204	6
TAP	114	216	5
TAP	114	228	4
TAP	114	240	3
TAP	114	252	2
TAP	114	264	1
TAP	114	276	0
TAP	114	288	7
TAP	114	300	6
TAP	114	312	5
TAP	114	324	4
TAP	114	336	3
TAP	114	348	2
TAP	114	360	1
TAP	114	372	0
BRK	115	0	3
BRK	115	0	7
TAP	119	0	4
HLD	119	0	5	192
TTP	119	192	5	B	0	M1
TTP	119	192	6	B	0	M1
TAP	119	336	3
TAP	119	336	4
HLD	120	96	2	96
TAP	120	96	3
TTP	120	192	1	B	0	M1
TTP	120	192	2	B	0	M1
TAP	120	288	3
TAP	120	288	4
TAP	121	0	5
TAP	121	96	5
TAP	121	192	2
TAP	121	288	2
TAP	122	0	4
TAP	122	48	4
TAP	122	96	3
TAP	122	144	3
TAP	122	192	5
TAP	122	240	5
TAP	122	288	2
TAP	122	336	2
BRK	123	0	1
BST	123	0	6
SI_	123	0	6	96	48	3
TAP	123	48	6
STR	123	96	1
SI_	123	96	1	96	48	4
TAP	123	96	6
TAP	123	144	1
TAP	123	192	1
STR	123	192	5
SI_	123	192	5	96	48	0
TAP	123	240	5
TAP	123	288	2
TAP	123	288	5
TAP	123	336	2
TAP	124	0	1
TAP	124	0	6
TAP	124	48	2
TAP	124	72	3
TAP	124	96	2
TAP	124	120	3
TAP	124	144	2
TAP	124	192	6
TAP	124	240	5
TAP	124	264	4
TAP	124	288	5
TAP	124	312	4
TAP	124	336	5
BST	125	0	1
SI_	125	0	1	96	48	4
TAP	125	0	6
TAP	125	48	1
TAP	125	96	1
STR	125	96	6
SI_	125	96	6	96	48	3
TAP	125	144	6
STR	125	192	2
SI_	125	192	2	96	48	7
TAP	125	192	6
TAP	125	240	2
TAP	125	288	2
TAP	125	288	5
TAP	125	336	5
TAP	126	0	1
TAP	126	0	6
TAP	126	48	5
TAP	126	72	4
TAP	126	96	5
TAP	126	120	4
TAP	126	144	5
TAP	126	192	1
TAP	126	240	2
TAP	126	264	3
TAP	126	288	2
TAP	126	312	3
TAP	126	336	2
HLD	127	0	1	48
TAP	127	48	7
TAP	127	60	6
TAP	127	72	5
TAP	127	84	4
BRK	127	96	0
TAP	127	144	6
TAP	127	156	5
TAP	127	168	4
TAP	127	180	3
BRK	127	192	0
TAP	127	240	7
TAP	127	252	6
TAP	127	264	5
TAP	127	276	4
BRK	127	288	0
TAP	127	336	6
TAP	127	348	5
TAP	127	360	4
TAP	127	372	3
BRK	128	0	1
TAP	128	32	1
TAP	128	64	1
TAP	128	96	6
TAP	128	128	6
TAP	128	160	6
TAP	128	192	4
TAP	128	224	4
TAP	128	256	4
BRK	128	288	3
TAP	128	300	2
TAP	128	312	1
TAP	128	324	0
TAP	128	336	3
TAP	128	336	7
TAP	128	348	2
TAP	128	348	6
TAP	128	360	1
TAP	128	360	5
TAP	128	372	0
TAP	128	372	4
BRK	129	0	3
BRK	129	0	7
TAP	129	192	1
TAP	129	192	5
STR	129	288	7
SI_	129	288	7	96	48	3
TAP	129	312	0
TAP	129	336	6
TAP	129	360	1
BRK	130	0	7
TTP	130	8	0	C	1	M1

T_REC_TAP	778
T_REC_BRK	66
T_REC_XTP	54
T_REC_HLD	78
T_REC_XHO	4
T_REC_STR	51
T_REC_BST	11
T_REC_XST	9
T_REC_TTP	45
T_REC_THO	2
T_REC_SLD	71
T_REC_ALL	1169
T_NUM_TAP	937
T_NUM_BRK	77
T_NUM_HLD	84
T_NUM_SLD	71
T_NUM_ALL	1169
T_JUDGE_TAP	1014
T_JUDGE_HLD	163
T_JUDGE_SLD	71
T_JUDGE_ALL	1248
TTM_EACHPAIRS	159
TTM_SCR_TAP	468500
TTM_SCR_BRK	200200
TTM_SCR_HLD	84000
TTM_SCR_SLD	106500
TTM_SCR_ALL	859200
TTM_SCR_S	826000
TTM_SCR_SS	851500
TTM_RAT_ACV	10090

