VERSION	0.00.00	1.03.00
FES_MODE	0
BPM_DEF	234.000	234.000	234.000	234.000
MET_DEF	4	4
RESOLUTION	384
CLK_DEF	384
COMPATIBLE_CODE	MA2

BPM	0	0	234.000
MET	0	0	4	4

TTP	2	0	0	C	1	M1
TTP	2	0	1	B	0	M1
TTP	2	0	2	B	0	M1
TTP	2	0	2	E	0	M1
TTP	2	0	5	B	0	M1
TTP	2	0	6	B	0	M1
TTP	2	0	6	E	0	M1
STR	4	0	4
SF_	4	0	4	96	480	0
TAP	6	0	2
TAP	6	96	3
TAP	6	192	1
TAP	6	192	4
HLD	6	336	5	144
TAP	7	96	4
TAP	7	192	3
TAP	7	192	6
TAP	8	0	2
TAP	8	96	2
TAP	8	96	3
TAP	8	192	5
TAP	8	288	4
TAP	8	288	5
TAP	9	0	2
TAP	9	0	3
TAP	9	96	3
TAP	9	96	4
TAP	9	192	4
TAP	9	192	5
BRK	9	288	1
BRK	9	288	6
XHO	10	0	2	96
XTP	10	0	7
TAP	10	96	3
TAP	10	144	3
TAP	10	192	2
TAP	10	288	1
TAP	10	288	4
HLD	11	0	5	96
TAP	11	96	4
TAP	11	144	4
TAP	11	192	5
TAP	11	288	3
TAP	11	288	6
TAP	12	0	1
TAP	12	48	1
TAP	12	96	3
TAP	12	192	6
TAP	12	240	6
TAP	12	288	4
TAP	13	0	1
TAP	13	48	1
TAP	13	96	0
TAP	13	144	0
TAP	13	192	2
TAP	13	288	3
TAP	13	288	7
TAP	14	0	0
XST	14	0	5
SUR	14	0	5	96	192	3
TAP	15	0	2
TAP	15	0	3
TAP	15	96	0
TAP	15	96	1
HLD	15	144	0	144
HLD	15	144	1	144
XST	16	0	2
SCR	16	0	2	96	384	1
TAP	16	0	7
BRK	17	288	2
BRK	17	288	7
XTP	18	0	0
XHO	18	0	5	96
TAP	18	96	4
TAP	18	144	4
TAP	18	192	5
TAP	18	288	3
TAP	18	288	6
HLD	19	0	2	96
TAP	19	96	3
TAP	19	144	3
TAP	19	192	2
TAP	19	288	1
TAP	19	288	4
TAP	20	0	6
TAP	20	48	6
TAP	20	96	4
TAP	20	192	1
TAP	20	240	1
TAP	20	288	3
TAP	21	0	6
TAP	21	48	6
TAP	21	96	7
TAP	21	144	7
TAP	21	192	5
TAP	21	288	0
TAP	21	288	4
XST	22	0	2
SUL	22	0	2	96	192	4
TAP	22	0	7
TAP	23	0	4
TAP	23	0	5
TAP	23	96	6
TAP	23	96	7
HLD	23	144	6	144
HLD	23	144	7	144
XTP	24	0	0
XTP	24	0	5
XST	24	48	0
SI_	24	48	0	96	96	4
XTP	24	48	5
TTP	25	0	4	E	0	M1
TTP	25	96	3	B	0	M1
TTP	25	96	4	B	0	M1
TTP	25	192	2	B	0	M1
TTP	25	192	5	B	0	M1
TTP	25	288	2	E	0	M1
TTP	25	288	6	E	0	M1
XHO	26	0	0	1152
XST	26	0	7
SCR	26	0	7	96	1056	6
TAP	29	192	3
TAP	29	192	4
TTP	30	0	3	B	0	M1
TTP	30	96	1	B	0	M1
TTP	30	96	2	B	0	M1
TTP	30	192	4	B	0	M1
TTP	30	288	5	B	0	M1
TTP	30	288	6	B	0	M1
TTP	31	0	4	E	0	M1
TTP	31	96	3	E	0	M1
TTP	31	192	2	E	0	M1
TTP	31	288	1	E	0	M1
TTP	32	0	4	E	0	M1
TTP	32	96	5	E	0	M1
TTP	32	192	6	E	0	M1
TTP	32	288	7	E	0	M1
TTP	33	0	0	E	0	M1
THO	33	192	0	192	C	1	M1
TTP	34	0	1	B	0	M1
TTP	34	0	6	B	0	M1
TAP	35	0	5
TAP	35	96	4
TAP	35	192	3
TAP	35	288	2
TAP	35	288	4
TAP	36	0	1
TAP	36	96	2
TAP	36	192	3
TAP	36	288	4
TAP	36	288	5
TAP	37	0	6
TAP	37	96	5
TAP	37	192	4
TAP	37	288	3
HLD	38	0	2	96
TAP	38	96	3
TAP	38	192	0
TAP	38	192	1
TAP	38	288	2
TAP	38	288	7
HLD	39	0	5	96
TAP	39	96	4
TAP	39	192	6
TAP	39	192	7
TAP	39	288	0
TAP	39	288	5
BRK	40	0	1
BRK	40	0	6
XTP	40	96	7
TAP	40	144	7
TAP	40	192	0
TAP	40	240	0
TAP	40	288	6
TAP	40	336	6
XTP	41	0	2
TAP	41	48	2
TAP	41	96	5
TAP	41	144	5
TAP	41	192	3
TAP	41	240	3
TAP	41	288	4
TAP	41	336	4
XST	42	0	2
SXL	42	0	2	96	480	5
XTP	42	0	5
XTP	44	0	6
XTP	44	0	7
STR	44	96	0
SI_	44	96	0	96	96	4
TAP	44	96	5
TAP	44	192	4
TAP	44	288	5
TAP	45	0	7
TAP	45	48	7
TAP	45	96	4
HLD	45	192	5	96
HLD	45	192	6	96
TAP	46	0	2
STR	46	0	7
SI_	46	0	7	96	96	2
TAP	46	96	3
STR	46	192	4
SI_	46	192	4	96	96	1
TAP	47	0	0
TAP	47	96	2
TAP	47	192	1
TAP	47	192	3
TAP	47	288	0
TAP	47	336	0
BRK	48	0	0
TAP	48	96	2
TAP	48	96	3
XHO	48	192	4	72
XHO	48	264	5	72
XTP	48	336	6
TAP	49	48	0
TAP	49	48	7
TAP	49	96	0
STR	49	96	7
SI_	49	96	7	96	96	3
TAP	50	0	1
TAP	50	0	3
TAP	50	96	2
TAP	50	96	4
TAP	50	192	3
TAP	50	192	5
TAP	50	288	7
HLD	50	336	7	96
TAP	51	48	5
HLD	51	96	5	96
TAP	51	192	3
HLD	51	240	3	96
TAP	51	336	1
BRK	52	0	1
TAP	52	96	2
STR	52	96	7
SI_	52	96	7	96	96	3
TAP	52	192	3
TAP	52	288	2
TAP	53	0	0
TAP	53	48	0
TAP	53	96	3
HLD	53	192	1	96
HLD	53	192	2	96
STR	54	0	0
SI_	54	0	0	96	96	5
TAP	54	0	5
TAP	54	96	4
STR	54	192	3
SI_	54	192	3	96	96	6
TAP	55	0	7
TAP	55	96	5
TAP	55	192	4
TAP	55	192	6
TAP	55	288	7
TAP	55	336	7
BRK	56	0	7
TAP	56	96	4
TAP	56	96	5
XHO	56	192	3	72
XHO	56	264	2	72
XTP	56	336	1
TAP	57	48	0
TAP	57	48	7
STR	57	96	0
SI_	57	96	0	96	96	4
TAP	57	96	7
XHO	58	0	5	72
XHO	58	72	7	72
XHO	58	144	0	72
XTP	58	216	2
XTP	58	288	1
XTP	58	288	3
XHO	59	0	2	72
XHO	59	72	0	72
XHO	59	144	7	72
XTP	59	216	5
XTP	59	288	4
XTP	59	288	6
BRK	60	0	0
BRK	60	0	7
TAP	60	240	5
TAP	60	288	5
TAP	61	0	3
TAP	61	0	4
TAP	61	96	2
TAP	61	144	2
TAP	61	240	1
TAP	61	240	4
TAP	61	336	3
HLD	61	336	6	144
TAP	62	96	4
HLD	62	192	1	96
TAP	62	288	3
HLD	63	0	7	96
TAP	63	96	4
HLD	63	192	0	96
TAP	63	288	3
STR	64	0	4
SCL	64	0	4	96	96	1
STR	64	96	1
SCL	64	96	1	96	96	6
STR	65	0	3
SCR	65	0	3	96	96	6
STR	65	96	6
SCR	65	96	6	96	96	1
TAP	66	0	4
TAP	66	96	2
TAP	66	96	3
TAP	66	192	7
TAP	66	240	0
TAP	66	288	1
TAP	66	288	6
TAP	67	0	3
TAP	67	0	4
TAP	67	48	3
TAP	67	48	4
TTP	67	144	0	C	1	M1
TTP	67	144	2	B	0	M1
TTP	67	144	5	B	0	M1
XTP	68	0	1
XTP	68	0	7
XST	68	96	0
SI_	68	96	0	96	96	4
XHO	68	96	6	576
TTP	69	0	7	E	0	M1
TTP	69	96	6	E	0	M1
TTP	69	192	5	E	0	M1
TTP	69	288	4	E	0	M1
XTP	70	0	0
XTP	70	0	6
XHO	70	96	1	576
XST	70	96	7
SI_	70	96	7	96	96	3
TTP	71	0	3	E	0	M1
TTP	71	96	2	E	0	M1
TTP	71	192	1	E	0	M1
TTP	71	288	0	E	0	M1
XTP	72	0	2
XTP	72	0	4
XST	72	96	3
SI_	72	96	3	96	96	7
XHO	72	96	5	576
TTP	73	0	7	E	0	M1
TTP	73	96	6	E	0	M1
TTP	73	192	5	E	0	M1
TTP	73	288	4	E	0	M1
TAP	74	0	1
TAP	74	0	3
TAP	74	96	2
TAP	74	96	5
TAP	74	192	4
TAP	74	192	6
TAP	74	288	0
TAP	74	288	7
XTP	75	0	0
XTP	75	32	7
XTP	75	64	0
XTP	75	96	7
XTP	75	128	0
XTP	75	160	7
BRK	75	192	0
STR	76	0	1
SI_	76	0	1	96	192	4
STR	76	0	6
SI_	76	0	6	96	192	3
BRK	77	0	1
BRK	77	0	6
TAP	77	96	2
TAP	77	96	3
TAP	77	192	0
TAP	77	192	1
TAP	77	288	2
TAP	77	288	3
TAP	78	0	3
TAP	78	0	4
TAP	78	96	4
TAP	78	96	5
TAP	78	192	6
TAP	78	192	7
TAP	78	288	4
TAP	78	288	5
TAP	79	0	3
TAP	79	0	4
TAP	79	96	0
TAP	79	96	2
TAP	79	192	3
TAP	79	192	4
TAP	79	288	5
TAP	79	288	7
TAP	80	0	1
TAP	80	0	6
XTP	80	96	3
TAP	80	128	4
TAP	80	160	3
HLD	80	192	4	96
TAP	80	288	3
TAP	81	0	0
TAP	81	0	1
TAP	81	96	3
TAP	81	96	6
XTP	81	192	5
TAP	81	224	4
TAP	81	256	5
TAP	81	288	4
XTP	82	0	6
TAP	82	32	7
TAP	82	64	6
TAP	82	96	7
TAP	82	192	0
TAP	82	192	5
TAP	82	288	2
TAP	82	288	3
TAP	83	0	4
TAP	83	0	5
TAP	83	96	6
TAP	83	96	7
XTP	83	192	1
TAP	83	224	0
TAP	83	256	1
TAP	83	288	0
TAP	84	0	2
TAP	84	0	3
TAP	84	96	4
TAP	84	96	5
BRK	84	192	1
BRK	84	192	6
XTP	85	0	0
XST	85	0	1
SI_	85	0	1	96	48	4
TAP	85	96	7
STR	85	192	6
SI_	85	192	6	96	48	3
TAP	85	288	0
STR	86	0	2
SI_	86	0	2	96	48	7
TAP	86	96	4
STR	86	192	5
SI_	86	192	5	96	48	0
TAP	86	288	3
STR	87	0	1
SI_	87	0	1	96	48	3
STR	87	96	7
SI_	87	96	7	96	48	5
STR	87	192	0
SI_	87	192	0	96	48	4
STR	88	0	6
SI_	88	0	6	96	48	4
STR	88	96	0
SI_	88	96	0	96	48	2
STR	88	192	7
SI_	88	192	7	96	48	3
TAP	89	0	2
XTP	89	96	1
TAP	89	120	0
TAP	89	144	1
TAP	89	168	0
TAP	89	192	1
BRK	89	288	2
TAP	90	0	3
TAP	90	0	4
XTP	90	96	6
TAP	90	120	7
TAP	90	144	6
TAP	90	168	7
TAP	90	192	6
BRK	90	288	5
STR	91	0	6
SI_	91	0	6	96	48	3
STR	91	96	1
SI_	91	96	1	96	48	4
STR	91	192	7
SI_	91	192	7	96	48	3
STR	91	288	0
SI_	91	288	0	96	48	4
TAP	92	0	6
TAP	92	48	6
TAP	92	96	6
TAP	92	144	6
XTP	92	192	1
TAP	92	240	1
TAP	92	288	0
TAP	92	336	0
XTP	93	0	4
TAP	93	48	4
TAP	93	96	5
TAP	93	144	5
XTP	93	192	0
TAP	93	216	7
TAP	93	240	0
TAP	93	264	7
TAP	93	288	0
TAP	93	312	7
TAP	93	336	0
THO	94	0	0	384	C	0	M1
TTP	96	96	6	E	0	M1
TTP	96	192	0	C	0	M1
TTP	96	288	2	E	0	M1
XTP	97	0	0
XTP	97	0	7
XHO	97	48	0	144
XHO	97	48	7	144
TAP	97	288	4
TAP	97	288	5
XTP	98	0	3
XTP	98	0	6
XHO	98	48	3	144
XHO	98	48	6	144
TAP	98	288	2
TAP	98	288	3
XTP	99	0	1
XTP	99	0	4
XHO	99	48	1	144
XHO	99	48	4	144
TAP	99	288	0
TAP	99	288	1
XTP	100	0	2
XTP	100	0	7
XHO	100	48	2	144
XHO	100	48	7	144
TAP	100	288	1
TAP	100	288	6
TAP	101	0	2
TAP	101	0	3
XTP	101	48	2
XTP	101	48	3
TAP	101	144	4
TAP	101	144	6
XTP	101	192	4
XTP	101	192	6
TAP	101	288	0
TAP	101	288	2
XTP	101	336	0
XTP	101	336	2
TAP	102	48	6
TAP	102	48	7
XST	102	96	6
SI_	102	96	6	96	96	3
XST	102	96	7
SI_	102	96	7	96	96	2
TAP	103	0	4
TAP	103	0	5
XTP	103	48	4
XTP	103	48	5
TAP	103	144	1
TAP	103	144	3
XTP	103	192	1
XTP	103	192	3
TAP	103	288	5
TAP	103	288	7
XTP	103	336	5
XTP	103	336	7
TAP	104	48	0
TAP	104	48	1
XTP	104	96	0
XTP	104	96	1
XTP	104	192	1
XTP	104	192	6
XTP	104	264	2
XTP	104	264	5
XTP	104	336	3
XTP	104	336	4
BRK	105	96	1
BRK	105	96	6
TAP	105	192	2
TAP	105	240	2
TAP	105	288	4
TAP	105	336	4
TAP	106	0	7
TAP	106	48	7
TAP	106	96	6
TAP	106	144	6
TAP	106	192	0
TAP	106	192	5
TAP	106	288	2
TAP	106	312	3
TAP	106	336	2
TAP	106	360	3
TAP	107	0	2
XTP	107	96	1
XTP	107	96	4
TAP	107	192	5
TAP	107	240	5
TAP	107	288	3
TAP	107	336	3
TAP	108	0	0
TAP	108	48	0
TAP	108	96	1
TAP	108	144	1
TAP	108	192	2
TAP	108	192	7
TAP	108	288	4
TAP	108	288	5
XTP	109	0	6
TAP	109	24	7
TAP	109	48	6
TAP	109	72	7
TAP	109	96	6
TAP	109	120	7
TAP	109	144	6
TAP	109	168	7
TAP	109	192	6
TAP	109	216	7
TAP	109	240	6
TAP	109	264	7
TAP	109	288	6
XTP	110	0	1
TAP	110	24	0
TAP	110	48	1
TAP	110	72	0
TAP	110	96	1
TAP	110	120	0
TAP	110	144	1
TAP	110	168	0
TAP	110	192	1
TAP	110	216	0
TAP	110	240	1
TAP	110	264	0
TAP	110	288	1
XTP	111	0	0
XTP	111	0	7
TAP	111	96	4
TAP	111	96	5
BRK	111	144	3
BRK	111	144	6
TAP	111	240	2
TAP	111	240	3
BRK	111	288	1
BRK	111	288	4
TAP	112	0	6
TAP	112	0	7
BRK	112	48	0
BRK	112	48	5
TAP	112	144	0
TAP	112	144	1
BRK	112	192	2
BRK	112	192	7
XTP	112	288	4
XTP	112	288	5
XST	113	0	1
SI_	113	0	1	96	48	5
XST	113	96	0
SI_	113	96	0	96	48	4
XST	113	192	7
SI_	113	192	7	96	48	3
XST	113	288	6
SI_	113	288	6	96	48	2
XTP	114	0	0
TAP	114	48	0
TAP	114	96	0
TAP	114	144	0
XTP	114	192	7
TAP	114	216	6
TAP	114	240	5
TAP	114	264	4
TAP	114	288	3
TAP	114	312	2
TAP	114	336	1
TAP	114	360	0
BST	115	0	7
SF_	115	0	7	96	672	3
TAP	119	0	5
TAP	119	96	4
TAP	119	192	3
TAP	119	192	6
HLD	119	336	2	144
TAP	120	96	3
TAP	120	192	1
TAP	120	192	4
TAP	121	0	5
TAP	121	96	4
TAP	121	96	5
TAP	121	192	2
TAP	121	288	2
TAP	121	288	3
TAP	122	0	4
TAP	122	0	5
TAP	122	96	3
TAP	122	96	4
TAP	122	192	2
TAP	122	192	3
BRK	122	288	1
BRK	122	288	6
XTP	123	0	0
XTP	123	0	7
TAP	123	96	0
TAP	123	96	1
TAP	123	144	0
TAP	123	144	1
TAP	123	192	2
TAP	123	192	7
TAP	123	240	2
TAP	123	240	7
TAP	123	288	3
TAP	123	288	6
TAP	123	336	3
TAP	123	336	6
XTP	124	0	4
XTP	124	0	5
TAP	124	96	2
TAP	124	120	3
TAP	124	144	2
TAP	124	168	3
BRK	124	192	1
TAP	124	288	5
TAP	124	312	4
TAP	124	336	5
TAP	124	360	4
BRK	125	0	6
TAP	125	96	6
TAP	125	96	7
TAP	125	144	6
TAP	125	144	7
TAP	125	192	0
TAP	125	192	5
TAP	125	240	0
TAP	125	240	5
TAP	125	288	1
TAP	125	288	4
TAP	125	336	1
TAP	125	336	4
XTP	126	0	2
XTP	126	0	3
TAP	126	96	5
TAP	126	120	4
TAP	126	144	5
TAP	126	168	4
BRK	126	192	6
TAP	126	288	2
TAP	126	312	3
TAP	126	336	2
TAP	126	360	3
BRK	127	0	1
XTP	127	96	5
XTP	127	96	7
XTP	127	192	3
XTP	127	192	4
XTP	127	288	0
XTP	127	288	2
XTP	128	0	0
XTP	128	0	7
TAP	128	24	1
TAP	128	48	2
TAP	128	72	3
TAP	128	96	4
TAP	128	120	5
TAP	128	144	6
TAP	128	168	7
XTP	128	192	0
TAP	128	216	1
TAP	128	240	2
TAP	128	264	3
TAP	128	288	4
TAP	128	312	5
TAP	128	336	6
TAP	128	360	7
XHO	129	0	0	192
BRK	129	0	4
STR	129	192	7
SF_	129	192	7	96	96	3

T_REC_TAP	443
T_REC_BRK	35
T_REC_XTP	93
T_REC_HLD	22
T_REC_XHO	25
T_REC_STR	29
T_REC_BST	1
T_REC_XST	16
T_REC_TTP	49
T_REC_THO	2
T_REC_SLD	46
T_REC_ALL	761
T_NUM_TAP	630
T_NUM_BRK	36
T_NUM_HLD	49
T_NUM_SLD	46
T_NUM_ALL	761
T_JUDGE_TAP	666
T_JUDGE_HLD	175
T_JUDGE_SLD	46
T_JUDGE_ALL	887
TTM_EACHPAIRS	175
TTM_SCR_TAP	315000
TTM_SCR_BRK	93600
TTM_SCR_HLD	49000
TTM_SCR_SLD	69000
TTM_SCR_ALL	526600
TTM_SCR_S	507350
TTM_SCR_SS	523000
TTM_RAT_ACV	10068

