VERSION	0.00.00	1.03.00
FES_MODE	0
BPM_DEF	234.000	234.000	234.000	234.000
MET_DEF	4	4
RESOLUTION	384
CLK_DEF	384
COMPATIBLE_CODE	MA2

BPM	0	0	234.000
MET	0	0	4	4

XST	2	0	3
SXR	2	0	3	96	1056	0
XST	2	0	4
SXL	2	0	4	96	1056	7
TAP	6	0	6
TAP	6	96	6
TAP	6	192	6
TAP	6	192	7
TAP	7	0	1
TAP	7	96	1
TAP	7	192	0
TAP	7	192	1
TAP	8	0	6
TAP	8	96	6
TAP	8	192	6
TAP	8	192	7
TAP	9	0	0
TAP	9	0	7
TAP	9	96	0
TAP	9	96	7
BRK	9	192	1
BRK	9	192	6
TAP	10	0	2
TAP	10	96	2
TAP	10	192	3
TAP	10	288	3
TAP	11	0	4
TAP	11	96	4
TAP	11	192	3
TAP	11	192	5
TAP	12	0	6
TAP	12	96	6
TAP	12	192	7
TAP	12	288	7
TAP	13	0	0
TAP	13	96	0
TAP	13	192	1
TAP	13	192	7
TAP	14	0	2
TAP	14	0	3
TAP	14	96	2
TAP	14	96	3
TAP	14	192	1
TAP	14	192	4
TAP	15	0	4
TAP	15	0	5
TAP	15	96	4
TAP	15	96	5
TAP	15	192	3
TAP	15	192	6
TAP	16	0	3
TAP	16	96	3
TAP	16	192	4
TAP	16	288	4
TAP	17	0	2
TAP	17	0	5
TAP	17	96	1
TAP	17	96	6
BRK	17	192	0
BRK	17	192	7
TAP	18	0	0
TAP	18	96	1
TAP	18	192	2
TAP	18	288	3
TAP	19	0	4
TAP	19	96	5
TAP	19	192	6
TAP	19	288	7
TAP	20	0	0
TAP	20	0	7
TAP	20	96	0
TAP	20	96	7
TAP	20	192	1
TAP	20	192	6
TAP	20	288	1
TAP	20	288	6
TAP	21	0	2
TAP	21	0	5
TAP	21	96	2
TAP	21	96	5
TAP	21	192	3
TAP	21	192	4
TAP	21	288	3
TAP	21	288	4
TAP	22	0	2
TAP	22	0	5
TAP	22	96	2
TAP	22	96	5
TAP	22	192	1
TAP	22	192	6
TAP	22	288	1
TAP	22	288	6
TAP	23	0	0
TAP	23	48	0
TAP	23	96	0
TAP	23	192	7
TAP	23	240	7
TAP	23	288	7
BRK	24	0	1
BRK	24	0	6
XST	24	48	1
SLR	24	48	1	96	384	7
XST	24	48	6
SLL	24	48	6	96	384	0
TTP	26	0	6	B	0	L1
TTP	26	0	7	B	0	L1
TTP	27	0	4	B	0	L1
TTP	27	0	5	B	0	L1
TTP	28	0	2	B	0	L1
TTP	28	0	3	B	0	L1
TTP	29	0	0	B	0	L1
TTP	29	0	1	B	0	L1
TTP	30	0	7	B	0	L1
TTP	30	192	6	B	0	L1
TTP	31	0	5	B	0	L1
TTP	31	192	4	B	0	L1
TTP	32	0	3	B	0	L1
TTP	32	192	2	B	0	L1
TTP	33	0	0	C	0	L1
HLD	34	0	6	192
HLD	34	192	7	192
HLD	35	0	0	192
TAP	35	192	1
HLD	36	0	2	192
HLD	36	192	3	192
HLD	37	0	4	192
TAP	37	192	5
TAP	38	0	6
TAP	38	96	6
TAP	38	192	6
TAP	38	192	7
TAP	39	0	1
TAP	39	96	1
TAP	39	192	0
TAP	39	192	1
TAP	40	0	0
TAP	40	0	7
TAP	40	96	0
TAP	40	96	7
TAP	40	192	1
TAP	40	192	6
TAP	40	288	1
TAP	40	288	6
TAP	41	0	5
TAP	41	48	5
TAP	41	96	5
TAP	41	192	2
TAP	41	240	2
TAP	41	288	2
TAP	42	0	3
STR	42	0	4
SCR	42	0	4	96	480	3
HLD	44	0	2	288
TAP	44	192	3
TAP	44	288	3
TAP	45	0	4
TAP	45	96	4
TAP	45	96	5
TAP	45	192	3
TAP	45	192	6
STR	46	0	6
SI_	46	0	6	96	144	3
STR	46	0	7
SI_	46	0	7	96	144	2
STR	47	0	0
SI_	47	0	0	96	144	5
STR	47	0	1
SI_	47	0	1	96	144	4
TAP	48	0	6
TAP	48	0	7
TAP	48	96	6
TAP	48	96	7
TAP	48	192	6
TAP	48	192	7
TAP	49	0	0
TAP	49	0	1
TAP	49	96	0
TAP	49	96	1
TAP	49	192	0
TAP	49	192	1
TAP	50	0	2
HLD	50	96	2	96
TAP	50	192	4
HLD	50	288	4	96
TAP	51	0	3
TAP	51	96	3
TAP	51	96	4
TAP	51	192	2
TAP	51	192	5
HLD	52	0	5	288
TAP	52	192	4
TAP	52	288	4
TAP	53	0	3
TAP	53	96	2
TAP	53	96	3
TAP	53	192	1
TAP	53	192	4
STR	54	0	0
SI_	54	0	0	96	144	5
STR	54	0	1
SI_	54	0	1	96	144	4
STR	55	0	6
SI_	55	0	6	96	144	3
STR	55	0	7
SI_	55	0	7	96	144	2
TAP	56	0	0
TAP	56	0	1
TAP	56	96	0
TAP	56	96	1
TAP	56	192	0
TAP	56	192	1
TAP	57	0	6
TAP	57	0	7
TAP	57	96	6
TAP	57	96	7
TAP	57	192	6
TAP	57	192	7
TAP	58	0	5
TAP	58	96	5
TAP	58	192	4
TAP	58	192	5
TAP	58	288	3
TAP	58	288	4
TAP	59	0	2
TAP	59	96	2
TAP	59	192	2
TAP	59	192	3
TAP	59	288	3
TAP	59	288	4
BRK	60	0	2
BRK	60	0	5
STR	61	0	1
SCR	61	0	1	96	192	4
STR	62	0	5
SCR	62	0	5	96	192	0
STR	63	0	1
SI_	63	0	1	96	192	4
HLD	64	0	5	192
XTP	64	192	4
XTP	64	288	4
XTP	64	288	5
HLD	65	0	2	192
XTP	65	192	3
XTP	65	288	2
XTP	65	288	3
HLD	66	0	5	192
XTP	66	192	4
XTP	66	288	5
TAP	67	0	3
TAP	67	0	4
TAP	67	96	3
TAP	67	96	4
XTP	67	192	2
XTP	67	192	5
STR	68	0	6
SI_	68	0	6	96	192	3
TAP	68	0	7
TAP	69	0	2
TAP	69	96	2
TAP	69	192	2
TAP	69	192	3
STR	70	0	2
SI_	70	0	2	96	192	7
TAP	70	0	3
TAP	71	0	6
TAP	71	96	6
TAP	71	192	6
TAP	71	192	7
TAP	72	0	0
STR	72	0	7
SI_	72	0	7	96	192	3
TAP	73	0	2
TAP	73	96	2
TAP	73	192	2
TAP	73	192	3
TAP	74	0	3
TAP	74	0	4
TAP	74	96	3
TAP	74	96	4
TAP	74	192	2
TAP	74	192	5
TAP	74	288	2
TAP	74	288	5
TAP	75	0	1
TAP	75	0	6
TAP	75	96	1
TAP	75	96	6
BST	75	192	0
SI_	75	192	0	96	192	4
BST	75	192	7
SI_	75	192	7	96	192	3
BRK	77	0	2
TAP	77	96	2
TAP	77	192	2
TAP	77	192	3
TAP	77	288	2
TAP	77	288	3
TAP	78	0	5
TAP	78	96	5
TAP	78	192	4
TAP	78	192	5
TAP	78	288	4
TAP	78	288	5
TAP	79	0	6
TAP	79	96	6
TAP	79	192	6
TAP	79	192	7
TAP	79	288	6
TAP	79	288	7
TAP	80	0	0
TAP	80	96	0
TAP	80	192	1
TAP	80	192	7
HLD	81	0	2	96
TAP	81	96	3
TAP	81	192	2
TAP	81	192	3
HLD	82	0	5	96
TAP	82	96	4
TAP	82	192	4
TAP	82	192	5
TAP	83	0	3
TAP	83	96	3
TAP	83	192	4
TAP	83	288	4
TAP	84	0	3
TAP	84	0	4
TAP	84	96	2
TAP	84	96	5
XTP	84	192	1
XTP	84	192	6
BRK	85	0	6
TAP	85	96	6
TAP	85	192	6
TAP	85	192	7
TAP	85	288	0
TAP	85	288	5
TAP	86	0	1
TAP	86	96	1
TAP	86	192	0
TAP	86	192	1
TAP	86	288	2
TAP	86	288	7
TAP	87	0	3
TAP	87	96	3
TAP	87	192	4
TAP	87	288	4
TAP	88	0	3
TAP	88	0	4
TAP	88	96	3
TAP	88	96	4
TAP	88	192	2
TAP	88	192	5
TAP	89	0	6
TAP	89	0	7
TAP	89	96	6
TAP	89	96	7
TAP	89	192	0
TAP	89	192	5
TAP	90	0	0
TAP	90	0	1
TAP	90	96	0
TAP	90	96	1
TAP	90	192	2
TAP	90	192	7
TAP	91	0	7
TAP	91	96	7
TAP	91	192	0
TAP	91	288	0
TAP	92	0	0
TAP	92	0	7
TAP	92	96	0
TAP	92	96	7
TAP	92	192	1
TAP	92	192	6
TAP	92	288	1
TAP	92	288	6
TAP	93	0	5
TAP	93	48	5
TAP	93	96	5
TAP	93	192	2
TAP	93	240	2
TAP	93	288	2
STR	94	0	3
SCL	94	0	3	96	672	4
TAP	94	0	4
STR	97	0	2
SI_	97	0	2	96	192	5
STR	98	0	6
SI_	98	0	6	96	192	3
STR	99	0	1
SI_	99	0	1	96	192	5
STR	100	0	7
SI_	100	0	7	96	192	4
TAP	101	0	2
TAP	101	192	2
TAP	101	192	3
TAP	102	0	3
TAP	102	0	4
TAP	102	192	2
TAP	102	192	5
TAP	103	0	6
TAP	103	192	6
TAP	103	192	7
TAP	104	0	0
TAP	104	0	7
TAP	104	192	1
TAP	104	192	6
XTP	104	288	1
XTP	104	288	6
BRK	105	96	2
BRK	105	96	3
TAP	105	192	2
TAP	105	192	3
TAP	105	288	2
TAP	105	288	3
TAP	106	0	1
TAP	106	0	4
TAP	106	96	1
TAP	106	96	4
TAP	106	192	0
TAP	106	192	5
XTP	106	288	0
XTP	106	288	5
BRK	107	96	4
BRK	107	96	5
TAP	107	192	4
TAP	107	192	5
TAP	107	288	4
TAP	107	288	5
TAP	108	0	3
TAP	108	0	6
TAP	108	96	3
TAP	108	96	6
TAP	108	192	2
TAP	108	192	7
XTP	108	288	2
XTP	108	288	7
STR	109	0	0
SI_	109	0	0	96	144	5
STR	109	0	1
SI_	109	0	1	96	144	4
STR	110	0	6
SI_	110	0	6	96	144	3
STR	110	0	7
SI_	110	0	7	96	144	2
TAP	111	0	1
TAP	111	96	0
TAP	111	192	7
TAP	111	288	6
TAP	112	0	5
TAP	112	96	4
TAP	112	192	3
TAP	112	288	2
TAP	113	0	1
TAP	113	48	1
TAP	113	96	1
TAP	113	192	0
TAP	113	240	0
TAP	113	288	0
TAP	114	0	7
TAP	114	48	7
TAP	114	96	7
TAP	114	192	6
TAP	114	240	6
TAP	114	288	6
BST	115	0	0
SXL	115	0	0	96	1056	3
BST	115	0	7
SXR	115	0	7	96	1056	4
TTP	119	0	3	E	0	L1
TTP	119	0	5	E	0	L1
TTP	120	0	2	B	0	L1
TTP	120	0	5	B	0	L1
TTP	121	0	1	B	0	L1
TTP	121	0	6	B	0	L1
TTP	122	0	0	C	0	L1
BRK	123	0	6
BRK	123	0	7
TAP	123	96	0
TAP	123	96	5
TAP	123	192	1
TAP	123	192	4
TAP	123	288	2
TAP	123	288	3
TAP	124	0	4
TAP	124	48	4
TAP	124	96	4
TAP	124	192	3
TAP	124	240	3
TAP	124	288	3
TAP	125	0	2
TAP	125	0	3
TAP	125	96	1
TAP	125	96	4
TAP	125	192	0
TAP	125	192	5
TAP	125	288	6
TAP	125	288	7
TAP	126	0	0
TAP	126	48	0
TAP	126	96	0
TAP	126	192	7
TAP	126	240	7
TAP	126	288	7
TAP	127	0	0
TAP	127	0	7
TAP	127	48	0
TAP	127	48	7
TAP	127	96	0
TAP	127	96	7
TAP	127	192	1
TAP	127	192	6
TAP	127	240	1
TAP	127	240	6
TAP	127	288	1
TAP	127	288	6
TAP	128	0	2
TAP	128	0	5
TAP	128	48	2
TAP	128	48	5
TAP	128	96	2
TAP	128	96	5
TAP	128	192	3
TAP	128	192	4
TAP	128	240	3
TAP	128	240	4
TAP	128	288	3
TAP	128	288	4
TAP	129	0	2
TAP	129	0	5
TAP	129	192	1
TAP	129	192	6
BRK	130	0	0
BRK	130	0	7

T_REC_TAP	398
T_REC_BRK	18
T_REC_XTP	18
T_REC_HLD	15
T_REC_XHO	0
T_REC_STR	24
T_REC_BST	4
T_REC_XST	4
T_REC_TTP	22
T_REC_THO	0
T_REC_SLD	32
T_REC_ALL	535
T_NUM_TAP	466
T_NUM_BRK	22
T_NUM_HLD	15
T_NUM_SLD	32
T_NUM_ALL	535
T_JUDGE_TAP	488
T_JUDGE_HLD	56
T_JUDGE_SLD	32
T_JUDGE_ALL	576
TTM_EACHPAIRS	161
TTM_SCR_TAP	233000
TTM_SCR_BRK	57200
TTM_SCR_HLD	15000
TTM_SCR_SLD	48000
TTM_SCR_ALL	353200
TTM_SCR_S	340500
TTM_SCR_SS	351000
TTM_RAT_ACV	10062

