VERSION	0.00.00	1.03.00
FES_MODE	0
BPM_DEF	234.000	234.000	234.000	234.000
MET_DEF	4	4
RESOLUTION	384
CLK_DEF	384
COMPATIBLE_CODE	MA2

BPM	0	0	234.000
MET	0	0	4	4

TAP	6	0	0
TAP	7	0	0
TAP	8	0	7
TAP	9	0	7
TAP	10	0	0
TAP	10	192	0
TAP	11	0	0
TAP	12	0	1
TAP	12	192	1
TAP	13	0	1
TAP	14	0	2
TAP	14	192	2
TAP	15	0	2
TAP	16	0	3
TAP	16	192	3
TAP	17	0	3
TAP	17	0	4
TAP	18	0	4
TAP	18	192	4
TAP	19	0	4
TAP	20	0	5
TAP	20	192	5
TAP	21	0	5
TAP	22	0	6
TAP	22	192	6
TAP	23	0	6
BRK	24	0	0
BRK	24	0	7
STR	26	0	7
SI_	26	0	7	96	480	4
TAP	29	0	0
STR	30	0	0
SI_	30	0	0	96	480	3
TAP	33	0	7
STR	34	0	7
SI_	34	0	7	96	480	3
TAP	37	0	0
STR	38	0	0
SI_	38	0	0	96	480	4
TAP	41	0	7
BRK	42	0	7
TAP	44	0	7
TAP	44	192	7
TAP	45	0	6
TAP	45	192	6
HLD	46	0	6	384
TAP	48	0	5
TAP	48	192	5
TAP	49	0	4
TAP	49	192	4
HLD	50	0	3	384
HLD	50	0	4	384
TAP	52	0	3
TAP	52	192	3
TAP	53	0	2
TAP	53	192	2
HLD	54	0	2	384
TAP	56	0	1
TAP	56	192	1
TAP	57	0	0
TAP	57	192	0
TAP	58	0	0
TAP	58	0	7
TAP	58	192	0
TAP	58	192	7
XTP	59	0	0
XTP	59	0	7
TAP	60	0	1
TAP	60	192	1
TAP	61	0	0
TAP	61	0	1
TAP	62	0	2
TAP	62	192	2
TAP	63	0	2
TAP	63	0	3
TAP	64	0	4
TAP	64	192	4
TAP	65	0	4
TAP	65	0	5
TAP	66	0	6
TAP	66	192	6
TAP	67	0	6
TAP	67	0	7
HLD	68	0	6	384
HLD	68	0	7	384
HLD	70	0	4	384
HLD	70	0	5	384
HLD	72	0	2	384
HLD	72	0	3	384
HLD	74	0	0	384
HLD	74	0	1	384
BRK	76	0	7
TTP	77	0	0	B	0	L1
TTP	78	0	7	B	0	L1
TTP	79	0	1	B	0	L1
TTP	80	0	6	B	0	L1
TTP	81	0	2	B	0	L1
TTP	82	0	5	B	0	L1
THO	83	0	0	384	C	1	L1
TAP	85	0	0
TAP	85	192	0
TAP	86	0	1
TAP	86	96	1
TAP	86	192	1
TAP	87	0	2
TAP	87	192	2
TAP	88	0	3
TAP	88	96	3
TAP	88	192	3
TAP	88	192	4
TAP	89	0	4
TAP	89	192	4
TAP	90	0	5
TAP	90	96	5
TAP	90	192	5
TAP	91	0	6
TAP	91	192	6
TAP	92	0	7
TAP	92	96	7
TAP	92	192	7
TAP	93	0	0
TAP	93	0	7
TAP	93	192	0
TAP	93	192	7
STR	94	0	0
SI_	94	0	0	96	480	3
STR	94	0	7
SI_	94	0	7	96	480	4
XTP	97	0	3
TAP	98	0	2
TAP	98	0	3
TAP	99	0	4
TAP	100	0	4
TAP	100	0	5
TAP	101	0	6
TAP	102	0	6
TAP	102	0	7
TAP	103	0	0
XTP	104	0	0
XTP	104	0	1
TAP	105	0	7
TAP	105	96	7
TAP	105	192	7
TAP	106	0	6
TAP	106	96	6
TAP	106	192	6
TAP	107	0	5
TAP	107	96	5
TAP	107	192	5
TAP	108	0	3
TAP	108	0	4
TAP	108	192	3
TAP	108	192	4
TAP	109	0	3
TAP	109	96	3
TAP	109	192	3
TAP	110	0	2
TAP	110	96	2
TAP	110	192	2
TAP	111	0	1
TAP	111	96	1
TAP	111	192	1
TAP	112	0	0
TAP	112	96	0
TAP	112	192	0
TAP	113	0	7
TAP	113	96	7
TAP	113	192	7
TAP	114	0	0
TAP	114	0	7
TAP	114	96	0
TAP	114	96	7
TAP	114	192	0
TAP	114	192	7
BRK	115	0	1
BRK	115	0	6
HLD	119	0	0	192
HLD	119	0	1	192
TAP	120	0	0
TAP	120	0	1
HLD	121	0	6	192
HLD	121	0	7	192
TAP	122	0	6
TAP	122	0	7
BRK	123	0	0
TAP	123	96	0
TAP	123	192	1
TAP	123	288	1
TAP	124	0	2
TAP	124	96	2
TAP	124	192	2
TAP	124	192	3
TAP	125	0	4
TAP	125	96	4
TAP	125	192	5
TAP	125	288	5
TAP	126	0	6
TAP	126	96	6
TAP	126	192	6
TAP	126	192	7
TAP	127	0	0
TAP	127	96	0
TAP	127	192	7
TAP	127	288	7
TAP	128	0	0
TAP	128	0	7
TAP	128	96	0
TAP	128	96	7
TAP	128	192	0
TAP	128	192	7
HLD	129	0	1	192
HLD	129	0	6	192
BRK	130	0	1
BRK	130	0	6

T_REC_TAP	163
T_REC_BRK	9
T_REC_XTP	5
T_REC_HLD	18
T_REC_XHO	0
T_REC_STR	6
T_REC_BST	0
T_REC_XST	0
T_REC_TTP	6
T_REC_THO	1
T_REC_SLD	6
T_REC_ALL	214
T_NUM_TAP	180
T_NUM_BRK	9
T_NUM_HLD	19
T_NUM_SLD	6
T_NUM_ALL	214
T_JUDGE_TAP	189
T_JUDGE_HLD	128
T_JUDGE_SLD	6
T_JUDGE_ALL	323
TTM_EACHPAIRS	39
TTM_SCR_TAP	90000
TTM_SCR_BRK	23400
TTM_SCR_HLD	19000
TTM_SCR_SLD	9000
TTM_SCR_ALL	141400
TTM_SCR_S	136300
TTM_SCR_SS	140500
TTM_RAT_ACV	10064

