VERSION	0.00.00	1.03.00
FES_MODE	0
BPM_DEF	165.000	165.000	165.000	165.000
MET_DEF	4	4
RESOLUTION	384
CLK_DEF	384
COMPATIBLE_CODE	MA2

BPM	0	0	165.000
MET	0	0	4	4

BRK	2	336	0
BRK	2	336	7
TAP	2	344	1
TAP	2	344	6
TAP	2	352	2
TAP	2	352	5
STR	2	360	3
SCR	2	360	3	96	984	3
STR	2	360	4
SCL	2	360	4	96	984	4
THO	6	0	0	384	C	0	M1
BRK	7	192	0
BRK	7	192	7
BRK	7	200	1
BRK	7	200	6
BRK	7	208	2
BRK	7	208	5
BST	7	216	3
SCR	7	216	3	96	744	3
BST	7	216	4
SCL	7	216	4	96	744	4
TTP	10	0	0	C	1	M1
TTP	10	0	1	B	0	M1
TTP	10	0	2	B	0	M1
TTP	10	0	2	E	0	M1
TTP	10	0	5	B	0	M1
TTP	10	0	6	B	0	M1
TTP	10	0	6	E	0	M1
TAP	11	0	1
STR	11	0	7
SSR	11	0	7	96	192	3
TAP	11	288	1
TAP	11	336	1
XST	12	0	0
SSL	12	0	0	96	192	4
TAP	12	0	4
TAP	12	288	5
TAP	12	336	5
TAP	13	0	2
XST	13	0	6
SSL	13	0	6	96	192	2
TAP	13	288	1
TAP	13	336	1
HLD	14	0	0	192
TAP	14	0	4
TAP	14	144	3
XTP	14	192	3
XTP	14	264	2
XTP	14	264	4
XTP	14	336	3
XTP	14	336	5
STR	15	0	2
SSR	15	0	2	96	192	6
XTP	15	0	6
TAP	15	288	4
TAP	15	336	4
XTP	16	0	1
STR	16	0	5
SSR	16	0	5	96	192	1
TAP	16	288	0
TAP	16	336	0
STR	17	0	1
SXR	17	0	1	96	192	4
STR	17	0	6
SXL	17	0	6	96	192	3
XHO	18	0	2	96
XHO	18	0	5	96
STR	18	192	3
SI_	18	192	3	96	48	0
STR	18	192	4
SI_	18	192	4	96	48	7
TTP	18	288	0	C	1	M1
TTP	18	288	0	E	0	M1
TTP	18	288	4	E	0	M1
TAP	19	0	5
TAP	19	24	4
TAP	19	48	6
TAP	19	96	2
TAP	19	96	4
TAP	19	144	1
TAP	19	192	3
TAP	19	192	5
TAP	19	240	6
TAP	19	264	4
TAP	19	288	5
TAP	19	312	3
TAP	19	336	7
TAP	20	0	2
TAP	20	24	4
TAP	20	48	1
TAP	20	96	3
TAP	20	96	5
TAP	20	144	6
TAP	20	192	2
TAP	20	192	4
TAP	20	240	1
TAP	20	264	3
TAP	20	288	2
TAP	20	312	4
TAP	20	336	0
TAP	21	0	2
TAP	21	24	3
TAP	21	48	1
TAP	21	96	3
TAP	21	96	5
TAP	21	144	6
TAP	21	192	2
TAP	21	192	4
TAP	21	240	1
TAP	21	264	3
TAP	21	288	2
TAP	21	312	4
TAP	21	336	0
HLD	22	0	6	48
TAP	22	48	2
HLD	22	72	5	48
TAP	22	120	0
HLD	22	144	4	48
TAP	22	192	1
TAP	22	216	3
TAP	22	240	2
TAP	22	264	5
TAP	22	288	0
TAP	22	312	4
TAP	22	336	2
TAP	22	360	6
TAP	23	0	3
TAP	23	24	4
TAP	23	48	1
TAP	23	96	3
TAP	23	96	5
TAP	23	144	6
TAP	23	192	2
TAP	23	192	4
TAP	23	240	1
TAP	23	264	5
TAP	23	288	3
TAP	23	312	4
TAP	23	336	0
TAP	24	0	5
TAP	24	24	4
TAP	24	48	6
TAP	24	96	2
TAP	24	96	3
TAP	24	144	1
TAP	24	192	4
TAP	24	192	5
TAP	24	240	6
TAP	24	264	3
TAP	24	288	5
TAP	24	312	4
TAP	24	336	7
TAP	25	0	3
TAP	25	24	4
TAP	25	48	1
TAP	25	96	3
TAP	25	96	5
TAP	25	144	6
HLD	25	192	2	48
TAP	25	240	7
HLD	25	264	1	48
TAP	25	312	5
HLD	25	336	0	48
STR	26	0	3
SI_	26	0	3	96	48	7
STR	26	48	1
SI_	26	48	1	96	48	4
TAP	26	96	3
TAP	26	144	1
TAP	26	240	3
TAP	26	240	5
BRK	26	288	1
BRK	26	288	7
TAP	27	0	1
TAP	27	24	3
TAP	27	48	2
HLD	27	96	4	48
TAP	27	144	2
TAP	27	168	3
TAP	27	192	1
HLD	27	240	0	96
TAP	27	240	4
TAP	27	336	3
TAP	28	0	0
STR	28	0	3
SI_	28	0	3	96	48	5
TAP	28	96	1
STR	28	144	1
SI_	28	144	1	96	48	3
TAP	28	240	7
TAP	28	288	7
TAP	29	0	6
TAP	29	24	4
TAP	29	48	5
HLD	29	96	3	48
TAP	29	144	5
TAP	29	168	4
TAP	29	192	6
TAP	29	240	3
HLD	29	240	7	96
TAP	29	336	4
STR	30	0	4
SI_	30	0	4	96	48	2
TAP	30	0	7
TAP	30	96	6
STR	30	144	6
SI_	30	144	6	96	48	4
TAP	30	240	0
TAP	30	288	0
TAP	31	0	2
TAP	31	24	3
TAP	31	48	1
HLD	31	96	0	48
TAP	31	96	4
TAP	31	144	3
TAP	31	168	1
HLD	31	192	4	144
HLD	31	240	2	96
STR	32	0	2
SI_	32	0	2	96	48	4
TAP	32	0	4
TAP	32	96	6
STR	32	144	6
SI_	32	144	6	96	48	2
TAP	32	240	0
TAP	32	288	0
TAP	33	0	6
TAP	33	24	7
TAP	33	48	5
TAP	33	96	3
TAP	33	96	4
TAP	33	144	2
TAP	33	168	3
HLD	33	192	1	144
HLD	33	240	4	96
TAP	34	0	2
STR	34	0	5
SI_	34	0	5	96	48	1
TAP	34	96	1
STR	34	192	0
SI_	34	192	0	96	48	4
STR	34	192	2
SI_	34	192	2	96	48	6
STR	35	0	5
SI_	35	0	5	96	48	7
STR	35	48	7
SI_	35	48	7	96	48	3
TAP	35	72	7
TAP	35	144	1
STR	35	192	2
SI_	35	192	2	96	48	0
STR	35	240	0
SI_	35	240	0	96	48	4
TAP	35	264	0
TAP	35	336	6
STR	36	0	5
SI_	36	0	5	96	48	0
STR	36	48	0
SI_	36	48	0	96	48	4
TAP	36	72	0
TAP	36	144	3
STR	36	192	2
SI_	36	192	2	96	48	7
STR	36	240	7
SI_	36	240	7	96	48	3
TAP	36	264	7
TAP	36	336	4
STR	37	0	5
SCR	37	0	5	96	48	0
STR	37	48	0
SI_	37	48	0	96	48	4
TAP	37	72	0
TAP	37	144	3
STR	37	192	2
SCL	37	192	2	96	48	7
STR	37	240	7
SI_	37	240	7	96	48	3
TAP	37	264	7
TAP	37	336	5
HLD	38	0	6	72
TAP	38	72	4
TAP	38	96	4
TAP	38	120	5
TAP	38	144	2
TAP	38	168	3
STR	38	192	1
SCR	38	192	1	96	48	4
TAP	38	240	0
XTP	38	288	1
TAP	38	288	7
TAP	38	336	7
STR	39	0	6
SLL	39	0	6	96	96	0
TAP	39	48	4
TAP	39	72	4
TAP	39	144	3
STR	39	192	2
SLL	39	192	2	96	96	4
TAP	39	240	7
TAP	39	264	7
TAP	39	336	6
STR	40	0	5
SLR	40	0	5	96	96	3
TAP	40	48	3
TAP	40	72	3
TAP	40	144	2
STR	40	192	1
SLR	40	192	1	96	96	7
TAP	40	240	4
TAP	40	264	4
TAP	40	336	5
XTP	41	0	6
TAP	41	48	0
TAP	41	48	4
TAP	41	72	0
TAP	41	72	4
TAP	41	120	1
TAP	41	144	1
TAP	41	192	3
TAP	41	192	7
TAP	41	216	3
TAP	41	216	7
TAP	41	264	5
TAP	41	288	5
TAP	41	336	2
TAP	41	360	3
XST	42	0	0
SI_	42	0	0	96	48	3
SCR	42	0	0	96	48	3
XST	42	96	0
SI_	42	96	0	96	48	5
SCL	42	96	0	96	48	5
XST	42	192	0
SF_	42	192	0	96	48	4
XTP	42	288	0
XST	43	0	2
SI_	43	0	2	96	48	7
XST	43	0	6
SI_	43	0	6	96	48	3
TAP	43	96	2
TAP	43	96	6
HLD	43	192	0	48
HLD	43	192	4	48
HLD	43	264	1	48
HLD	43	264	3	48
TAP	43	336	2
HLD	44	0	3	48
HLD	44	0	7	48
HLD	44	72	4	48
HLD	44	72	6	48
STR	44	144	5
SI_	44	144	5	96	48	1
TAP	44	240	0
TAP	44	288	2
TAP	44	336	0
TAP	44	336	3
STR	45	0	4
SI_	45	0	4	96	48	0
STR	45	0	7
SI_	45	0	7	96	48	3
TAP	45	96	4
TAP	45	96	7
HLD	45	192	1	48
HLD	45	192	4	48
HLD	45	264	3	48
HLD	45	264	6	48
TAP	45	336	1
TAP	45	336	5
STR	46	0	0
SSL	46	0	0	96	144	4
HLD	46	0	4	72
TAP	46	144	3
TAP	46	192	5
TAP	46	240	7
TAP	46	288	7
XST	47	0	2
SI_	47	0	2	96	48	7
XST	47	0	6
SI_	47	0	6	96	48	3
TAP	47	96	2
TAP	47	96	6
HLD	47	192	0	48
HLD	47	192	4	48
HLD	47	264	1	48
HLD	47	264	3	48
TAP	47	336	2
TAP	47	336	6
TAP	48	0	5
TAP	48	24	4
TAP	48	24	5
TAP	48	72	2
TAP	48	96	2
TAP	48	96	3
TAP	48	144	5
TAP	48	168	4
TAP	48	168	6
TAP	48	216	2
TAP	48	240	1
TAP	48	240	3
XTP	48	288	0
XTP	48	288	7
TAP	49	0	0
TAP	49	24	7
TAP	49	48	0
TAP	49	72	7
TAP	49	96	0
TAP	49	120	7
TAP	49	144	0
TAP	49	168	7
TAP	49	192	0
TAP	49	204	1
TAP	49	216	2
TAP	49	228	3
TAP	49	240	7
TAP	49	252	6
TAP	49	264	5
TAP	49	276	4
TAP	49	288	1
TAP	49	300	2
TAP	49	312	3
TAP	49	324	4
TAP	49	336	6
TAP	49	348	5
TAP	49	360	4
TAP	49	372	3
THO	50	0	0	192	C	1	M1
XTP	50	192	0
STR	50	288	2
SCR	50	288	2	96	96	6
STR	50	288	6
SV_	50	288	6	96	48	3
XTP	51	0	2
XST	51	0	6
SCR	51	0	6	96	96	2
STR	51	96	3
SI_	51	96	3	96	48	0
XST	51	192	3
SXR	51	192	3	96	336	7
XTP	51	288	7
TAP	52	0	7
STR	52	96	6
SI_	52	96	6	96	48	2
XTP	52	192	6
TAP	52	288	0
TAP	52	288	4
TAP	53	0	1
TAP	53	24	3
TAP	53	48	1
TAP	53	72	3
HLD	53	96	2	48
TAP	53	144	6
TAP	53	168	4
TAP	53	192	6
TAP	53	216	4
HLD	53	240	5	48
TAP	53	288	0
TAP	53	312	7
TAP	53	336	0
TAP	53	360	7
STR	54	0	1
SI_	54	0	1	96	48	4
STR	54	0	6
SI_	54	0	6	96	48	3
TAP	54	96	1
TAP	54	96	6
TAP	54	192	0
TAP	54	240	6
STR	54	288	1
SV_	54	288	1	96	48	4
STR	54	288	5
SCL	54	288	5	96	96	1
XST	55	0	1
SCL	55	0	1	96	96	5
XTP	55	0	5
STR	55	96	4
SI_	55	96	4	96	48	7
XST	55	192	4
SXL	55	192	4	96	336	0
XTP	55	288	0
TAP	56	0	0
STR	56	96	1
SI_	56	96	1	96	48	5
XTP	56	192	1
TAP	56	288	3
TAP	56	288	7
TAP	57	0	6
TAP	57	24	4
TAP	57	48	6
TAP	57	72	4
HLD	57	96	5	48
TAP	57	144	1
TAP	57	168	3
TAP	57	192	1
TAP	57	216	3
HLD	57	240	2	48
TAP	57	288	7
TAP	57	312	0
TAP	57	336	7
TAP	57	360	0
TTP	58	0	7	E	0	M1
TTP	58	16	6	E	0	M1
TTP	58	32	5	E	0	M1
TTP	58	48	1	E	0	M1
TTP	58	64	2	E	0	M1
TTP	58	80	3	E	0	M1
TTP	58	96	7	B	0	M1
TTP	58	108	6	B	0	M1
TTP	58	120	5	B	0	M1
TTP	58	132	4	B	0	M1
TTP	58	144	0	B	0	M1
TTP	58	156	1	B	0	M1
TTP	58	168	2	B	0	M1
TTP	58	180	3	B	0	M1
THO	58	192	0	192	C	1	M1
TTP	59	0	1	E	0	M1
TTP	59	0	2	E	0	M1
TTP	59	0	6	E	0	M1
TTP	59	0	7	E	0	M1
XTP	59	96	0
XTP	59	96	7
HLD	59	192	1	48
TAP	59	240	3
HLD	59	264	2	48
TAP	59	312	0
HLD	59	336	3	48
HLD	60	0	6	48
TAP	60	48	4
HLD	60	72	5	48
TAP	60	120	7
STR	60	144	4
SSL	60	144	4	96	144	0
HLD	60	192	0	24
HLD	60	240	0	24
HLD	60	288	1	24
HLD	60	336	1	24
XTP	61	0	1
TAP	61	48	2
TAP	61	72	2
TAP	61	120	3
TAP	61	120	5
STR	61	144	3
SSR	61	144	3	96	144	7
TAP	61	144	5
HLD	61	192	7	24
HLD	61	240	7	24
HLD	61	288	6	24
HLD	61	336	6	24
STR	62	0	6
SLL	62	0	6	96	96	2
TAP	62	96	2
TAP	62	144	1
TAP	62	192	0
TAP	62	240	7
STR	62	288	2
SLR	62	288	2	96	96	6
STR	62	288	6
SLL	62	288	6	96	96	2
XTP	63	0	2
STR	63	0	6
SCR	63	0	6	96	192	6
TTP	63	192	0	C	1	M1
TAP	64	0	0
HLD	64	0	5	48
TAP	64	48	7
HLD	64	72	6	48
TAP	64	120	4
HLD	64	144	7	48
HLD	64	192	2	48
TAP	64	240	0
HLD	64	264	1	48
TAP	64	312	3
TAP	64	336	0
TAP	65	0	7
TAP	65	24	0
TAP	65	48	7
TAP	65	72	0
TAP	65	96	7
TAP	65	120	0
TAP	65	144	7
TAP	65	168	0
XTP	65	192	0
TAP	65	192	7
TAP	65	216	0
XTP	65	216	7
XTP	65	240	0
TAP	65	240	7
TAP	65	264	0
XTP	65	264	7
XTP	65	288	0
TAP	65	288	7
TAP	65	304	1
XTP	65	304	6
XTP	65	320	2
TAP	65	320	5
TAP	65	336	3
XTP	65	336	4
THO	66	0	0	240	C	0	M1
TAP	66	240	7
TAP	66	256	6
TAP	66	272	5
XTP	66	288	0
XTP	66	288	4
STR	67	0	1
SI_	67	0	1	96	24	4
TAP	67	24	0
TAP	67	48	2
TAP	67	72	0
BRK	67	96	1
STR	67	144	6
SI_	67	144	6	96	24	3
TAP	67	168	7
TAP	67	192	5
TAP	67	216	7
BRK	67	240	6
STR	67	288	1
SCR	67	288	1	96	24	4
TAP	67	312	0
TAP	67	336	2
TAP	67	360	7
BRK	68	0	1
STR	68	48	6
SI_	68	48	6	96	24	2
TAP	68	72	7
TAP	68	96	5
TAP	68	120	0
BRK	68	144	6
TAP	68	192	1
TAP	68	216	0
XHO	68	240	2	48
TAP	68	288	3
TAP	68	336	1
TAP	68	336	4
STR	69	0	5
SI_	69	0	5	96	24	0
TAP	69	24	4
TAP	69	48	6
TAP	69	72	3
BRK	69	96	5
STR	69	144	2
SI_	69	144	2	96	24	7
TAP	69	168	3
TAP	69	192	1
TAP	69	216	4
BRK	69	240	2
TAP	69	288	6
TAP	69	312	0
TAP	69	336	6
TAP	69	360	0
BST	70	0	6
SV_	70	0	6	96	48	3
TAP	70	12	5
TAP	70	24	4
TAP	70	36	3
STR	70	48	2
SI_	70	48	2	96	24	7
TAP	70	60	1
TAP	70	72	0
TAP	70	84	7
XTP	70	96	6
XTP	70	144	2
TAP	70	192	4
TAP	70	240	0
BRK	70	288	2
BRK	70	288	6
TAP	70	336	5
TAP	70	360	4
STR	71	0	6
SI_	71	0	6	96	24	3
TAP	71	24	7
TAP	71	48	5
TAP	71	72	0
BRK	71	96	6
STR	71	144	1
SI_	71	144	1	96	24	4
TAP	71	168	0
TAP	71	192	2
TAP	71	216	7
BRK	71	240	1
STR	71	288	6
SCL	71	288	6	96	24	3
TAP	71	312	0
TAP	71	336	5
TAP	71	360	4
BRK	72	0	6
STR	72	48	1
SI_	72	48	1	96	24	5
TAP	72	72	7
TAP	72	96	2
TAP	72	120	3
BRK	72	144	1
TAP	72	192	6
TAP	72	216	7
XHO	72	240	5	48
TAP	72	288	4
TAP	72	336	3
TAP	72	336	6
STR	73	0	2
SI_	73	0	2	96	24	7
TAP	73	24	3
TAP	73	48	1
TAP	73	72	5
BRK	73	96	2
STR	73	144	5
SI_	73	144	5	96	24	0
TAP	73	168	4
TAP	73	192	6
TAP	73	216	2
BRK	73	240	5
TAP	73	288	1
TAP	73	312	7
TAP	73	336	1
TAP	73	360	7
BST	74	0	1
SI_	74	0	1	96	48	5
TAP	74	12	2
TAP	74	24	3
TAP	74	36	4
TAP	74	48	5
TAP	74	60	6
TAP	74	72	7
TAP	74	84	0
TAP	74	96	1
XTP	74	96	5
TAP	74	144	7
TAP	74	192	7
TAP	74	204	6
TAP	74	216	5
TAP	74	228	4
TAP	74	240	3
TAP	74	252	2
TAP	74	264	1
TAP	74	276	0
XTP	74	288	3
XTP	74	288	7
BST	75	0	6
SI_	75	0	6	96	24	3
TAP	75	24	3
TAP	75	48	5
TAP	75	72	7
BRK	75	96	6
BST	75	144	1
SI_	75	144	1	96	24	4
TAP	75	168	4
TAP	75	192	2
TAP	75	216	0
BRK	75	240	1
BST	75	288	6
SCL	75	288	6	96	24	3
TAP	75	312	3
TAP	75	336	5
TAP	75	360	7
BRK	76	0	6
BST	76	48	1
SI_	76	48	1	96	24	5
TAP	76	72	7
TAP	76	96	3
TAP	76	120	5
BRK	76	144	1
BRK	76	192	6
TAP	76	216	7
XHO	76	240	5	48
TAP	76	288	4
TAP	76	336	0
TAP	76	336	7
BST	77	0	1
SCR	77	0	1	96	24	4
TAP	77	24	4
TAP	77	48	2
TAP	77	72	0
BRK	77	96	1
BST	77	144	6
SI_	77	144	6	96	24	2
TAP	77	168	0
TAP	77	192	4
TAP	77	216	2
BRK	77	240	6
BRK	77	288	1
TAP	77	312	0
TAP	77	336	1
TAP	77	360	0
BST	78	0	1
SV_	78	0	1	96	48	4
TAP	78	12	2
TAP	78	24	3
TAP	78	36	4
STR	78	48	5
SI_	78	48	5	96	24	0
TAP	78	60	6
TAP	78	72	7
TAP	78	84	0
XTP	78	96	1
XTP	78	144	5
TAP	78	192	3
TAP	78	240	7
BRK	78	288	1
BRK	78	288	5
TTP	79	0	5	B	0	M1
TTP	79	24	3	B	0	M1
TTP	79	48	7	B	0	M1
TTP	79	72	1	B	0	M1
TTP	79	96	4	B	0	M1
TTP	79	120	2	B	0	M1
TTP	79	144	6	B	0	M1
TTP	79	168	0	B	0	M1
TTP	79	192	5	E	0	M1
TTP	79	216	3	E	0	M1
TTP	79	240	7	E	0	M1
TTP	79	264	1	E	0	M1
THO	79	288	0	96	C	0	M1
TTP	80	0	1	B	0	M1
TTP	80	0	2	E	0	M1
TTP	80	24	7	B	0	M1
TTP	80	48	3	B	0	M1
TTP	80	48	4	E	0	M1
TTP	80	72	5	B	0	M1
TTP	80	96	0	B	0	M1
TTP	80	96	0	E	0	M1
TTP	80	120	6	B	0	M1
TTP	80	144	2	B	0	M1
TTP	80	144	2	E	0	M1
TTP	80	168	4	B	0	M1
TTP	80	192	1	B	0	M1
TTP	80	192	1	E	0	M1
TTP	80	216	7	B	0	M1
TTP	80	216	7	E	0	M1
TTP	80	240	3	B	0	M1
TTP	80	240	3	E	0	M1
TTP	80	264	5	B	0	M1
TTP	80	264	5	E	0	M1
XHO	80	288	0	96
TAP	81	0	7
TAP	81	16	6
TAP	81	32	5
TAP	81	48	4
TAP	81	64	3
TAP	81	80	2
TAP	81	96	6
TAP	81	112	5
TAP	81	128	4
TAP	81	144	3
TAP	81	160	2
TAP	81	176	1
TAP	81	192	6
TAP	81	216	7
TAP	81	240	5
TAP	81	264	0
TAP	81	288	4
TAP	81	312	1
TAP	81	336	3
TAP	81	360	2
STR	82	0	4
SCL	82	0	4	96	144	4
SCR	82	0	4	96	144	4
BRK	82	288	1
BRK	82	288	7
STR	83	0	0
SI_	83	0	0	96	48	4
TAP	83	0	6
TAP	83	24	1
STR	83	48	2
SI_	83	48	2	96	48	7
TAP	83	96	0
TAP	83	144	2
STR	83	192	5
SI_	83	192	5	96	48	0
TAP	83	240	0
TAP	83	264	1
TAP	83	288	2
TAP	83	288	5
TAP	83	336	4
TAP	84	0	3
STR	84	0	7
SI_	84	0	7	96	48	3
TAP	84	24	6
STR	84	48	5
SI_	84	48	5	96	48	0
TAP	84	96	7
TAP	84	144	5
STR	84	192	2
SI_	84	192	2	96	48	7
TAP	84	240	7
TAP	84	264	6
TAP	84	288	2
TAP	84	288	5
TAP	84	336	3
STR	85	0	0
SI_	85	0	0	96	48	4
TAP	85	0	4
TAP	85	24	1
STR	85	48	2
SI_	85	48	2	96	48	7
TAP	85	96	0
TAP	85	144	2
STR	85	192	5
SI_	85	192	5	96	48	0
TAP	85	240	0
TAP	85	264	1
STR	85	288	2
SCL	85	288	2	96	48	7
TAP	85	288	5
TAP	85	336	4
TAP	86	0	2
STR	86	0	6
SI_	86	0	6	96	48	2
TAP	86	48	5
STR	86	96	1
SCR	86	96	1	96	48	4
TAP	86	96	6
TAP	86	144	0
TAP	86	192	1
STR	86	192	7
SI_	86	192	7	96	48	3
TAP	86	240	6
BRK	86	288	0
XTP	86	288	7
TAP	87	0	2
STR	87	0	4
SI_	87	0	4	96	48	0
TAP	87	24	5
STR	87	48	6
SI_	87	48	6	96	48	3
TAP	87	96	4
TAP	87	144	6
STR	87	192	1
SI_	87	192	1	96	48	4
TAP	87	240	4
TAP	87	264	5
TAP	87	288	1
TAP	87	288	6
TAP	87	336	0
STR	88	0	3
SI_	88	0	3	96	48	7
TAP	88	0	7
TAP	88	24	2
STR	88	48	1
SI_	88	48	1	96	48	4
TAP	88	96	3
TAP	88	144	1
STR	88	192	6
SI_	88	192	6	96	48	3
TAP	88	240	3
TAP	88	264	2
TAP	88	288	1
TAP	88	288	6
TAP	88	336	7
TAP	89	0	1
TAP	89	24	0
TAP	89	48	2
TAP	89	96	3
TAP	89	96	7
TAP	89	144	6
TAP	89	168	4
HLD	89	192	5	48
TAP	89	240	3
HLD	89	264	4	48
TAP	89	312	2
HLD	89	336	3	48
STR	90	0	1
SCR	90	0	1	96	48	4
STR	90	48	0
SV_	90	48	0	96	48	5
TAP	90	96	1
TAP	90	144	0
TAP	90	240	6
TAP	90	240	7
BRK	90	288	0
BRK	90	288	4
TAP	91	0	3
TAP	91	0	5
TAP	91	48	1
HLD	91	72	1	48
TAP	91	120	3
HLD	91	144	3	48
TAP	91	192	4
HLD	91	216	4	48
TAP	91	264	6
HLD	91	288	6	48
TAP	91	336	7
TAP	91	360	5
TAP	92	0	0
TAP	92	24	4
TAP	92	48	1
TAP	92	72	3
TAP	92	96	2
TAP	92	120	0
TAP	92	144	2
TAP	92	168	7
TAP	92	192	3
TAP	92	216	5
TAP	92	240	2
TAP	92	264	6
TAP	92	288	1
HLD	92	312	7	48
TAP	92	360	0
TAP	93	0	0
TAP	93	24	3
TAP	93	48	1
TAP	93	72	7
TAP	93	96	2
TAP	93	120	6
TAP	93	144	1
TAP	93	168	5
TAP	93	192	4
TAP	93	216	6
TAP	93	240	3
TAP	93	264	5
TAP	93	288	1
TAP	93	312	1
TAP	93	336	3
TAP	93	360	2
TAP	94	0	5
TAP	94	24	3
TAP	94	48	4
TAP	94	72	1
TAP	94	96	6
TAP	94	120	7
TAP	94	144	5
TAP	94	168	2
TAP	94	192	2
TAP	94	216	6
TAP	94	240	4
TAP	94	264	5
TAP	94	288	3
TAP	94	312	4
TAP	94	336	2
TAP	94	360	3
XTP	95	0	1
TAP	95	24	1
TAP	95	48	3
XTP	95	72	4
TAP	95	96	4
TAP	95	120	6
XTP	95	144	1
TAP	95	168	1
TAP	95	192	3
XTP	95	216	4
TAP	95	240	4
TAP	95	264	6
XTP	95	288	0
TAP	95	312	0
TAP	95	336	2
XTP	95	360	7
TAP	96	0	7
TAP	96	24	5
XTP	96	48	1
TAP	96	72	1
TAP	96	96	3
XTP	96	120	6
TAP	96	144	6
TAP	96	168	4
XTP	96	192	1
TAP	96	216	0
TAP	96	240	1
XHO	96	264	7	120
TAP	97	0	2
TAP	97	24	2
TAP	97	48	6
TAP	97	72	6
TAP	97	96	3
TAP	97	108	4
TAP	97	120	5
TAP	97	132	6
TAP	97	144	7
TAP	97	156	0
TAP	97	168	1
TAP	97	180	2
TAP	97	192	6
TAP	97	216	6
TAP	97	240	4
TAP	97	264	4
TAP	97	288	2
TAP	97	300	1
TAP	97	312	0
TAP	97	324	7
TAP	97	336	6
TAP	97	348	5
TAP	97	360	4
TAP	97	372	3
TAP	98	0	0
TAP	98	24	0
TAP	98	48	2
TAP	98	72	2
TAP	98	96	4
TAP	98	108	5
TAP	98	120	6
TAP	98	132	7
TAP	98	144	0
TAP	98	156	1
TAP	98	168	2
TAP	98	180	3
TAP	98	192	7
TAP	98	216	7
TAP	98	240	5
TAP	98	264	5
STR	98	288	3
SI_	98	288	3	96	24	7
TAP	98	300	2
TAP	98	312	1
TAP	98	324	0
TAP	98	336	7
TAP	98	348	6
TAP	98	360	5
TAP	98	372	4
XTP	99	0	1
XTP	99	0	3
TTP	99	1	0	C	1	M1

T_REC_TAP	638
T_REC_BRK	39
T_REC_XTP	52
T_REC_HLD	64
T_REC_XHO	7
T_REC_STR	94
T_REC_BST	11
T_REC_XST	13
T_REC_TTP	62
T_REC_THO	5
T_REC_SLD	121
T_REC_ALL	1106
T_NUM_TAP	859
T_NUM_BRK	50
T_NUM_HLD	76
T_NUM_SLD	121
T_NUM_ALL	1106
T_JUDGE_TAP	909
T_JUDGE_HLD	112
T_JUDGE_SLD	121
T_JUDGE_ALL	1142
TTM_EACHPAIRS	119
TTM_SCR_TAP	429500
TTM_SCR_BRK	130000
TTM_SCR_HLD	76000
TTM_SCR_SLD	181500
TTM_SCR_ALL	817000
TTM_SCR_S	787650
TTM_SCR_SS	812000
TTM_RAT_ACV	10061

